osu file format v5

[General]
AudioFilename: 02 Twister.mp3
AudioLeadIn: 0
PreviewTime: -1
Countdown: 1
SampleSet: Normal

[Metadata]
Title:Twister
Artist:SAWA
Creator:NekoWaltz
Version:Hard

[Difficulty]
HPDrainRate:5
CircleSize:5
OverallDifficulty:8
SliderMultiplier:1.4
SliderTickRate:1

[Events]
//Background and Video events
0,0,"zettaslow.jpg"
//Break Periods
//Storyboard Layer 0 (Background)
//Storyboard Layer 1 (Failing)
//Storyboard Layer 2 (Passing)
//Storyboard Layer 3 (Foreground)
//Storyboard Sound Samples
//Background Colour Transformations
3,100,163,162,255

[TimingPoints]
0,497.966636235372,4,1,0,100

[HitObjects]
192,64,2240,1,0
192,128,2863,5,0
256,128,3361,5,0
320,128,3610,1,0
384,128,3859,1,0
448,128,4108,1,0
320,256,4357,5,0
320,192,4855,5,0
256,192,5228,5,0
192,192,5602,1,0
192,128,5851,1,0
128,128,6100,1,0
256,64,6349,5,0
256,192,6847,1,0
256,320,7345,5,0
256,256,7593,1,0
256,192,7842,1,0
256,128,7967,1,0
256,64,8091,1,0
384,64,8340,5,0
256,64,8589,1,0
384,128,8838,5,0
256,128,9087,1,0
384,192,9336,5,0
256,192,9585,1,0
128,128,9834,5,0
128,192,10083,1,0
256,64,10332,5,0
256,128,10830,1,0
256,128,11079,1,0
256,64,11328,1,0
192,64,11577,1,0
192,128,11826,1,0
128,128,12075,1,0
192,64,12324,5,0
192,128,12573,1,0
192,192,12822,1,0
192,256,13071,1,0
256,256,13320,5,0
192,256,13569,1,0
256,256,13818,1,0
192,256,14067,1,0
320,64,14316,5,0
320,192,14565,1,0
192,64,14814,5,0
192,192,15063,1,0
256,64,15312,5,0
256,128,15561,1,0
256,192,15810,1,0
256,256,16059,1,0
448,192,16308,5,0
448,64,16681,1,0
384,64,16806,1,0
192,64,17179,5,0
192,128,17553,1,0
192,192,17802,1,0
192,256,18175,1,0
384,64,18424,5,0
320,64,18798,1,0
256,128,19296,5,0
192,128,19545,5,0
192,64,19794,1,0
128,64,20043,1,0
64,192,20292,5,0
64,256,20541,1,0
128,128,20790,5,0
128,192,21039,1,0
192,64,21412,5,0
192,128,21537,1,0
192,192,21786,1,0
192,256,22035,1,0
320,128,22284,5,0
320,192,22532,1,0
256,128,22781,5,0
256,192,23030,1,0
192,64,23404,5,0
192,192,23653,5,0
128,192,23902,1,0
128,128,24026,1,0
128,128,24400,5,0
128,192,24649,1,0
192,128,24773,5,0
192,192,25147,1,0
384,128,25396,5,0
320,128,25645,1,0
256,128,25769,1,0
256,128,25894,1,0
256,128,26018,1,0
192,64,26392,2,0,B|256:192,3,140
256,128,28259,5,0
256,192,28384,1,0
192,64,28882,6,0,B|448:256,1,315
256,128,30375,5,0
256,256,30624,1,0
192,128,30873,6,0,B|320:128,1,105
320,64,31371,1,0
256,192,31620,1,0
384,192,31869,1,0
320,128,32118,1,0
192,64,32367,5,0
192,192,32741,1,0
192,128,32865,1,0
128,128,33239,5,0
128,128,33488,1,0
128,128,33612,1,0
128,128,33737,1,0
128,128,33861,1,0
128,128,33986,1,0
128,128,34110,1,0
256,64,34359,5,0
256,128,34733,1,0
256,64,34857,1,0
192,64,35231,5,0
192,128,35480,1,0
192,192,35604,1,0
192,256,35853,1,0
192,320,35978,1,0
192,256,36102,1,0
384,128,36351,5,0
192,128,36600,2,0,B|128:192,3,70
128,64,37596,2,0,B|256:64,2,105
320,128,38841,5,0
256,128,39339,1,0
256,192,39588,1,0
192,192,39837,1,0
192,64,40210,5,0
192,64,40708,5,0
192,128,40833,1,0
256,64,41331,1,0
256,128,41704,5,0
320,128,41829,1,0
128,64,42327,5,0
128,128,42576,1,0
128,128,42825,1,0
256,64,43074,5,0
256,128,43323,1,0
256,192,43572,1,0
320,192,43696,1,0
256,192,43821,1,0
128,64,44319,5,0
128,128,44568,1,0
128,192,44692,1,0
128,256,44816,1,0
128,256,44941,1,0
128,320,45065,1,0
256,64,45314,5,0
256,128,45563,1,0
256,192,45688,1,0
256,256,45812,1,0
256,256,45937,1,0
256,320,46186,1,0
384,128,46559,5,0
320,128,46684,1,0
128,128,47306,2,0,B|192:192,1,70
256,128,48053,5,0
192,128,48427,1,0
384,64,49174,1,0
384,128,49547,1,0
384,192,49672,1,0
384,256,49796,1,0
192,128,50294,5,0
320,192,50543,1,0
256,64,50792,1,0
256,192,51041,1,0
384,128,51290,1,0
64,64,52037,6,0,B|192:192,2,175
192,64,54402,5,0
192,128,54651,1,0
256,128,54900,1,0
384,64,55398,5,0
384,128,55647,1,0
320,128,55896,1,0
320,64,56270,5,0
320,128,56643,1,0
320,192,56892,1,0
256,128,57266,1,0
256,64,57639,5,0
256,128,57764,1,0
448,64,58262,5,0
448,128,58511,1,0
128,128,59133,5,0
192,128,59382,1,0
320,128,59631,1,0
256,128,59755,1,0
256,64,60378,5,0
256,320,60876,1,0
256,256,61125,1,0
448,192,61374,5,0
128,192,61872,1,0
192,192,62121,1,0
256,64,62370,5,0
256,128,62868,1,0
384,64,63117,5,0
384,128,63366,1,0
384,192,63615,1,0
192,192,64113,5,0
320,192,64486,1,0
256,64,64984,2,0,B|256:192,3,105
320,64,66354,1,0
256,64,66603,1,0
192,64,66727,1,0
192,64,66852,1,0
128,64,66976,1,0
128,64,67101,1,0
64,64,67349,1,0
256,192,68096,12,0,69964
