osu file format v9

[General]
AudioFilename: 01. SAVE THE QUEEN - EX-Termination.mp3
AudioLeadIn: 1300
PreviewTime: 49542
Countdown: 0
SampleSet: Normal
StackLeniency: 0.7
Mode: 1
LetterboxInBreaks: 0

[Editor]
DistanceSpacing: 0
BeatDivisor: 4
GridSize: 4

[Metadata]
Title:EX-Termination
Artist:SAVE THE QUEEN
Creator:Jenny
Version:Taiko Oni
Source:Touhou
Tags:hakurei reimu metal arrangement Somnium armpit Barrage Ring A/side Maiden's Capriccio Dream Battle Shrine Maiden Miko Dress

[Difficulty]
HPDrainRate:5
CircleSize:5
OverallDifficulty:5
ApproachRate:5
SliderMultiplier:1.4
SliderTickRate:3

[Events]
//Background and Video events
0,0,"taiko_bg.jpg"
//Break Periods
//Storyboard Layer 0 (Background)
//Storyboard Layer 1 (Fail)
//Storyboard Layer 2 (Pass)
//Storyboard Layer 3 (Foreground)
//Storyboard Sound Samples
//Background Colour Transformations
3,100,163,162,255

[TimingPoints]
793,234.375,4,1,0,80,1,0
6428,234.375,4,1,0,80,1,0
8303,-100,4,1,0,100,0,1
14982,-100,4,1,0,80,0,1
15803,-100,4,1,0,100,0,1
23410,234.375,4,1,0,80,1,0
38292,234.375,4,1,0,100,1,0
44152,-100,4,1,0,80,0,0
45792,-100,4,1,0,100,0,0
49191,-100,4,1,0,60,0,0
49542,-100,4,1,0,100,0,1
55987,-100,4,1,0,80,0,1
57042,-100,4,1,0,100,0,1
62667,-100,4,1,0,80,0,0
68292,-100,4,1,0,100,0,0
68409,-100,4,1,0,80,0,0
69229,-100,4,1,0,100,0,0
69346,-100,4,1,0,80,0,0
77784,234.375,4,1,0,80,1,0
84287,-100,4,1,0,95,0,0
84405,-100,4,1,0,80,0,0
87159,-100,4,1,0,100,0,0
87276,-100,4,1,0,80,0,0
88096,-100,4,1,0,100,0,0
88213,-100,4,1,0,80,0,0
92666,234.375,4,1,0,100,1,0
96650,-100,4,1,0,90,0,0
97939,-100,4,1,0,80,0,0
98292,-100,4,1,0,90,0,0
100167,-100,4,1,0,100,0,0
103038,-100,4,1,0,60,0,0
103916,-100,4,1,0,100,0,1
110011,-100,4,1,0,80,0,1
111417,-100,4,1,0,100,0,1
117042,-100,4,1,0,80,0,0
117101,-100,4,1,0,70,0,0
132042,-100,4,1,0,100,0,1
135792,-100,4,1,0,85,0,1
143291,-100,4,1,0,70,0,1
150791,-100,4,1,0,100,0,0
154777,-100,4,1,0,90,0,0
158292,-100,4,1,0,100,0,0
161398,-100,4,1,0,55,0,0
165792,-100,4,1,0,100,0,1
172355,-100,4,1,0,85,0,1
173292,-100,4,1,0,100,0,1
178917,-100,4,1,0,80,0,0
180792,-100,4,1,0,100,0,0
180909,-100,4,1,0,80,0,0
182667,-100,4,1,0,100,0,0
182784,-100,4,1,0,80,0,0
184542,-100,4,1,0,100,0,0
184659,-100,4,1,0,80,0,0
185479,-100,4,1,0,100,0,0
185596,-100,4,1,0,80,0,0
186416,-100,4,1,0,45,0,0
187355,-100,4,1,0,30,0,0
187824,-100,4,1,0,10,0,0

[Colours]
Combo1 : 134,13,255
Combo2 : 207,58,37
Combo3 : 51,143,193
Combo4 : 67,177,112

[HitObjects]
148,96,793,1,0
148,96,1027,1,0
148,96,1144,1,12
148,96,2668,1,0
148,96,2902,1,0
148,96,3019,1,12
148,96,4191,1,0
148,96,4308,1,8
148,96,4425,1,8
148,96,4543,1,0
148,96,4777,1,0
148,96,4894,1,12
148,96,5597,1,8
148,96,5832,1,8
148,96,6066,1,0
148,96,6183,1,8
148,96,6301,1,8
148,96,6428,1,4
148,96,6662,1,8
148,96,6779,1,8
148,96,7013,1,0
148,96,7131,1,0
148,96,7248,1,8
148,96,7365,1,0
148,96,7599,1,8
148,96,7717,1,8
148,96,7834,1,0
148,96,7951,1,8
148,96,8068,1,8
148,96,8303,1,4
148,96,8537,1,0
148,96,8654,1,8
148,96,8888,1,0
148,96,9006,1,8
148,96,9123,1,8
148,96,9240,1,0
148,96,9474,1,0
148,96,9592,1,8
148,96,9826,1,0
148,96,9943,1,8
148,96,10060,1,8
148,96,10178,1,0
148,96,10412,1,0
148,96,10529,1,8
148,96,10646,1,0
148,96,10763,1,8
148,96,10881,1,8
148,96,10998,1,0
148,96,11115,1,0
148,96,11349,1,0
148,96,11466,1,8
148,96,11583,1,0
148,96,11700,1,8
148,96,11818,1,8
148,96,11935,1,0
148,96,12052,1,0
148,96,12287,1,0
148,96,12404,1,8
148,96,12638,1,8
148,96,12756,1,8
148,96,12873,1,0
148,96,12990,1,0
148,96,13224,1,0
148,96,13342,1,8
148,96,13576,1,0
148,96,13693,1,8
148,96,13810,1,8
148,96,13928,1,0
148,96,14162,1,0
148,96,14279,1,8
148,96,14396,1,0
148,96,14513,1,8
148,96,14631,1,0
148,96,14748,1,8
148,96,14806,1,8
148,96,14865,1,8
148,96,14982,1,0
148,96,15099,1,8
148,96,15158,1,8
148,96,15217,1,8
148,96,15334,1,0
148,96,15451,1,8
148,96,15568,1,8
148,96,15685,1,0
148,96,15803,1,4
148,96,16037,1,0
148,96,16154,1,8
148,96,16388,1,0
148,96,16506,1,8
148,96,16623,1,0
148,96,16740,1,0
148,96,16974,1,0
148,96,17092,1,8
148,96,17326,1,0
148,96,17443,1,8
148,96,17560,1,8
148,96,17678,1,0
148,96,17912,1,0
148,96,18029,1,8
148,96,18263,1,8
148,96,18381,1,8
148,96,18498,1,0
148,96,18615,1,0
148,96,18849,1,0
148,96,18967,1,8
148,96,19201,1,8
148,96,19318,1,8
148,96,19435,1,0
148,96,19553,1,0
148,96,19787,1,0
148,96,19904,1,8
148,96,20138,1,0
148,96,20256,1,8
148,96,20373,1,8
148,96,20490,1,0
148,96,20724,1,0
148,96,20842,1,8
148,96,21076,1,8
148,96,21193,1,8
148,96,21310,1,8
148,96,21428,1,0
148,96,21662,1,0
148,96,21779,1,8
148,96,21896,1,4
148,96,22131,1,12
148,96,22365,1,12
148,96,23410,1,0
148,96,23527,1,0
148,96,23644,1,12
148,96,26222,1,8
148,96,26456,1,0
148,96,26574,1,8
148,96,26808,1,0
148,96,26925,1,8
148,96,27042,1,8
148,96,27160,1,0
148,96,27277,1,8
148,96,27394,1,0
148,96,29972,1,8
148,96,30089,1,8
148,96,30206,1,0
148,96,30324,1,8
148,96,30558,1,8
148,96,30675,1,8
148,96,30792,1,8
148,96,30910,1,0
148,96,31027,1,8
148,96,31144,1,0
148,96,31261,1,0
148,96,31378,1,8
148,96,31613,1,8
148,96,31730,1,0
148,96,31964,1,8
148,96,32199,1,0
148,96,32316,1,8
148,96,32550,1,8
148,96,32667,1,8
148,96,32785,1,0
148,96,32902,1,8
148,96,33136,1,0
148,96,33253,1,8
148,96,33488,1,0
148,96,33605,1,8
148,96,33722,1,8
148,96,33839,1,8
148,96,34074,1,0
148,96,34191,1,8
148,96,34425,1,8
148,96,34660,1,0
148,96,34777,1,8
148,96,34894,1,0
148,96,35011,1,8
148,96,35128,1,8
148,96,35363,1,8
148,96,35480,1,8
148,96,35597,1,0
148,96,35831,1,0
148,96,35949,1,8
148,96,36066,1,8
148,96,36300,1,0
148,96,36417,1,0
148,96,36535,1,8
148,96,36769,1,0
148,96,36887,1,8
148,96,37120,1,0
148,96,37238,1,8
148,96,37355,1,0
148,96,37472,1,8
148,96,37589,1,8
148,96,37706,1,0
148,96,37824,1,8
148,96,37941,1,8
148,96,38058,1,0
148,96,38175,1,0
148,96,38292,5,8
148,96,38409,1,0
148,96,38526,1,0
148,96,38643,1,8
148,96,38760,1,0
148,96,38877,1,8
148,96,38995,1,8
148,96,39112,1,0
148,96,39229,1,8
148,96,39463,1,0
148,96,39581,1,8
148,96,39815,1,8
148,96,39932,1,8
148,96,40049,1,0
148,96,40167,1,8
148,96,40401,1,0
148,96,40518,1,8
148,96,40635,1,8
148,96,40752,1,0
148,96,40870,1,8
148,96,40987,1,0
148,96,41104,1,8
148,96,41221,1,0
148,96,41338,1,0
148,96,41456,1,8
148,96,41573,1,8
148,96,41690,1,0
148,96,41807,1,0
148,96,41924,1,8
148,96,42042,1,8
148,96,42276,1,0
148,96,42393,1,8
148,96,42510,1,0
148,96,42627,1,8
148,96,42686,1,8
148,96,42745,1,8
148,96,42862,1,0
148,96,42979,1,0
148,96,43096,1,8
148,96,43155,1,8
148,96,43213,1,8
148,96,43331,1,0
148,96,43448,1,8
148,96,43506,1,8
148,96,43565,1,8
148,96,43682,1,0
148,96,43799,1,0
148,96,43917,1,8
148,96,44151,1,0
148,96,44268,1,8
148,96,44385,1,8
148,96,44502,1,0
148,96,44620,1,8
148,96,44737,1,0
148,96,44795,1,0
148,96,44854,1,8
148,96,44971,1,0
148,96,45088,1,8
148,96,45206,1,8
148,96,45323,1,0
148,96,45440,1,8
148,96,45557,1,0
148,96,45674,1,0
148,96,45792,1,8
148,96,46026,1,0
148,96,46143,1,8
148,96,46377,1,8
148,96,46495,1,8
148,96,46612,1,0
148,96,46729,1,8
148,96,46963,1,8
148,96,47081,1,0
148,96,47198,1,0
148,96,47315,1,8
148,96,47432,1,0
148,96,47549,1,8
148,96,47667,1,8
148,96,47901,1,8
148,96,48018,1,12
148,96,48252,1,4
148,96,48370,1,8
148,96,48604,1,8
148,96,49190,1,8
148,96,49307,1,8
148,96,49366,1,8
148,96,49424,1,8
148,96,49542,5,4
148,96,49776,1,0
148,96,49893,1,8
148,96,50127,1,8
148,96,50245,1,8
148,96,50362,1,0
148,96,50479,1,8
148,96,50713,1,0
148,96,50831,1,8
148,96,51065,1,0
148,96,51182,1,8
148,96,51299,1,8
148,96,51417,1,0
148,96,51651,1,0
148,96,51768,1,8
148,96,52002,1,8
148,96,52120,1,8
148,96,52237,1,0
148,96,52354,1,8
148,96,52588,1,8
148,96,52705,1,0
148,96,52939,1,8
148,96,53057,1,8
148,96,53174,1,0
148,96,53291,1,8
148,96,53526,1,8
148,96,53643,1,0
148,96,53877,1,8
148,96,53995,1,8
148,96,54112,1,0
148,96,54229,1,8
148,96,54463,1,8
148,96,54581,1,0
148,96,54698,1,0
148,96,54815,1,8
148,96,54932,1,8
148,96,55049,1,8
148,96,55167,1,0
148,96,55401,1,0
148,96,55518,1,8
148,96,55635,1,8
148,96,55752,1,0
148,96,55987,1,8
148,96,56104,1,0
148,96,56221,1,8
148,96,56280,1,8
148,96,56338,1,0
148,96,56456,1,8
148,96,56573,1,0
148,96,56690,1,8
148,96,56749,1,0
148,96,56807,1,8
148,96,56924,1,0
148,96,57042,1,12
148,96,57276,1,0
148,96,57393,1,8
148,96,57627,1,0
148,96,57745,1,8
148,96,57862,1,8
148,96,57979,1,0
148,96,58213,1,0
148,96,58331,1,8
148,96,58565,1,0
148,96,58682,1,8
148,96,58799,1,0
148,96,58917,1,8
148,96,59151,1,0
148,96,59268,1,0
148,96,59385,1,8
148,96,59502,1,0
148,96,59620,1,0
148,96,59737,1,8
148,96,59854,1,0
148,96,60088,1,0
148,96,60205,1,8
148,96,60322,1,8
148,96,60439,1,0
148,96,60557,1,8
148,96,60674,1,8
148,96,60792,1,0
148,96,61026,1,0
148,96,61143,1,8
148,96,61377,1,8
148,96,61612,1,8
148,96,61846,1,8
148,96,61963,1,0
148,100,62022,1,0
148,100,62081,1,8
148,100,62198,1,0
148,100,62256,1,8
148,96,62315,1,8
148,96,62432,1,8
148,96,62549,1,8
148,96,62667,5,4
148,96,62901,1,0
148,96,63018,1,8
148,96,63252,1,8
148,96,63370,1,8
148,96,63487,1,0
148,96,63604,1,0
148,96,63838,1,8
148,96,63956,1,0
148,96,64190,1,0
148,96,64307,1,8
148,96,64424,1,8
148,96,64542,1,0
148,96,64776,1,8
148,96,64893,1,8
148,96,65127,1,0
148,96,65245,1,8
148,96,65362,1,8
148,96,65479,1,0
148,96,65713,1,8
148,96,65831,1,8
148,96,66065,1,0
148,96,66182,1,8
148,96,66299,1,8
148,96,66417,1,0
148,96,66651,1,0
148,96,66768,1,8
148,96,67002,1,0
148,96,67120,1,8
148,96,67237,1,8
148,96,67354,1,0
148,96,67588,1,0
148,96,67706,1,8
148,96,67823,1,8
148,96,67940,1,0
148,96,68057,1,8
148,96,68174,1,8
148,96,68292,1,0
148,96,68526,1,8
148,96,68643,1,0
148,96,68760,1,0
148,96,68877,1,8
148,96,68995,1,8
148,96,69112,1,0
148,96,69229,1,8
148,96,69346,1,0
148,96,69463,1,8
148,96,69581,1,8
148,96,69698,1,0
148,96,69815,1,8
148,96,69932,1,8
148,96,70049,1,8
148,96,70167,1,4
148,96,70401,1,0
148,96,70518,1,8
148,96,70752,1,8
148,96,70870,1,8
148,96,70987,1,0
148,96,71104,1,8
148,96,71338,1,0
148,96,71456,1,8
148,96,71690,1,8
148,96,71807,1,8
148,96,71924,1,0
148,96,72042,1,8
148,96,72276,1,0
148,96,72393,1,8
148,96,72627,1,8
148,96,72745,1,8
148,96,72862,1,0
148,96,72979,1,8
148,96,73213,1,0
148,96,73331,1,8
148,96,73448,1,0
148,96,73565,1,8
148,96,73682,1,8
148,96,73799,1,0
148,96,73917,1,8
148,96,74151,1,0
148,96,74268,1,8
148,96,74502,1,8
148,96,74620,1,8
148,96,74737,1,0
148,96,74854,1,8
148,96,75088,1,8
148,96,75206,1,0
148,96,75323,1,0
148,96,75440,1,8
148,96,75557,1,8
148,96,75674,1,0
148,96,75792,1,4
148,96,76026,1,8
148,96,76143,1,8
148,96,76260,1,0
148,96,76377,1,8
148,96,76495,1,0
148,96,76612,1,8
148,96,76729,1,8
148,96,76846,1,0
148,96,76963,1,8
148,96,77081,1,0
148,96,77198,1,8
148,96,77315,1,8
148,96,77432,1,0
148,96,77549,1,0
148,96,77667,1,8
148,96,77784,1,0
148,96,77901,1,0
148,96,78018,1,12
148,96,80596,1,8
148,96,80830,1,0
148,96,80948,1,8
148,96,81182,1,0
148,96,81299,1,8
148,96,81416,1,8
148,96,81534,1,0
148,96,81651,1,8
148,96,81768,1,0
148,96,84346,1,8
148,96,84463,1,8
148,96,84580,1,0
148,96,84698,1,8
148,96,84932,1,8
148,96,85049,1,8
148,96,85166,1,8
148,96,85284,1,0
148,96,85401,1,8
148,96,85518,1,0
148,96,85635,1,0
148,96,85752,1,8
148,96,85987,1,8
148,96,86104,1,0
148,96,86338,1,8
148,96,86573,1,0
148,96,86690,1,8
148,96,86924,1,8
148,96,87041,1,8
148,96,87159,1,0
148,96,87276,1,8
148,96,87510,1,0
148,96,87627,1,8
148,96,87862,1,0
148,96,87979,1,8
148,96,88096,1,8
148,96,88213,1,8
148,96,88448,1,0
148,96,88565,1,8
148,96,88799,1,8
148,96,89034,1,0
148,96,89151,1,8
148,96,89268,1,0
148,96,89385,1,8
148,96,89502,1,8
148,96,89737,1,8
148,96,89854,1,8
148,96,89971,1,0
148,96,90088,1,8
148,96,90323,1,0
148,96,90440,1,8
148,96,90674,1,0
148,96,90791,1,0
148,96,90909,1,8
148,96,91143,1,0
148,96,91261,1,8
148,96,91494,1,0
148,96,91612,1,8
148,96,91729,1,0
148,96,91846,1,8
148,96,91963,1,8
148,96,92080,1,0
148,96,92198,1,8
148,96,92315,1,8
148,96,92432,1,0
148,96,92666,5,8
148,96,92783,1,0
148,96,92900,1,0
148,96,93017,1,8
148,96,93134,1,0
148,96,93251,1,8
148,96,93369,1,8
148,96,93486,1,0
148,96,93603,1,8
148,96,93837,1,0
148,96,93955,1,8
148,96,94189,1,8
148,96,94306,1,8
148,96,94423,1,0
148,96,94541,1,8
148,96,94775,1,0
148,96,94892,1,8
148,96,95009,1,8
148,96,95126,1,0
148,96,95244,1,8
148,96,95361,1,0
148,96,95478,1,8
148,96,95595,1,0
148,96,95712,1,0
148,96,95830,1,8
148,96,95947,1,8
148,96,96064,1,0
148,96,96181,1,0
148,96,96298,1,8
148,96,96416,1,8
148,96,96650,1,0
148,96,96767,1,8
148,96,96884,1,0
148,96,97001,1,8
148,96,97060,1,8
148,96,97119,1,8
148,96,97236,1,0
148,96,97353,1,0
148,96,97470,1,8
148,96,97529,1,8
148,96,97587,1,8
148,96,97705,1,0
148,96,97822,1,8
148,96,97880,1,8
148,96,97939,1,8
148,96,98056,1,0
148,96,98173,1,0
148,96,98291,1,8
148,96,98525,1,0
148,96,98642,1,8
148,96,98759,1,8
148,96,98876,1,0
148,96,98994,1,8
148,96,99111,1,0
148,96,99169,1,0
148,96,99228,1,8
148,96,99345,1,0
148,96,99462,1,8
148,96,99580,1,8
148,96,99697,1,0
148,96,99814,1,8
148,96,99931,1,0
148,96,100048,1,0
148,96,100166,1,8
148,96,100400,1,0
148,96,100517,1,8
148,96,100751,1,8
148,96,100869,1,8
148,96,100986,1,0
148,96,101103,1,8
148,96,101337,1,8
148,96,101455,1,0
148,96,101572,1,0
148,96,101689,1,8
148,96,101806,1,0
148,96,101923,1,8
148,96,102041,1,8
148,96,102275,1,0
148,96,102392,1,12
148,96,102626,1,4
148,96,102744,1,8
148,96,102978,1,8
148,96,103564,1,8
148,96,103681,1,8
148,96,103740,1,8
148,96,103798,1,8
148,96,103916,5,4
148,96,104150,1,0
148,96,104267,1,8
148,96,104501,1,8
148,96,104619,1,8
148,96,104736,1,0
148,96,104853,1,8
148,96,105087,1,0
148,96,105205,1,8
148,96,105439,1,0
148,96,105556,1,8
148,96,105673,1,8
148,96,105791,1,0
148,96,106025,1,0
148,96,106142,1,8
148,96,106376,1,8
148,96,106494,1,8
148,96,106611,1,0
148,96,106728,1,8
148,96,106962,1,8
148,96,107079,1,0
148,96,107313,1,8
148,96,107431,1,8
148,96,107548,1,0
148,96,107665,1,8
148,96,107900,1,8
148,96,108017,1,0
148,96,108251,1,8
148,96,108369,1,8
148,96,108486,1,0
148,96,108603,1,8
148,96,108837,1,8
148,96,108955,1,0
148,96,109072,1,0
148,96,109189,1,8
148,96,109306,1,8
148,96,109423,1,8
148,96,109541,1,0
148,96,109775,1,0
148,96,109892,1,8
148,96,110009,1,8
148,96,110126,1,0
148,96,110361,1,8
148,96,110478,1,0
148,96,110595,1,8
148,96,110654,1,8
148,96,110712,1,0
148,96,110830,1,8
148,96,110947,1,0
148,96,111064,1,8
148,96,111123,1,0
148,96,111181,1,8
148,96,111298,1,0
148,96,111416,1,12
148,96,111650,1,0
148,96,111767,1,8
148,96,112001,1,0
148,96,112119,1,8
148,96,112236,1,8
148,96,112353,1,0
148,96,112587,1,0
148,96,112705,1,8
148,96,112939,1,0
148,96,113056,1,8
148,96,113173,1,0
148,96,113291,1,8
148,96,113525,1,0
148,96,113642,1,0
148,96,113759,1,8
148,96,113876,1,0
148,96,113994,1,0
148,96,114111,1,8
148,96,114228,1,0
148,96,114462,1,0
148,96,114579,1,8
148,96,114696,1,8
148,96,114813,1,0
148,96,114931,1,8
148,96,115048,1,8
148,96,115166,1,0
148,96,115400,1,0
148,96,115517,1,8
148,96,115751,1,8
148,96,115986,1,8
148,96,116220,5,0
148,96,116337,1,8
148,100,116455,1,0
148,100,116572,1,8
148,100,116630,1,8
148,96,116689,1,8
148,96,116806,1,0
148,96,116923,1,8
148,96,117041,5,4
148,96,117276,1,0
148,96,117393,1,8
148,96,117626,1,0
148,96,117745,1,8
148,96,117862,1,8
148,96,117978,1,0
148,96,118212,1,0
148,96,118331,1,8
148,96,118448,1,0
148,96,118565,1,8
148,96,118682,1,8
148,96,118799,1,0
148,96,118917,1,0
148,96,119151,1,8
148,96,119268,1,8
148,96,119502,1,0
148,96,119620,1,8
148,96,119737,1,0
148,96,119854,1,12
148,96,120088,1,0
148,96,120206,1,0
148,96,120323,1,12
148,96,120557,1,0
148,96,120674,1,0
148,96,120792,1,12
148,96,121026,1,0
148,96,121143,1,8
148,96,121377,1,8
148,96,121495,1,0
148,96,121612,1,8
148,96,121729,1,8
148,96,121963,1,0
148,96,122080,1,8
148,96,122315,1,8
148,96,122432,1,8
148,96,122549,1,0
148,96,122667,1,8
148,96,122901,1,0
148,96,123018,1,8
148,96,123135,1,0
148,96,123252,1,0
148,96,123370,1,8
148,96,123487,1,0
148,96,123604,1,12
148,96,123838,1,0
148,96,123956,1,0
148,96,124073,1,12
148,96,124307,1,0
148,96,124424,1,0
148,96,124541,1,12
148,96,124776,1,0
148,96,124893,1,8
148,96,125127,1,8
148,96,125245,1,0
148,96,125362,1,8
148,96,125479,1,0
148,96,125713,1,0
148,96,125831,1,8
148,96,126065,1,8
148,96,126182,1,8
148,96,126299,1,0
148,96,126417,1,8
148,96,126651,1,0
148,96,126768,1,8
148,96,127002,1,0
148,96,127120,1,8
148,96,127237,1,0
148,96,127354,1,8
148,96,127588,1,0
148,96,127706,1,8
148,96,127823,1,0
148,96,127940,1,8
148,96,128057,1,8
148,96,128174,1,8
148,96,128292,1,4
148,96,128526,1,0
148,96,128643,1,0
148,96,128877,1,8
148,96,128995,1,8
148,96,129229,1,0
148,96,129463,1,0
148,96,129581,1,8
148,96,129815,1,8
148,96,130049,1,0
148,96,130167,1,8
148,96,130284,1,0
148,96,130342,1,0
148,96,130401,1,8
148,96,130518,1,0
148,96,130751,1,8
148,96,130870,1,8
148,96,131104,1,8
148,96,131690,1,0
148,96,131807,1,0
148,96,131924,1,8
148,96,132042,5,12
148,96,132276,1,0
148,96,132393,1,8
148,96,132510,1,0
148,96,132627,1,8
148,96,132745,1,8
148,96,132862,1,0
148,96,132979,1,8
148,96,133213,1,0
148,96,133330,1,8
148,96,133447,1,0
148,96,133564,1,8
148,96,133682,1,8
148,96,133799,1,0
148,96,133917,1,8
148,96,134151,1,0
148,96,134268,1,8
148,96,134385,1,0
148,96,134502,1,8
148,96,134620,1,8
148,96,134737,1,0
148,96,134853,1,8
148,96,135088,1,0
148,96,135205,1,8
148,96,135322,1,0
148,96,135439,1,8
148,96,135557,1,8
148,96,135792,1,8
148,96,135908,1,0
148,96,136026,1,8
148,96,136142,1,8
148,96,136260,1,8
148,96,136376,1,0
148,96,136494,1,8
148,96,136611,1,0
148,96,136729,1,8
148,96,136846,1,8
148,96,136963,1,8
148,96,137080,1,8
148,96,137198,1,0
148,96,137315,1,8
148,96,137432,1,0
148,96,137549,1,8
148,96,137667,1,0
148,96,137901,1,0
148,96,138018,1,8
148,96,138135,1,8
148,96,138252,1,0
148,96,138370,1,8
148,96,138487,1,8
148,96,138604,1,0
148,96,138838,1,0
148,96,138956,1,8
148,96,139190,1,8
148,96,139306,1,0
148,96,139542,1,0
148,96,139659,1,8
148,96,139775,1,8
148,96,139893,1,8
148,96,140010,1,0
148,96,140127,1,8
148,96,140244,1,8
148,96,140362,1,8
148,96,140479,1,0
148,96,140596,1,8
148,96,140713,1,8
148,96,140831,1,8
148,96,140948,1,8
148,96,141065,1,0
148,96,141182,1,8
148,96,141298,1,8
148,96,141357,1,0
148,96,141416,1,0
148,96,141533,1,8
148,96,141650,1,8
148,96,141767,1,8
148,96,141885,1,0
148,96,142002,1,8
148,96,142060,1,8
148,96,142119,1,8
148,96,142237,1,0
148,96,142353,1,0
148,96,142470,1,8
148,96,142529,1,8
148,96,142587,1,8
148,96,142706,1,0
148,96,142823,1,0
148,96,142940,1,8
148,96,143056,1,8
148,96,143292,1,0
148,96,143409,1,0
148,96,143526,1,8
148,96,143643,1,8
148,96,143760,1,0
148,96,143877,1,0
148,96,143995,1,8
148,96,144112,1,8
148,96,144229,1,0
148,96,144346,1,8
148,96,144462,1,8
148,96,144581,1,0
148,96,144698,1,8
148,96,144815,1,0
148,96,144932,1,8
148,96,145048,1,0
148,96,145167,1,8
148,96,145284,1,0
148,96,145401,1,8
148,96,145518,1,0
148,96,145751,1,8
148,96,145810,1,0
148,96,145869,1,0
148,96,145986,1,0
148,96,146103,1,0
148,96,146220,1,8
148,96,146337,1,0
148,96,146396,1,0
148,96,146455,1,0
148,96,146573,1,8
148,96,146690,1,8
148,96,146807,1,8
148,96,147041,2,0,B|546:383,1,490
512,382,147978,2,0,B|117:72,1,490
130,82,148916,2,0,B|516:386,1,490
256,192,149853,12,0,150556
148,96,150791,5,8
148,96,150908,1,0
148,96,151025,1,0
148,96,151142,1,8
148,96,151259,1,0
148,96,151376,1,8
148,96,151494,1,8
148,96,151611,1,0
148,96,151728,1,8
148,96,151962,1,0
148,96,152080,1,8
148,96,152314,1,8
148,96,152431,1,8
148,96,152548,1,0
148,96,152666,1,8
148,96,152900,1,0
148,96,153017,1,8
148,96,153134,1,8
148,96,153251,1,0
148,96,153369,1,8
148,96,153486,1,0
148,96,153603,1,8
148,96,153720,1,0
148,96,153837,1,0
148,96,153955,1,8
148,96,154072,1,8
148,96,154189,1,0
148,96,154306,1,0
148,96,154423,1,8
148,96,154541,1,8
148,96,154775,1,0
148,96,154892,1,8
148,96,155009,1,0
148,96,155126,1,8
148,96,155185,1,8
148,96,155244,1,8
148,96,155361,1,0
148,96,155478,1,0
148,96,155595,1,8
148,96,155654,1,8
148,96,155712,1,8
148,96,155830,1,0
148,96,155947,1,8
148,96,156005,1,8
148,96,156064,1,8
148,96,156181,1,0
148,96,156298,1,0
148,96,156416,1,8
148,96,156650,1,0
148,96,156767,1,8
148,96,156884,1,8
148,96,157001,1,0
148,96,157119,1,8
148,96,157236,1,0
148,96,157294,1,0
148,96,157353,1,8
148,96,157470,1,0
148,96,157587,1,8
148,96,157705,1,8
148,96,157822,1,0
148,96,157939,1,8
148,96,158056,1,0
148,96,158173,1,0
148,96,158291,1,12
148,96,158525,1,0
148,96,158642,1,8
148,96,158876,1,8
148,96,158994,1,8
148,96,159111,1,0
148,96,159228,1,8
148,96,159462,1,8
148,96,159580,1,0
148,96,159697,1,0
148,96,159814,1,8
148,96,159931,1,0
148,96,160048,1,8
148,96,160166,1,8
148,96,160283,1,0
148,96,160400,1,8
148,96,160517,1,8
148,96,160751,1,0
148,96,160869,1,8
148,96,161103,1,8
148,96,161689,5,8
148,96,161806,1,8
148,96,161865,1,8
148,96,161923,1,8
64,68,162042,5,8
68,136,162276,1,0
124,176,162393,1,8
192,168,162510,1,8
192,168,162627,1,8
252,132,162745,1,8
252,132,162862,1,0
308,176,162979,1,8
312,108,163213,1,0
368,68,163331,1,8
436,76,163448,1,8
436,76,163565,1,8
496,112,163682,1,8
496,112,163799,1,0
444,160,163917,1,8
440,228,164151,1,0
384,268,164268,1,8
316,260,164385,1,8
316,260,164502,1,8
248,248,164620,1,8
180,260,164737,1,0
120,292,164854,1,8
76,240,165088,1,8
108,176,165206,1,0
76,112,165323,1,0
116,60,165440,1,8
128,56,165499,1,0
180,84,165557,1,8
248,60,165674,1,0
296,112,165792,5,12
344,192,166026,1,8
396,144,166143,1,8
408,76,166260,1,0
352,36,166377,1,8
328,40,166495,1,8
220,72,166612,1,8
200,140,166729,1,0
152,60,166963,1,8
100,108,167081,1,8
88,176,167198,1,0
144,216,167315,1,8
208,188,167432,1,8
276,180,167549,1,8
320,236,167667,1,0
440,196,167901,1,8
424,128,168018,1,8
364,92,168135,1,8
364,92,168252,1,0
304,128,168370,1,0
308,52,168487,1,8
252,92,168604,1,8
156,132,168838,1,8
88,112,168956,1,8
32,156,169073,1,0
32,156,169190,1,8
32,156,169307,1,0
68,216,169424,1,8
136,232,169542,1,8
268,236,169776,1,8
324,280,169893,1,0
340,212,170010,1,8
340,212,170127,1,8
404,184,170245,1,8
376,120,170362,1,0
424,68,170479,1,8
424,68,170713,1,8
424,68,170831,1,8
364,32,170948,1,0
304,72,171065,1,8
236,56,171182,1,8
204,120,171299,1,0
136,100,171417,1,8
84,144,171534,1,0
88,212,171651,1,8
132,268,171768,1,8
200,248,171885,1,0
260,288,172002,1,8
312,336,172120,1,0
364,288,172237,1,8
364,288,172354,1,8
340,224,172471,1,0
340,224,172530,1,0
340,224,172588,1,8
380,168,172706,1,8
404,104,172823,1,8
356,52,172940,1,0
288,52,173057,1,8
232,92,173174,1,0
232,92,173292,5,12
120,116,173526,1,8
100,184,173643,1,8
52,236,173760,1,0
80,300,173877,1,8
80,300,173995,1,8
148,316,174112,1,0
148,316,174229,1,8
184,272,174346,1,0
192,264,174463,1,8
264,272,174581,1,0
284,204,174698,1,0
332,152,174815,1,0
396,128,174932,1,8
444,76,175049,1,8
404,44,175167,1,0
356,48,175401,1,8
332,44,175518,1,8
308,40,175635,1,0
284,40,175752,1,8
264,56,175870,1,0
244,68,175987,1,8
220,72,176104,1,8
196,68,176221,1,0
172,64,176338,1,8
148,72,176456,1,0
136,96,176573,1,8
136,120,176690,1,8
144,144,176807,1,8
164,160,176924,1,0
184,176,177042,1,8
200,192,177159,1,0
216,208,177276,1,8
236,224,177393,1,8
252,244,177510,1,0
276,252,177627,1,8
300,240,177745,1,0
324,228,177862,1,8
344,208,177979,1,0
352,196,178038,1,0
356,184,178096,1,8
348,160,178213,1,0
360,136,178331,1,8
348,112,178448,1,0
364,92,178565,1,8
376,84,178624,1,0
388,76,178682,1,8
412,64,178799,1,0
436,52,178917,1,12
388,36,179151,1,0
364,40,179268,1,8
312,44,179502,1,8
288,48,179620,1,8
268,64,179737,1,0
244,72,179854,1,8
196,88,180088,1,0
172,84,180206,1,8
148,128,180440,1,8
144,152,180557,1,8
152,176,180674,1,0
164,200,180792,1,12
204,232,181026,1,0
228,240,181143,1,8
280,228,181377,1,8
304,220,181495,1,8
328,208,181612,1,0
352,196,181729,1,8
396,172,181963,1,8
416,152,182081,1,8
424,128,182198,1,0
428,104,182315,1,8
432,80,182432,1,8
412,64,182549,1,0
388,60,182667,1,12
336,72,182901,1,0
312,64,183018,1,8
268,92,183252,1,8
244,100,183370,1,8
220,96,183487,1,0
196,92,183604,1,8
148,108,183838,1,0
144,120,183897,1,0
144,132,183956,1,8
152,156,184073,1,0
156,180,184190,1,8
156,204,184307,1,8
148,228,184424,1,0
136,252,184542,5,12
108,296,184776,1,8
108,320,184893,1,8
132,332,185010,1,0
156,336,185127,1,8
168,336,185185,1,0
180,328,185245,1,8
200,312,185362,1,0
212,292,185479,1,8
232,244,185713,1,0
236,220,185831,1,8
236,196,185948,5,8
228,172,186065,1,0
232,148,186182,1,8
252,132,186299,1,8
272,128,186417,1,4
256,192,186534,12,0,188057
