osu file format v9

[General]
AudioFilename: 01. SAVE THE QUEEN - EX-Termination.mp3
AudioLeadIn: 1300
PreviewTime: 49542
Countdown: 0
SampleSet: Normal
StackLeniency: 0.7
Mode: 0
LetterboxInBreaks: 0

[Editor]
DistanceSpacing: 1
BeatDivisor: 4
GridSize: 4

[Metadata]
Title:EX-Termination
Artist:SAVE THE QUEEN
Creator:Jenny
Version:Combustion
Source:Touhou
Tags:hakurei reimu metal arrangement Somnium armpit Barrage Ring A/side Maiden's Capriccio Dream Battle Shrine Maiden Miko Dress

[Difficulty]
HPDrainRate:7
CircleSize:4
OverallDifficulty:8
ApproachRate:9
SliderMultiplier:1.8
SliderTickRate:2

[Events]
//Background and Video events
0,0,"bg.png"
//Break Periods
2,23410,25622
2,27711,29372
2,62867,69567
2,78335,79996
2,82085,83746
2,117241,123941
2,162042,164839
//Storyboard Layer 0 (Background)
//Storyboard Layer 1 (Fail)
//Storyboard Layer 2 (Pass)
//Storyboard Layer 3 (Foreground)
//Storyboard Sound Samples
//Background Colour Transformations
3,100,163,162,255

[TimingPoints]
793,234.375,4,1,1,60,1,0
5539,-100,4,2,0,50,0,0
5656,-100,4,1,1,60,0,0
5773,-100,4,2,0,60,0,0
5890,-100,4,1,1,60,0,0
6007,-100,4,1,1,40,0,0
6125,-100,4,1,1,50,0,0
6242,-100,4,1,1,60,0,0
6428,234.375,4,1,1,60,1,0
8068,-100,4,1,1,35,0,0
8303,-100,4,1,1,90,0,1
8361,-100,4,1,1,90,0,0
14982,-100,4,1,1,80,0,0
15803,-100,4,1,1,90,0,1
15861,-100,4,1,1,90,0,0
19260,-100,4,1,1,70,0,0
19377,-100,4,1,1,90,0,0
21428,-133.333333333333,4,1,1,90,0,0
21779,-100,4,1,1,90,0,0
23410,234.375,4,1,1,80,1,0
26222,-133.333333333333,4,1,1,80,0,0
27452,-133.333333333333,4,1,1,60,0,0
27570,-133.333333333333,4,1,1,60,0,0
29972,-133.333333333333,4,1,1,80,0,0
36535,-133.333333333333,4,1,1,50,0,0
36769,-133.333333333333,4,1,1,60,0,0
37003,-133.333333333333,4,1,1,70,0,0
37238,-133.333333333333,4,1,1,80,0,0
37472,-133.333333333333,4,1,1,90,0,0
37941,-133.333333333333,4,1,1,80,0,0
38292,234.375,4,1,1,90,1,1
41690,-100,4,1,1,75,0,1
42042,-100,4,1,1,90,0,1
44209,-100,4,1,1,80,0,0
45792,-100,4,1,1,90,0,1
48663,-100,4,1,1,60,0,0
49542,-100,4,1,1,90,0,1
55459,-100,4,1,1,80,0,0
57042,-100,4,1,1,90,0,1
60323,-100,4,1,1,80,0,1
60440,-100,4,1,1,70,0,1
60792,-100,4,1,1,90,0,1
62667,-100,4,1,1,60,0,1
62725,-133.333333333333,4,1,1,60,0,0
77784,234.375,4,1,1,60,1,0
77784,-133.333333333333,4,1,1,60,0,0
78077,-133.333333333333,4,1,1,40,0,0
78194,-133.333333333333,4,1,1,60,0,0
90909,-133.333333333333,4,1,1,50,0,0
91143,-133.333333333333,4,1,1,55,0,0
91377,-133.333333333333,4,1,1,60,0,0
91612,-133.333333333333,4,1,1,65,0,0
91846,-133.333333333333,4,1,1,70,0,0
92666,234.375,4,1,1,90,1,1
96709,-100,4,1,1,80,0,0
97940,-100,4,1,1,70,0,0
98292,-100,4,1,1,85,0,0
100167,-100,4,1,1,90,0,1
102979,-100,4,1,1,60,0,1
103038,-133.333333333333,4,1,1,60,0,0
103916,-100,4,1,1,90,0,1
109834,-100,4,1,1,80,0,0
111417,-100,4,1,1,90,0,1
117042,-100,4,1,1,80,0,1
117100,-133.333333333333,4,1,1,60,0,0
132041,-100,4,1,1,90,0,1
135733,-100,4,1,1,80,0,0
143408,-133.333333333333,4,1,1,70,0,0
147041,-133.333333333333,4,1,1,40,0,0
149971,-100,4,1,1,70,0,0
150792,-100,4,1,1,80,0,1
150909,-100,4,1,1,90,0,1
154834,-100,4,1,1,80,0,0
158292,-100,4,1,1,90,0,1
161163,-100,4,1,1,70,0,0
165792,-100,4,1,1,90,0,1
172413,-100,4,1,1,90,0,0
173291,-100,4,1,1,90,0,1
178917,-100,4,1,1,60,0,1
178975,-100,4,1,1,60,0,0
184542,-100,4,1,1,80,0,1
186417,-100,4,1,1,90,0,1
186475,-100,4,1,1,60,0,0
187354,-133.333333333333,4,1,1,30,0,0
187823,-133.333333333333,4,2,0,5,0,0

[Colours]
Combo1 : 186,150,27
Combo2 : 140,0,0
Combo3 : 200,176,45
Combo4 : 210,70,23

[HitObjects]
168,208,793,2,0,B|240:248|320:192|296:104,1,180,4|0
236,44,1144,1,0
324,12,1261,1,0
324,12,1320,1,0
324,12,1378,2,0,B|372:32|392:80,1,90
384,160,1613,1,0
452,220,1730,2,0,B|364:260|304:364,1,180,0|0
244,268,2082,1,0
164,304,2199,2,0,B|80:344,2,90
176,220,2550,1,0
252,132,2668,6,0,B|268:64|184:16|117:66,1,180,4|0
72,156,3019,1,0
96,244,3136,2,0,B|76:288,2,45
164,304,3371,1,0
244,268,3488,1,0
320,316,3605,2,0,B|372:364|468:320|444:232,1,180
388,172,3957,1,0
388,172,4074,1,0
456,112,4191,1,0
400,44,4308,2,0,B|360:12|300:24,1,90
244,120,4543,5,4
76,40,4777,1,0
36,120,4894,2,0,B|112:124|128:232|48:268,2,180
160,68,5480,1,0
76,40,5597,1,4
184,52,5714,1,0
44,48,5832,1,4
244,120,5949,2,0,B|184:208,2,90,0|8|8
328,92,6300,1,8
444,44,6428,6,0,B|508:56|532:144|484:192,1,180,4|8
412,132,6779,1,8
372,260,6896,1,0
372,260,6955,1,0
372,260,7013,2,0,B|324:156,1,90,8|8
256,136,7248,1,8
348,64,7365,2,0,B|332:4|240:-12|196:40,1,180,4|8
256,136,7717,1,8
164,208,7834,2,0,B|118:185|124:128,1,90,0|8
196,84,8068,1,8
196,84,8303,6,0,B|208:12|312:-8|360:56,1,180,4|0
384,116,8654,1,8
276,224,8771,2,0,B|236:192|252:136,1,90
384,116,9006,2,0,B|424:148|408:204,1,90,0|8
320,320,9240,2,0,B|272:352|188:320|176:252,1,180,4|0
292,232,9592,1,8
420,144,9709,2,0,B|468:164|460:224,1,90,0|0
332,304,9943,2,0,B|284:284|292:224,1,90,0|8
276,80,10178,6,0,B|324:32|416:72|404:144,1,180,4|0
340,232,10529,1,8
192,272,10646,2,0,B|148:240|176:180,1,90
276,80,10881,2,0,B|320:112|292:172,1,90
156,104,11115,2,0,B|100:60|4:112|32:200,1,180,4|0
76,244,11467,1,8
148,188,11584,1,0
69,100,11701,2,0,B|21:72|5:32,2,90
200,68,12053,6,0,B|264:56|312:148|248:208,1,180,4|8
152,240,12404,1,8
232,284,12521,2,0,B|265:334|328:323,1,90,0|8
455,281,12756,2,0,B|421:230|358:241,1,90,0|0
260,144,12990,2,0,B|248:80|336:28|394:87,1,180,4|8
492,28,13342,1,8
504,116,13459,2,0,B|492:168|444:184,1,90,0|8
364,156,13693,1,0
380,244,13810,1,8
460,352,13928,6,0,B|411:400|312:364|321:264,1,180,12|8
332,184,14279,1,8
215,175,14396,2,0,B|226:282,1,90,0|8
130,334,14631,2,0,B|144:240,1,90,0|8
332,212,14865,5,0
320,96,14982,2,0,B|296:56|296:56|240:20,1,90,2|2
151,75,15217,2,0,B|132:120|132:120|96:148,1,90,2|2
107,263,15451,1,2
107,263,15568,1,2
107,262,15803,6,0,B|180:284|236:200|188:132,1,180,12|0
148,48,16154,1,8
48,160,16271,2,0,B|4:188|12:236,1,90
116,348,16506,2,0,B|160:320|152:272,1,90,0|8
112,124,16740,2,0,B|104:64|180:16|240:48,1,180,12|0
280,160,17092,1,8
132,208,17209,2,0,B|104:172|112:124,1,90,0|8
276,48,17443,2,0,B|304:84|296:132,1,90,8|8
236,288,17678,6,0,B|275:344|360:327|377:254,1,180,12|0
368,172,18029,2,0,B|356:217|376:265,1,90,8|0
504,177,18263,2,0,B|515:131|495:83,1,90,8|0
422,39,18498,1,8
368,172,18615,2,0,B|317:219|226:166|248:93,1,180,12|0
245,104,18908,1,0
245,104,18967,1,8
344,40,19084,1,0
436,112,19201,2,0,B|459:199,2,90,0|8|8
424,340,19553,6,0,B|376:380|280:336|304:244,1,180,12|0
184,168,19904,2,0,B|204:124|248:104,1,90,8|0
362,204,20138,2,0,B|342:248|298:268,1,90,8|8
208,260,20373,1,0
144,52,20490,6,0,B|192:12|288:56|264:148,1,180,12|0
384,224,20842,2,0,B|364:268|320:288,1,90,8|0
206,188,21076,2,0,B|226:144|270:124,1,90,8|8
360,132,21310,1,0
176,319,21428,6,2,B|200:239|210:160,1,135.000005149842,6|0
176,104,21779,1,2
276,44,21896,2,0,B|300:84|332:120,1,90,2|0
312,232,22131,1,2
476,64,22365,1,6
352,60,26222,6,0,B|400:112|400:112|416:192,1,134.999995976687
360,280,26574,1,0
208,112,26808,1,0
184,28,26925,1,0
116,84,27042,1,0
156,192,27160,6,0,B|160:236|112:276,2,67.5000025749208
68,196,27511,1,0
92,92,29972,6,0,B|156:68|156:68|228:80,1,134.999995976687,4|0
304,112,30324,1,0
384,260,30441,2,0,B|412:240|412:240|432:208,1,67.4999979883433
448,44,30675,2,0,B|420:64|420:64|400:96,1,67.4999979883433
484,124,30910,1,0
348,24,31027,2,0,B|276:168,1,135.000005149842
228,80,31378,2,0,B|180:136|104:172,1,135.000005149842
28,232,31730,6,0,B|84:264|84:264|132:316,1,135.000005149842
212,356,32081,1,0
208,268,32199,1,0
288,308,32316,2,0,B|348:340|436:356,1,135.000005149842
488,292,32667,2,0,B|456:244|444:208,2,67.5000025749208
376,216,33019,1,0
328,140,33136,1,0
248,172,33253,2,0,B|192:212|148:276,1,135.000005149842
100,196,33605,6,0,B|48:248|-16:280,2,135.000005149842
40,132,34191,2,0,B|92:80|156:48,1,135.000005149842
208,152,34542,5,0
176,232,34660,2,0,B|200:304,1,67.5000025749208
296,356,34894,2,0,B|274:291,1,67.5000025749208
384,256,35128,2,0,B|444:212|424:128,1,135.000005149842
364,72,35480,2,0,B|320:48|256:64|236:124,2,135.000005149842
188,40,36066,2,0,B|164:112|112:188,1,135.000005149842
68,328,36535,5,8
68,328,36652,1,8
68,328,36769,1,8
68,328,36886,1,8
68,328,37003,1,8
68,328,37120,1,8
68,328,37238,1,8
68,328,37355,1,8
68,328,37472,1,8
68,328,37589,2,8,B|104:276|132:184,1,134.999995976687
148,120,37941,1,4
184,316,38292,6,0,B|112:264|112:264|64:184,1,180,4|0
84,96,38643,1,8
196,56,38760,2,0,B|224:92|224:92|224:144,1,90
345,228,38995,2,0,B|317:192|317:192|317:140,1,90,0|8
368,40,39229,2,0,B|428:8|512:80|476:140,1,180,0|0
420,196,39581,1,8
488,332,39698,2,0,B|464:380|412:364,1,90,0|0
345,228,39932,2,0,B|369:180|421:196,1,90,0|0
324,316,40167,6,0,B|268:368|180:316|196:244,1,180,4|0
244,184,40518,1,8
376,108,40635,2,0,B|400:156|364:196,1,90
244,100,40870,2,0,B|220:52|256:12,1,90,0|8
168,148,41104,2,0,B|124:200|24:172|36:88,2,180
320,168,41690,2,0,B|332:220|288:256,2,90,8|8|8
512,88,42042,6,0,B|456:272,1,180,4|0
380,300,42393,1,8
296,268,42510,2,0,B|268:232|268:232|268:184,1,90,0|8
176,64,42745,2,0,B|204:100|204:100|204:148,1,90,0|8
136,280,42979,2,0,B|108:244|108:244|108:196,1,90,0|8
60,56,43213,2,8,B|32:92|32:92|32:140,1,90,8|0
44,288,43448,2,0,B|96:356|96:356|200:356,2,180,8|0|4
112,120,44151,5,0
172,52,44268,2,0,B|220:52|220:52|292:96|292:96|340:96,2,180,8|8|0
112,120,44854,1,0
32,36,44971,2,0,B|12:128,1,90,8|0
44,276,45206,2,0,B|72:240|72:240|72:192,1,90,8|0
208,128,45440,2,8,B|180:164|180:164|180:212,1,90
244,272,45674,1,8
348,156,45792,6,0,B|408:112|500:184|448:256,1,180,4|0
396,300,46143,1,8
244,272,46260,2,0,B|152:248,1,90
36,113,46495,2,0,B|124:136,1,90,0|8
264,192,46729,2,0,B|328:208|388:132|348:68,1,180,4|0
272,40,47081,1,8
272,40,47198,1,0
384,4,47315,2,0,B|456:80,1,90
396,144,47549,1,8
476,276,47667,6,0,B|512:336|436:412|360:360,1,180,4|0
328,300,48018,1,8
328,300,48135,1,0
228,188,48252,2,0,B|184:272,1,90,8|8
512,72,48604,1,12
96,64,49190,5,8
96,64,49307,1,8
96,64,49424,1,8
96,64,49542,2,0,B|168:72|188:168|128:216,1,180,4|0
60,240,49893,1,8
136,292,50010,2,0,B|188:292|220:244,1,90
140,116,50245,2,0,B|88:116|60:164,1,90,0|8
244,140,50479,2,0,B|264:76|212:4|148:12,1,180,4|0
72,44,50831,1,8
91,161,50948,2,0,B|122:203|170:200,1,90,0|0
320,180,51182,2,0,B|288:137|240:140,1,90,8|8
349,294,51417,6,0,B|353:366|449:390|493:330,1,180,4|0
393,218,51768,2,0,B|373:170|313:182,1,90,8|0
197,274,52002,2,0,B|217:322|277:310,1,90,8|0
252,216,52237,1,8
105,178,52354,2,0,B|77:118|145:50|209:90,1,180,4|0
293,70,52706,2,0,B|321:174,1,90,8|0
321,338,52940,2,0,B|293:234,2,90,8|8|0
436,360,53292,6,0,B|512:356|540:244|472:200,1,180,12|0
416,184,53643,2,0,B|368:208|380:264,1,90,8|0
332,120,53877,2,0,B|380:96|368:40,1,90,8|8
244,140,54112,1,8
96,108,54229,2,0,B|100:40|188:12|240:68,1,180,4|0
332,120,54581,2,0,B|340:172|304:208,1,90,8|0
300,320,54815,2,0,B|232:355|160:288|200:208,1,180,8|8
96,108,55167,1,4
340,64,55401,5,0
448,24,55518,2,0,B|428:120,1,90,8|0
384,312,55752,2,0,B|366:224,1,90,8|0
208,48,55987,2,0,B|227:137,1,90,8|0
149,364,56221,2,0,B|168:276,1,90,8|0
128,196,56456,1,8
128,196,56573,1,0
32,128,56690,2,8,B|0:40,2,90
136,72,57042,6,0,B|200:36|276:100|248:172,1,180,4|0
200,228,57393,2,0,B|220:276|276:268,1,90,8|0
424,236,57627,2,0,B|404:188|348:196,1,90,0|8
320,348,57862,1,8
140,352,57979,2,0,B|76:388|0:324|36:236,1,180,4|8
96,200,58331,1,8
60,120,58448,1,0
184,32,58565,2,8,B|164:128,2,90
272,160,58917,6,0,B|332:200|420:144|404:68,1,180,4|0
344,28,59268,1,8
264,72,59385,1,8
272,160,59502,2,0,B|312:220|256:308|180:292,1,180,8|8
88,316,59854,2,0,B|48:256|104:168|180:184,1,180,4|0
248,192,60206,1,8
300,268,60323,1,8
252,344,60440,1,8
164,364,60557,1,8
88,316,60674,1,8
156,220,60792,6,0,B|176:152|100:96|36:136,1,180,4|0
4,208,61143,1,8
76,300,61260,2,0,B|116:332|164:300,1,90,0|8
236,140,61495,2,0,B|185:137|165:185,1,90,0|8
340,232,61729,2,0,B|382:205|371:154,1,90,0|8
276,4,61963,2,0,B|268:56|304:92,2,90,0|8|0
388,40,62315,1,8
371,154,62432,2,8,B|336:192|280:184,1,90
180,76,62667,1,12
80,168,70167,6,0,B|120:200|184:180|192:124,1,134.999995976687,4|0
172,48,70518,2,0,B|212:16|276:36|284:92,1,134.999995976687
256,164,70870,1,0
316,224,70987,1,0
400,196,71104,2,0,B|451:199|492:146|466:95,1,134.999995976687
500,24,71456,2,0,B|460:-8|396:12|388:68,1,134.999995976687
340,128,71807,1,0
340,128,71924,1,0
244,64,72042,6,0,B|208:28|132:44|120:100,1,134.999995976687
52,36,72393,2,0,B|28:116,1,67.4999979883433
60,240,72627,2,0,B|80:176,1,67.4999979883433
168,160,72862,1,0
260,228,72979,2,0,B|296:264|372:248|384:192,1,134.999995976687
340,128,73331,2,0,B|400:88,1,67.4999979883433
504,124,73565,2,0,B|447:161,1,67.4999979883433
377,210,73799,1,0
456,248,73917,6,0,B|496:288|464:368|396:352,1,134.999995976687,4|0
344,320,74268,1,0
268,364,74385,2,0,B|204:292,1,67.4999979883433
164,248,74620,1,0
164,248,74737,1,0
56,208,74854,2,0,B|24:168|72:96|120:112,1,134.999995976687
188,148,75206,1,0
424,36,75440,1,0
424,36,75557,1,0
424,36,75674,1,0
356,92,75792,6,0,B|336:144|392:192|448:160,1,134.999995976687,4|0
504,120,76143,1,0
496,220,76260,1,0
400,260,76377,2,0,B|392:300|368:320,2,67.5000025749208
312,252,76729,6,0,B|332:200|280:152|224:184,1,134.999995976687,4|0
184,248,77081,1,0
80,204,77198,2,0,B|132:136,1,67.4999979883433
280,32,77432,2,0,B|264:104,1,67.4999979883433
352,100,77667,1,0
280,192,77784,6,0,B|312:252,2,67.5000025749208
280,324,78135,1,0
88,96,80596,6,0,B|128:148|108:228,1,135.000005149842,4|0
44,284,80948,1,4
212,332,81182,1,8
212,332,81299,1,8
212,332,81416,1,8
292,296,81534,6,0,B|344:220,2,67.4999979883433
296,160,81885,1,0
368,64,84346,5,8
436,116,84463,2,0,B|456:180|456:180|440:268,1,134.999995976687,8|4
276,296,84932,2,8,B|220:260,2,67.4999979883433
364,288,85284,5,0
443,246,85401,2,0,B|476:304|500:376,2,135.000005149842,0|0|0
436,156,85987,1,0
488,84,86104,2,0,B|448:16,1,67.4999979883433
337,1,86338,2,0,B|372:60,1,67.4999979883433
356,144,86573,1,0
288,196,86690,2,0,B|210:178|200:94,1,135.000005149842
371,59,87159,5,8
371,59,87276,1,8
428,232,87510,1,0
480,304,87627,2,0,B|456:356|388:364|352:324,1,134.999995976687,4|8
304,272,87979,1,8
140,328,88213,2,0,B|88:304|80:236|120:200,1,134.999995976687,0|0
184,168,88565,1,4
268,192,88682,2,0,B|324:124,1,67.4999979883433
438,107,88916,6,0,B|395:159,1,67.4999979883433,0|8
376,244,89151,1,8
376,244,89385,1,4
288,244,89502,2,0,B|332:116,1,135.000005149842
256,68,89854,2,0,B|212:44|148:84|160:136,2,134.999995976687,8|8|0
332,116,90440,1,0
412,76,90557,2,0,B|464:64|508:120|480:164,1,134.999995976687
400,236,90909,5,8
400,236,91026,1,8
400,236,91143,1,8
400,236,91260,1,8
400,236,91377,1,8
400,236,91494,1,8
400,236,91612,1,8
400,236,91729,1,8
400,236,91846,1,8
400,236,91963,2,0,B|256:160,1,134.999995976687,0|8
204,132,92315,1,4
220,308,92549,5,0
140,348,92666,2,0,B|84:392|-4:336|32:240,1,180,4|0
92,212,93017,1,8
88,124,93134,2,0,B|32:128|12:180,1,90
168,176,93369,2,0,B|224:172|244:120,1,90,0|8
288,52,93603,2,0,B|356:8|444:64|416:140,1,180,0|0
376,192,93955,1,8
452,240,94072,2,0,B|496:220|496:164,1,90
364,288,94306,2,0,B|320:308|320:364,1,90,0|8
288,228,94541,6,0,B|284:160|176:124|128:204,1,180,4|0
100,252,94892,2,0,B|72:296|96:340,1,90,8|0
149,179,95126,2,0,B|184:121|116:29|31:67,1,180,0|8
32,172,95478,2,0,B|184:68,1,180,0|8
252,16,95830,2,0,B|276:60|260:104,1,90
320,244,96064,2,0,B|308:200|324:156,1,90,8|0
440,212,96298,1,0
376,332,96416,2,0,B|330:370|242:352|220:275,1,180,4|0
204,128,96767,6,0,B|232:92|232:92|276:72,1,90,8|0
416,132,97001,2,0,B|388:168|388:168|348:187,1,90,8|0
272,73,97236,1,8
348,188,97353,1,0
308,272,97470,2,0,B|280:308|280:308|240:327,1,90,8|0
98,103,97705,2,0,B|126:67|126:67|166:48,1,90,8|0
124,316,97939,1,8
60,216,98056,1,8
99,103,98173,1,0
196,32,98291,6,0,B|265:1|342:75|300:139,1,180,4|0
260,204,98642,1,8
321,270,98759,2,0,B|356:240|348:188,1,90,0|8
198,137,98994,2,0,B|163:167|171:219,1,90,0|8
452,132,99228,5,0
452,132,99287,1,0
452,132,99345,2,0,B|416:96|408:40,1,90,8|0
260,204,99580,2,0,B|295:227|322:274,1,90,8|0
216,96,99814,2,8,B|260:72|280:16,1,90
333,112,100048,1,8
220,240,100166,6,0,B|182:289|92:264|92:188,1,180,4|0
268,164,100517,2,0,B|312:188|308:244,1,90,8|0
196,340,100751,2,0,B|152:316|156:260,1,90
268,164,100986,1,8
416,216,101103,2,0,B|444:276|384:364|324:344,1,180,4|0
248,324,101455,1,8
220,240,101572,1,8
104,356,101689,2,0,B|136:252,1,90
294,77,101923,2,0,B|268:164,1,90,0|4
256,192,102158,12,0,102978
356,56,103564,5,8
356,56,103681,1,8
356,56,103798,1,8
356,56,103916,2,0,B|412:124|412:124|432:216,1,180,4|0
376,284,104267,1,8
256,228,104384,2,0,B|196:208|152:264,2,90,0|0|8
276,344,104736,1,0
376,284,104853,2,0,B|432:216|432:216|452:124,1,180,4|0
356,56,105205,1,8
208,88,105322,2,0,B|164:116|180:184,1,90,0|8
320,212,105556,2,0,B|364:184|348:116,1,90,8|8
80,184,105791,6,0,B|40:252|108:320|172:288,1,180,4|0
236,240,106142,1,8
232,152,106259,2,0,B|288:144|316:200,1,90,0|0
240,328,106494,2,0,B|184:336|156:280,1,90,0|8
396,316,106728,2,0,B|416:228|416:228|460:128,1,180,4|0
312,36,107080,2,0,B|240:20|188:108|240:164,1,180,0|8
292,216,107431,1,8
292,216,107548,1,8
148,276,107666,6,0,B|88:320|0:260|32:176,1,180,4|0
72,128,108017,1,8
223,130,108134,2,0,B|236:176|200:212,1,90,0|8
71,128,108369,2,0,B|59:80|96:44,1,90,8|8
312,36,108603,2,0,B|388:8|448:84|400:152,1,180,4|0
348,196,108955,2,0,B|394:180|413:126,1,90,8|0
312,36,109189,2,8,B|260:52|248:108,2,90
348,196,109541,6,0,B|317:248|223:234|211:159,1,180,4|0
256,84,109892,1,8
400,132,110009,2,0,B|440:164|428:220,1,90,0|8
148,220,110244,2,0,B|120:184|128:136,1,90,0|8
430,213,110478,2,0,B|422:263|367:281,1,90,0|8
128,134,110712,2,0,B|135:83|190:65,2,90,0|8|0
376,279,111064,2,0,B|464:299,2,90,8|8|8
248,364,111416,6,0,B|188:400|104:344|139:260,1,180,4|0
176,200,111767,1,8
148,88,111884,2,0,B|96:96|60:168,1,90,0|8
68,256,112119,1,8
176,200,112236,1,0
272,136,112353,2,0,B|320:76|420:112|404:192,1,180,4|0
340,236,112705,1,8
376,348,112822,1,0
500,264,112939,2,8,B|492:316|452:344,2,90
496,144,113291,6,0,B|512:80|444:24|372:64,1,180,4|0
332,136,113642,1,8
216,116,113759,2,0,B|256:204,1,90,0|8
220,284,113994,1,0
220,284,114111,1,0
104,276,114228,2,0,B|36:296|-12:200|48:140,1,180,4|0
116,116,114580,1,8
188,168,114697,1,0
188,256,114814,2,8,B|152:288|104:276,1,90
200,72,115048,1,0
380,76,115166,6,0,B|424:124|396:208|324:208,1,180,4|0
244,168,115517,1,8
326,208,115634,2,0,B|378:223|391:294,1,90,0|8
270,382,115869,2,0,B|217:366|204:295,1,90,0|8
325,123,116103,2,0,B|354:174|311:231,1,90,0|8
144,202,116337,2,0,B|114:150|159:94,1,90,0|8
237,70,116572,1,0
188,262,116689,2,0,B|139:292|86:252,1,90,8|8
48,194,116923,1,0
71,373,117041,1,4
80,108,124541,6,0,B|56:180|88:239,1,135.000005149842,4|0
152,180,124892,1,0
176,264,125009,2,0,B|208:280|228:312,2,67.4999979883433
224,188,125361,1,0
340,180,125478,2,0,B|288:136|252:64,1,134.999995976687
312,4,125830,1,0
392,36,125947,2,0,B|424:64|452:76,1,67.4999979883433
476,156,126181,2,0,B|440:184|424:224,1,67.4999979883433
464,320,126416,6,0,B|404:352|316:344,1,134.999995976687,4|0
256,304,126767,1,0
184,256,126884,2,0,B|152:228|112:212,1,67.4999979883433
40,232,127119,2,0,B|12:204|0:164,1,67.4999979883433
60,76,127353,2,0,B|136:72|204:44,1,134.999995976687
272,84,127705,1,0
360,72,127822,2,0,B|380:36,2,33.7500012874604,0|0|8
428,128,128056,1,8
432,216,128173,1,8
368,276,128291,6,0,B|332:263|299:218|315:166,1,135.000005149842,4|0
400,192,128642,1,8
456,256,128759,2,0,B|464:300|440:332,1,67.5000025749208,0|8
368,368,128994,2,0,B|328:364|296:340,1,67.4999979883433,8|8
192,360,129228,6,0,B|172:296|120:228,1,134.999995976687,4|0
52,196,129580,1,8
128,148,129697,2,0,B|156:120|172:76,1,67.4999979883433,0|8
224,24,129931,2,0,B|244:52|276:72,1,67.4999979883433,8|8
372,128,130166,6,0,B|324:176|260:216,1,134.999995976687,4|0
180,224,130517,1,8
180,224,130634,1,8
184,228,130869,1,8
188,232,131103,1,12
348,60,131689,5,0
348,60,131806,1,0
348,60,131923,1,0
260,48,132041,6,0,B|184:88|76:100,1,180,4|0
8,60,132392,1,8
116,20,132509,2,0,B|156:44|188:84,1,90
172,196,132744,2,0,B|208:164|248:140,1,90,0|8
328,12,132978,2,0,B|376:100|452:156,1,180
468,236,133330,1,8
356,200,133447,2,0,B|364:156|388:108,1,90,0|8
328,12,133681,2,0,B|292:44|236:60,1,90,8|0
100,28,133916,6,0,B|76:116|28:212,1,180,4|0
68,280,134267,1,8
152,200,134384,2,0,B|124:160|84:132,1,90,0|8
208,120,134619,2,0,B|252:96|296:84,1,90,8|0
480,188,134853,2,0,B|420:128|372:44,1,180,4|0
288,12,135205,1,8
200,88,135322,1,0
200,88,135380,1,0
200,88,135439,2,0,B|164:128|172:196,2,90,8|8|8
288,168,135791,6,0,B|292:216|264:272,1,90
250,278,135966,1,0
219,286,136025,1,0
187,285,136083,1,0
157,272,136142,1,8
139,245,136201,1,0
139,213,136259,1,0
153,185,136318,1,0
178,166,136376,1,0
204,148,136435,1,0
224,124,136494,1,0
232,93,136552,1,0
225,61,136611,2,0,B|201:41|177:25,3,45,8|0|0|0
100,56,136845,6,0,B|72:104|16:132,1,90,4|0
48,236,137080,1,8
108,304,137197,2,0,B|148:340|212:328,1,90,8|0
292,276,137431,1,0
300,188,137548,2,0,B|328:156|335:105,1,90,8|8
392,36,137783,5,0
405,64,137841,1,0
417,93,137900,1,0
429,121,137958,1,0
440,152,138017,2,0,B|456:200|476:236,1,90,8|0
420,340,138251,1,8
420,340,138369,1,0
312,292,138486,2,8,B|268:312|224:352,1,90
96,308,138720,6,0,B|37:269|62:167|140:163,2,180,8|8|8
199,252,139306,1,0
212,368,139423,2,0,B|272:360|305:324,1,90,0|8
320,317,139599,5,0
343,295,139658,1,6
356,266,139716,1,0
362,234,139775,1,0
356,203,139833,1,0
332,181,139892,1,8
300,175,139951,1,0
270,164,140009,1,0
256,135,140068,1,0
267,106,140126,2,0,B|283:90|303:78,7,45,2|0|0|0|8|0|0|0
334,79,140595,5,6
364,88,140654,1,0
388,106,140712,1,0
406,131,140771,1,0
417,160,140830,2,0,B|424:185|416:214,3,45,8|0|0|0
348,264,141064,6,0,B|324:272|292:264,3,45,10|0|0|0
260,256,141298,2,0,B|248:228|220:208,3,45,8|0|0|0
272,136,141533,5,6
286,108,141591,1,0
290,76,141650,1,0
278,47,141708,1,0
249,34,141767,1,8
217,30,141826,1,0
187,40,141884,1,0
162,59,141943,1,0
143,84,142001,2,0,B|120:111|112:135,3,45,2|0|0|0
122,153,142236,5,8
142,176,142294,1,0
149,206,142353,1,0
140,236,142412,1,0
119,259,142470,2,0,B|99:283|95:319,3,45,6|0|0|0
184,336,142705,5,8
293,295,142822,1,0
231,195,142939,1,8
295,97,143056,1,8
205,22,143173,1,2
56,196,143408,5,2
68,220,143466,1,0
88,240,143525,1,0
112,248,143583,1,0
140,252,143642,1,8
168,248,143701,1,0
192,236,143759,1,2
212,220,143818,1,0
228,200,143876,1,0
236,176,143935,1,0
240,148,143994,1,0
236,120,144052,1,0
216,100,144111,2,0,B|180:76,2,33.7499989941716,10|0|12
300,24,144345,5,2
320,44,144404,1,0
332,68,144462,1,0
340,93,144521,1,0
336,119,144580,1,8
324,143,144638,1,0
315,168,144697,1,2
313,194,144755,1,0
320,220,144814,1,0
337,240,144873,1,0
362,248,144931,1,0
389,250,144990,1,0
416,244,145048,2,0,B|444:216,2,33.7500012874604,2|0|0
460,88,145283,6,0,B|436:112|404:160,1,67.5000025749208,6|0
460,324,145517,2,0,B|484:300|516:252,1,67.5000025749208,8|8
376,328,145751,1,2
349,332,145810,1,0
321,330,145869,1,0
300,312,145927,1,0
284,289,145986,2,0,B|268:257,3,33.7499989941716,8|0|8|0
309,159,146220,2,0,B|288:185,3,33.7500012874604
264,97,146455,2,0,B|288:69,3,33.7500012874604,8|0|8|0
236,13,146689,5,8
104,33,146806,1,8
192,137,146923,1,8
256,192,147041,12,0,149736
348,200,149970,5,4
460,176,150087,1,0
460,176,150205,1,4
380,92,150322,1,0
380,92,150380,1,0
380,92,150439,2,0,B|348:72|332:52,2,45
461,254,150791,6,0,B|473:322|389:370|330:314,1,180,4|0
288,247,151142,1,8
204,328,151259,2,0,B|176:292|156:240,1,90
80,208,151494,1,0
80,208,151611,1,8
112,96,151728,2,0,B|164:48|252:92|236:160,1,180
180,228,152080,1,8
272,304,152197,2,0,B|312:284|352:244,2,90,8|0|8
180,228,152548,1,0
84,344,152666,6,0,B|16:364|-32:248|40:204,1,180,4|0
100,176,153017,1,8
64,64,153134,2,0,B|112:40|144:8,2,90
144,108,153486,1,8
252,56,153603,2,0,B|324:20|392:88|348:156,1,180
280,192,153955,1,8
355,142,154072,1,8
364,296,154189,2,0,B|392:336|408:392,2,90,8|8|8
212,260,154541,6,0,B|148:296|72:224|116:144,1,180,4|0
180,112,154892,1,8
84,44,155009,1,0
84,44,155068,1,0
84,44,155126,2,0,B|60:84|12:120,1,90,8|0
212,260,155361,2,0,B|247:286|271:326,1,90,8|0
332,96,155595,2,0,B|368:64|412:44,2,90,8|8|0
348,292,155947,2,0,B|296:220|296:220|260:136,1,180,12|8
212,212,156298,2,0,B|268:264|368:224|356:152,2,180,4|8|8
160,136,156884,5,0
80,220,157001,1,8
192,320,157119,1,0
192,320,157177,1,0
192,320,157236,2,0,B|236:284|280:264,1,90,8|8
480,168,157470,2,0,B|448:136|427:95,1,90,8|0
200,48,157705,2,0,B|220:92|232:152,1,90,8|0
56,296,157939,2,8,B|24:328|0:366,2,90
24,148,158291,6,0,B|32:80|124:56|168:112,1,180,4|0
156,196,158642,1,8
272,176,158759,2,0,B|300:140|340:104,1,90
312,24,158994,1,0
312,24,159111,1,8
448,92,159228,2,0,B|500:144|448:244|376:212,1,180,4|0
312,172,159580,1,0
172,108,159697,1,0
172,108,159755,1,0
172,108,159814,2,0,B|200:148|216:200,1,90,8|8
176,272,160048,1,0
316,332,160166,6,0,B|376:372|456:320|436:256,1,180,12|0
400,176,160517,1,8
316,144,160634,1,0
404,20,160751,2,0,B|436:56|484:88,1,90,8|8
492,168,160986,1,0
416,300,161103,1,12
240,80,165439,5,8
240,80,165556,1,8
240,80,165673,1,8
308,220,165791,6,0,B|298:283|201:315|149:239,1,180,4|0
124,180,166142,1,8
12,216,166259,2,0,B|48:120,2,90,0|0|0
64,292,166611,1,8
168,240,166728,2,0,B|240:208|304:264|276:340,1,180,4|0
204,372,167080,1,8
356,384,167197,1,0
432,252,167314,2,8,B|436:200|396:164,1,90
328,120,167548,1,0
476,76,167666,6,0,B|464:8|372:-12|332:40,1,180,4|0
328,120,168017,1,8
224,68,168134,2,0,B|156:144,2,90
156,8,168486,1,8
92,108,168603,2,0,B|64:172|136:244|216:196,1,180,4|0
256,144,168955,1,8
344,220,169072,1,0
344,220,169130,1,0
344,220,169189,2,0,B|276:312,1,90,8|8
204,316,169423,1,8
76,232,169541,6,0,B|140:160|140:160|224:116,1,180,4|0
304,136,169892,1,8
388,56,170009,2,0,B|416:92|416:92|416:144,1,90
384,360,170244,2,0,B|356:324|356:324|356:279,1,90,0|8
304,136,170478,2,0,B|257:77|156:114|176:196,1,180,4|0
236,248,170830,1,8
236,248,170947,1,0
356,280,171064,2,0,B|440:216,2,90,0|0|8
408,128,171416,6,0,B|432:60|344:-4|276:64,1,180,4|0
224,104,171767,1,8
216,192,171884,1,0
144,60,172001,2,0,B|88:140,1,90,8|0
88,313,172236,2,0,B|140:240,1,90,8|0
244,120,172470,2,0,B|260:164|288:200,1,90,8|0
460,76,172705,2,0,B|424:52|376:44,1,90,8|0
408,292,172939,2,8,B|440:248|484:216,2,90
260,336,173291,6,0,B|180:292|180:292|112:220,1,180,4|0
100,140,173642,1,8
192,68,173759,2,0,B|148:44|104:4,2,90,0|0|0
248,140,174111,1,8
352,88,174228,2,0,B|428:60|484:128|448:200,1,180,4|0
400,256,174580,1,8
316,284,174697,1,0
236,244,174814,2,8,B|208:208|192:160,2,90
220,92,175166,6,0,B|148:68|92:140|124:204,1,180,4|0
172,268,175517,1,8
260,260,175634,2,0,B|296:224|316:180,2,90,0|8|0
312,68,175986,1,8
404,36,176103,2,0,B|484:12|532:108|476:164,1,180,4|0
412,188,176455,1,8
296,152,176572,1,0
296,152,176630,1,0
296,152,176689,2,8,B|252:120|220:72,2,90
268,304,177041,6,0,B|196:244|196:244|104:204,1,180,4|0
28,228,177392,1,8
74,81,177509,2,0,B|98:120|159:132,1,90,0|8
378,81,177744,2,0,B|350:40|293:31,1,90,0|8
219,250,177978,2,0,B|266:258|266:258|314:229,1,90,0|8
465,73,178212,2,0,B|417:65|417:65|368:85,1,90,0|8
218,250,178447,1,0
218,250,178505,1,0
218,250,178564,2,8,B|210:301|242:341,2,90
323,368,178916,1,12
256,192,178974,12,4,180791
256,192,181142,12,4,182666
256,192,183017,12,4,184541
344,228,184775,5,0
376,116,184892,1,8
376,116,184951,1,0
376,116,185009,2,8,B|344:80|324:40,2,90
460,148,185361,1,0
368,324,185478,2,0,B|320:372|212:332|232:236,1,180,4|0
140,144,185830,1,8
140,144,185888,1,0
140,144,185947,2,8,B|112:184|72:208,2,90
164,56,186298,1,0
230,271,186416,5,4
256,192,186474,12,0,188056
