osu file format v14

[General]
AudioFilename: track.mp3
AudioLeadIn: 1500
PreviewTime: 43885
Countdown: 0
SampleSet: Soft
StackLeniency: 0.7
Mode: 0
LetterboxInBreaks: 0
EpilepsyWarning: 1
WidescreenStoryboard: 1

[Editor]
DistanceSpacing: 0.9
BeatDivisor: 4
GridSize: 4
TimelineZoom: 2.2

[Metadata]
Title:LOOK AT US (Daddy DJ Remix)
TitleUnicode:LOOK AT US (Daddy DJ Remix)
Artist:SARINA PARIS
ArtistUnicode:SARINA PARIS
Creator:Kazuya
Version:BASIC
Source:DDRMAX2 -Dance Dance Revolution 7th MIX-
Tags:kazuya-sama -bakari- XinCrin Konami
BeatmapID:658885
BeatmapSetID:292814

[Difficulty]
HPDrainRate:3
CircleSize:3
OverallDifficulty:3
ApproachRate:5
SliderMultiplier:1.1
SliderTickRate:1

[Events]
//Background and Video events
0,0,"bg.jpg",0,0
//Break Periods
//Storyboard Layer 0 (Background)
//Storyboard Layer 1 (Fail)
//Storyboard Layer 2 (Pass)
//Storyboard Layer 3 (Foreground)
//Storyboard Sound Samples

[TimingPoints]
900,387.096774193548,4,2,1,70,1,0
1287,434.782608695652,4,2,1,70,1,0
1504,535.714285714286,4,2,1,70,1,0
1771,500,4,2,1,70,1,0
2021,428.571428571429,4,2,1,70,1,0
2663,413.793103448276,4,2,1,70,1,0
2869,444.444444444444,4,2,1,70,1,0
3535,454.545454545455,4,2,1,70,1,0
3762,428.571428571429,4,2,1,70,1,0
4404,461.538461538462,4,2,1,70,1,0
4865,500,4,2,1,70,1,0
5115,400,4,2,1,70,1,0
5515,560.747663551402,4,2,1,70,1,0
5795,447.761194029851,4,2,1,70,1,0
6242,441.176470588235,4,2,1,70,1,0
6683,454.545454545455,4,2,1,70,1,0
7364,419.58041958042,4,2,1,70,1,0
7993,447.761194029851,4,2,1,70,1,0
8440,428.571428571429,4,2,1,70,1,0
8654,447.761194029851,4,2,1,70,1,0
8877,465.116279069767,4,2,1,70,1,0
9109,465.116279069767,4,2,1,70,1,0
9806,405.405405405405,4,2,1,70,1,0
10008,500,4,2,1,70,1,0
10258,392.156862745098,4,2,1,70,1,0
10454,454.545454545455,4,2,1,70,1,0
10681,500,4,2,1,70,1,0
10931,447.761194029851,4,2,1,70,1,0
11602,413.793103448276,4,2,1,70,1,0
12015,512.820512820513,4,2,1,70,1,0
12271,416.666666666667,4,2,1,70,1,0
12687,571.428571428571,4,2,1,70,1,0
12972,444.444444444444,4,2,1,70,1,0
13416,428.571428571429,4,2,1,70,1,0
14273,428.571428571429,4,2,1,70,1,0
15129,468.75,4,2,1,70,1,0
15597,444.444444444444,4,2,1,70,1,0
16263,445.516985335066,4,2,1,70,1,0
44776,-100,4,2,1,70,0,1
59032,-100,4,2,1,70,0,0
88882,-100,4,2,1,5,0,0

[Colours]
Combo1 : 184,241,185
Combo2 : 231,158,152
Combo3 : 235,227,184
Combo4 : 174,251,251

[HitObjects]
43,46,2021,6,0,P|-9:136|27:248,1,218,0|2,0:0|0:0,0:0:0:0:
90,309,3313,1,2,0:0:0:0:
182,262,3762,1,2,0:0:0:0:
165,141,4404,6,0,P|245:117|325:141,1,169.5,2|2,0:0|0:0,0:0:0:0:
411,178,5515,2,0,L|407:242,1,55,2|0,0:0|0:0,0:0:0:0:
335,302,6242,2,0,P|256:323|178:299,1,167,2|2,0:0|0:0,0:0:0:0:
99,226,7364,1,2,0:0:0:0:
184,56,8216,1,2,0:0:0:0:
256,124,8654,2,0,P|288:128|312:124,1,55,2|0,0:0|0:0,0:0:0:0:
358,113,9109,6,0,P|414:101|466:113,1,110,2|0,0:0|0:0,0:0:0:0:
508,187,10008,1,2,0:0:0:0:
476,279,10454,1,2,0:0:0:0:
382,328,10931,1,2,0:0:0:0:
320,180,11602,6,0,P|248:144|156:164,1,177.6,2|2,0:0|0:0,0:0:0:0:
96,204,12687,2,0,L|100:268,1,55,2|0,0:0|0:0,0:0:0:0:
176,327,13416,2,0,P|256:343|336:327,1,165,2|2,0:0|0:0,0:0:0:0:
431,296,14487,1,2,0:0:0:0:
401,116,15363,1,2,0:0:0:0:
306,150,15819,2,0,P|273:154|242:146,1,55,2|0,0:0|0:0,0:0:0:0:
206,132,16263,6,0,P|150:120|98:132,1,110,4|8,0:0|0:0,0:0:0:0:
48,216,17154,1,0,0:0:0:0:
28,312,17599,2,0,L|16:372,2,55,8|0|0,0:0|0:0|0:0,0:0:0:0:
48,216,18490,1,8,0:0:0:0:
48,216,18713,6,0,P|96:188|216:208,1,165,2|10,0:0|0:0,0:0:0:0:
288,247,19827,1,2,0:0:0:0:
380,212,20272,1,8,0:0:0:0:
380,212,20495,2,0,P|414:130|377:60,1,165,2|10,0:0|0:0,0:0:0:0:
315,137,21609,2,0,P|267:153|195:145,1,110,2|8,0:0|0:0,0:0:0:0:
116,113,22500,1,0,0:0:0:0:
52,188,22945,2,0,L|56:244,1,55,8|0,0:0|0:0,0:0:0:0:
60,292,23391,6,0,P|100:312|168:308,1,110,0|8,0:0|0:0,0:0:0:0:
256,271,24282,1,0,0:0:0:0:
344,316,24727,2,0,L|339:374,2,55,8|0|0,0:0|0:0|0:0,0:0:0:0:
349,217,25618,1,8,0:0:0:0:
349,217,25841,6,0,P|285:177|199:185,1,165,2|10,0:0|0:0,0:0:0:0:
114,236,26955,1,2,0:0:0:0:
54,157,27400,1,8,0:0:0:0:
54,157,27623,2,0,L|66:329,1,165,2|10,0:0|0:0,0:0:0:0:
161,346,28737,2,0,P|210:335|273:346,1,110,4|0,0:0|0:0,0:0:0:0:
354,294,29628,1,2,0:0:0:0:
348,195,30074,2,0,L|339:130,1,55,10|0,0:0|0:0,0:0:0:0:
325,93,30519,6,0,P|273:105|213:97,1,110,4|8,0:0|0:0,0:0:0:0:
125,58,31410,1,0,0:0:0:0:
44,116,31856,2,0,L|48:176,1,55,8|0,0:0|0:0,0:0:0:0:
56,220,32301,2,0,P|104:240|176:228,1,110,0|8,0:0|0:0,0:0:0:0:
256,204,33193,1,2,0:0:0:0:
344,160,33637,2,0,P|372:152|404:156,1,55,10|0,0:0|0:0,0:0:0:0:
447,162,34083,6,0,L|459:50,2,110,0|8|0,0:0|0:0|0:0,0:0:0:0:
432,260,35420,2,0,P|397:261|376:256,1,55,8|0,0:0|0:0,0:0:0:0:
330,243,35865,2,0,P|276:228|218:235,1,110,0|8,0:0|0:0,0:0:0:0:
129,264,36755,1,2,0:0:0:0:
52,200,37202,2,0,L|44:136,1,55,10|0,0:0|0:0,0:0:0:0:
40,96,37647,6,0,P|80:76|152:84,1,110,4|8,0:0|0:0,0:0:0:0:
240,106,38538,1,0,0:0:0:0:
328,152,38984,2,0,P|358:156|388:156,1,55,8|0,0:0|0:0,0:0:0:0:
432,149,39429,2,0,L|444:265,1,110,0|8,0:0|0:0,0:0:0:0:
400,348,40320,1,2,0:0:0:0:
316,296,40766,2,0,P|285:289|252:292,1,55,10|0,0:0|0:0,0:0:0:0:
212,290,41211,6,0,P|152:297|100:289,1,110,0|8,0:0|0:0,0:0:0:0:
12,252,42103,1,0,0:0:0:0:
56,164,42548,2,0,L|60:100,1,55,8|0,0:0|0:0,0:0:0:0:
64,59,42994,2,0,P|108:43|172:51,1,110,4|4,0:0|0:0,0:0:0:0:
256,100,43885,2,0,P|309:108|361:91,1,110,4|4,0:0|0:0,0:0:0:0:
444,36,44776,6,0,L|438:152,1,110,6|8,0:0|0:0,0:0:0:0:
432,245,45667,1,2,0:0:0:0:
352,304,46112,2,0,P|317:304|296:308,1,55,10|0,0:0|0:0,0:0:0:0:
248,320,46558,2,0,P|192:333|136:328,1,110,2|8,0:0|0:0,0:0:0:0:
44,300,47449,1,2,0:0:0:0:
52,200,47894,2,0,L|56:144,1,55,10|0,0:0|0:0,0:0:0:0:
60,96,48340,6,0,P|112:84|168:96,1,110,2|8,0:0|0:0,0:0:0:0:
256,140,49231,1,2,0:0:0:0:
340,192,49676,2,0,P|369:198|404:200,1,55,10|0,0:0|0:0,0:0:0:0:
440,180,50122,2,0,L|448:292,1,110,2|8,0:0|0:0,0:0:0:0:
392,372,51013,1,2,0:0:0:0:
316,308,51458,2,0,P|281:301|252:304,1,55,10|0,0:0|0:0,0:0:0:0:
212,312,51904,6,0,P|156:320|96:316,1,110,6|8,0:0|0:0,0:0:0:0:
28,252,52795,1,2,0:0:0:0:
100,184,53240,2,0,P|130:177|160:180,1,55,10|0,0:0|0:0,0:0:0:0:
204,192,53686,2,0,P|256:200|312:192,1,110,2|8,0:0|0:0,0:0:0:0:
408,164,54577,1,2,0:0:0:0:
484,228,55022,2,0,L|488:284,1,55,10|0,0:0|0:0,0:0:0:0:
492,332,55468,6,0,P|440:328|380:340,1,110,2|8,0:0|0:0,0:0:0:0:
288,364,56359,1,2,0:0:0:0:
204,312,56805,2,0,L|200:248,1,55,10|0,0:0|0:0,0:0:0:0:
199,207,57250,2,0,P|248:192|319:199,1,110,4|4,0:0|0:0,0:0:0:0:
403,216,58141,1,4,0:0:0:0:
456,132,58587,1,4,0:0:0:0:
372,80,59032,6,0,P|319:93|256:88,1,110,4|8,0:0|0:0,0:0:0:0:
168,64,59923,1,0,0:0:0:0:
124,152,60369,2,0,L|120:220,2,55,8|0|0,0:0|0:0|0:0,0:0:0:0:
168,64,61260,1,8,0:0:0:0:
168,64,61482,6,0,P|228:86|332:80,1,165,2|10,0:0|0:0,0:0:0:0:
420,48,62596,1,2,0:0:0:0:
472,132,63042,1,8,0:0:0:0:
472,132,63265,2,0,L|456:296,1,165,2|10,0:0|0:0,0:0:0:0:
384,364,64378,2,0,P|332:352|260:360,1,110,2|8,0:0|0:0,0:0:0:0:
177,360,65269,1,2,0:0:0:0:
96,304,65715,2,0,L|88:236,1,55,10|0,0:0|0:0,0:0:0:0:
84,200,66160,6,0,P|128:184|204:192,1,110,2|8,0:0|0:0,0:0:0:0:
285,216,67051,1,0,0:0:0:0:
364,156,67497,2,0,L|356:96,2,55,8|0|0,0:0|0:0|0:0,0:0:0:0:
376,256,68388,1,8,0:0:0:0:
376,256,68611,6,0,P|292:252|212:288,1,165,2|10,0:0|0:0,0:0:0:0:
132,332,69725,1,2,0:0:0:0:
44,288,70170,1,8,0:0:0:0:
44,288,70393,2,0,P|12:208|48:136,1,165,2|10,0:0|0:0,0:0:0:0:
124,84,71507,2,0,P|176:100|244:92,1,110,6|8,0:0|0:0,0:0:0:0:
324,64,72398,1,6,0:0:0:0:
408,116,72843,2,0,L|412:184,1,55,8|0,0:0|0:0,0:0:0:0:
408,220,73289,6,0,P|352:236|292:228,1,110,4|8,0:0|0:0,0:0:0:0:
208,196,74180,1,0,0:0:0:0:
122,244,74625,2,0,L|126:304,2,55,8|0|0,0:0|0:0|0:0,0:0:0:0:
114,144,75516,1,8,0:0:0:0:
114,144,75739,6,0,P|176:116|276:128,1,165,2|10,0:0|0:0,0:0:0:0:
360,168,76852,1,2,0:0:0:0:
436,104,77298,1,8,0:0:0:0:
436,104,77521,2,0,L|408:272,1,165,2|10,0:0|0:0,0:0:0:0:
328,324,78635,2,0,P|272:308|212:316,1,110,2|8,0:0|0:0,0:0:0:0:
124,332,79526,1,2,0:0:0:0:
72,248,79972,2,0,L|68:184,1,55,10|0,0:0|0:0,0:0:0:0:
64,144,80417,6,0,P|112:128|176:136,1,110,4|8,0:0|0:0,0:0:0:0:
256,184,81308,1,0,0:0:0:0:
340,236,81753,2,0,P|371:241|396:240,2,55,8|0|0,0:0|0:0|0:0,0:0:0:0:
256,184,82644,1,8,0:0:0:0:
256,184,82867,6,0,P|172:164|96:184,1,165,2|10,0:0|0:0,0:0:0:0:
20,245,83981,1,2,0:0:0:0:
92,313,84427,1,8,0:0:0:0:
92,313,84649,2,0,P|176:333|252:313,1,165,2|10,0:0|0:0,0:0:0:0:
328,252,85763,2,0,L|344:136,1,110,4|12,0:0|0:0,0:0:0:0:
288,60,86654,2,0,P|254:63|224:60,1,55,4|0,0:0|0:0,0:0:0:0:
185,52,87099,2,0,P|157:48|130:50,1,55,12|0,0:0|0:0,0:0:0:0:
256,192,87545,12,0,88882,0:0:0:0:
