osu file format v12

[General]
AudioFilename: SAKURA_bot - Satellite.mp3
AudioLeadIn: 0
PreviewTime: 92970
Countdown: 1
SampleSet: None
StackLeniency: 0.7
Mode: 0
LetterboxInBreaks: 1

[Editor]
DistanceSpacing: 1.2
BeatDivisor: 4
GridSize: 8

[Metadata]
Title:Satellite
TitleUnicode:Satellite
Artist:SAKURA_bot
ArtistUnicode:SAKURA_bot
Creator:chihopiaodu250
Version:><
Source:
Tags:
BeatmapID:247582
BeatmapSetID:91456

[Difficulty]
HPDrainRate:6
CircleSize:4
OverallDifficulty:8
ApproachRate:8
SliderMultiplier:1.9
SliderTickRate:1

[Events]
//Background and Video events
0,0,"c0ec19c5709c756fec6f82a7d21c9280.jpg",1,1
//Break Periods
2,126420,141470
//Storyboard Layer 0 (Background)
//Storyboard Layer 1 (Fail)
//Storyboard Layer 2 (Pass)
//Storyboard Layer 3 (Foreground)
//Storyboard Sound Samples
//Background Colour Transformations
3,100,163,162,255

[TimingPoints]
28220,500,4,2,0,100,1,0
94220,-100,4,2,0,100,0,1
109220,-100,4,2,0,100,0,0
110220,-100,4,2,0,100,0,1
126220,-100,4,2,0,100,0,0
192220,-100,4,2,0,100,0,1
199220,-100,4,2,0,100,0,0
200220,-100,4,2,0,100,0,1
206720,-100,4,2,0,100,0,0
208220,-100,4,2,0,100,0,1
224220,-100,4,2,0,100,0,0

[HitObjects]
184,136,44220,1,0,0:0:0:0:
184,136,44470,2,0,B|256:96|336:128|336:128|352:184,1,190
400,224,45220,1,0,0:0:0:0:
352,296,45470,2,0,L|152:296,1,190
120,224,46220,1,0,0:0:0:0:
184,168,46470,1,0,0:0:0:0:
128,104,46720,1,0,0:0:0:0:
200,56,46970,2,0,L|304:56,1,95
352,120,47470,2,0,L|416:224,1,95
344,264,47970,2,0,L|296:312,2,47.5
160,240,52220,6,0,P|160:296|208:336,1,95
256,272,52720,1,0,0:0:0:0:
320,328,52970,2,0,P|343:299|343:243,1,95
360,160,53470,2,0,L|416:160,2,47.5
320,80,53970,2,0,L|368:40,2,47.5
232,80,54470,5,0,0:0:0:0:
296,208,54720,1,0,0:0:0:0:
176,152,54970,1,0,0:0:0:0:
304,128,55220,1,0,0:0:0:0:
216,224,55470,1,0,0:0:0:0:
272,288,55720,1,0,0:0:0:0:
360,288,55970,2,0,L|400:344,2,47.5
360,288,56720,1,0,0:0:0:0:
200,96,60220,6,0,B|200:168|200:168|144:184|144:272|200:288,1,190
312,96,60970,2,0,B|312:168|312:168|368:184|368:272|312:288,1,190
256,280,61720,1,0,0:0:0:0:
192,336,61970,2,0,P|160:280|176:232,1,95
120,178,62470,2,0,P|182:163|208:176,1,95
272,232,62970,2,0,P|304:176|288:128,1,95
264,72,63470,1,0,0:0:0:0:
200,128,63720,1,0,0:0:0:0:
136,72,63970,2,0,L|208:8,1,95
184,56,68220,6,0,P|168:104|184:152,1,95,0|0,0:0|0:0,0:0:0:0:
256,104,68720,1,0,0:0:0:0:
328,56,68970,2,0,P|344:104|328:152,1,95
416,160,69470,2,0,P|390:203|343:222,1,95
288,280,69970,2,0,L|312:336,2,47.5
208,248,70470,2,0,L|136:288,2,47.5
256,176,70970,2,0,B|232:120|232:120|280:80|280:80|240:-8,2,190
312,240,72220,6,0,L|368:320,1,95
200,240,72720,2,0,L|144:320,1,95
256,328,73220,1,0,0:0:0:0:
256,240,73470,1,0,0:0:0:0:
256,152,73720,1,0,0:0:0:0:
256,152,73845,1,0,0:0:0:0:
256,152,73970,1,0,0:0:0:0:
152,64,75220,5,0,0:0:0:0:
360,64,75470,1,0,0:0:0:0:
256,64,75720,1,0,0:0:0:0:
256,64,75845,1,0,0:0:0:0:
256,64,75970,1,0,0:0:0:0:
184,152,76220,6,0,P|176:208|200:256,1,95
328,152,76720,2,0,P|336:208|312:256,1,95
208,328,77220,2,0,P|151:335|103:312,1,95
304,328,77720,2,0,P|360:335|394:322,1,95
432,248,78220,5,0,0:0:0:0:
376,184,78470,1,0,0:0:0:0:
440,128,78720,1,0,0:0:0:0:
384,64,78970,1,0,0:0:0:0:
384,64,79095,1,0,0:0:0:0:
384,64,79220,2,0,P|327:56|293:69,1,95
128,64,79720,2,0,P|184:56|218:69,1,95
424,224,80220,6,0,P|408:288|352:288,1,95
304,296,80720,2,0,L|208:296,1,95
152,232,81220,1,0,0:0:0:0:
224,192,81470,1,0,0:0:0:0:
152,152,81720,1,0,0:0:0:0:
80,104,81970,5,0,0:0:0:0:
80,104,82095,1,0,0:0:0:0:
80,104,82220,2,0,P|256:48|448:120,1,380
400,192,83470,5,0,0:0:0:0:
352,264,83720,1,0,0:0:0:0:
264,264,83970,1,0,0:0:0:0:
256,176,84220,2,0,P|218:182|188:227,1,95
184,312,84720,2,0,P|131:303|107:251,1,95
72,192,85220,2,0,P|64:136|112:104,1,95
144,48,85720,5,0,0:0:0:0:
144,48,85845,1,0,0:0:0:0:
144,48,85970,2,0,P|192:24|264:48,1,95
368,48,86470,2,0,P|320:24|248:48,1,95
208,136,86970,2,0,B|168:160|168:160|152:208|168:240,1,95
304,136,87470,2,0,B|344:160|344:160|360:208|344:240,1,95
392,288,87970,5,0,0:0:0:0:
392,288,88095,1,0,0:0:0:0:
392,288,88220,2,0,L|288:288,1,95
120,216,88720,2,0,L|224:216,1,95
392,144,89220,2,0,L|296:144,1,95
120,72,89720,2,0,L|224:72,1,95
215,72,90095,1,0,0:0:0:0:
215,72,90220,1,0,0:0:0:0:
256,192,90345,12,0,92220,0:0:0:0:
192,64,92970,5,0,0:0:0:0:
128,192,93220,5,0,0:0:0:0:
240,288,93470,5,0,0:0:0:0:
368,208,93720,5,0,0:0:0:0:
336,72,93970,5,0,0:0:0:0:
336,72,94095,1,0,0:0:0:0:
336,72,94220,2,0,P|272:72|200:96,1,95
136,144,94720,2,0,B|72:88|96:112,2,47.5
144,264,95220,1,0,0:0:0:0:
248,200,95470,1,0,0:0:0:0:
256,320,95720,1,0,0:0:0:0:
360,256,95970,1,0,0:0:0:0:
368,136,96220,6,0,P|360:80|296:64,1,95
181,61,96720,2,0,P|152:80|144:136,1,95
160,256,97220,1,0,0:0:0:0:
160,256,97345,1,0,0:0:0:0:
160,256,97470,1,0,0:0:0:0:
256,336,97720,1,0,0:0:0:0:
256,336,97845,1,0,0:0:0:0:
256,336,97970,1,0,0:0:0:0:
368,288,98220,6,0,P|424:264|416:200,2,95
256,232,98970,1,0,0:0:0:0:
152,168,99220,2,0,P|96:144|104:80,2,95
264,176,99970,2,0,P|320:200|327:228,1,95
256,320,100470,1,0,0:0:0:0:
256,320,100595,1,0,0:0:0:0:
256,320,100720,1,0,0:0:0:0:
152,160,100970,6,0,P|130:179|135:240,1,95,0|0,0:0|0:0,0:0:0:0:
160,264,101345,1,0,0:0:0:0:
192,280,101470,1,0,0:0:0:0:
224,288,101595,1,0,0:0:0:0:
264,296,101720,1,0,0:0:0:0:
296,296,101845,1,0,0:0:0:0:
336,288,101970,1,0,0:0:0:0:
368,272,102095,1,0,0:0:0:0:
400,256,102220,6,0,L|432:160,1,95
360,64,102720,2,0,L|328:160,1,95
208,184,103220,2,0,L|248:72,1,95
120,136,103720,2,0,L|80:248,1,95
64,264,104095,1,0,0:0:0:0:
80,304,104220,2,0,B|168:336|168:336|272:336,1,190
432,264,104970,2,0,B|344:232|344:232|240:232,1,190
144,176,105720,1,0,0:0:0:0:
144,64,105970,1,0,0:0:0:0:
256,24,106220,6,0,P|312:40|336:104,1,95
256,112,106720,2,0,P|200:128|176:192,1,95
256,200,107220,2,0,P|312:216|336:280,1,95
256,288,107720,2,0,P|200:304|176:368,1,95
180,332,108220,5,0,0:0:0:0:
331,332,108470,1,0,0:0:0:0:
176,248,108720,1,0,0:0:0:0:
335,248,108970,1,0,0:0:0:0:
256,168,109220,1,0,0:0:0:0:
256,136,109345,1,0,0:0:0:0:
256,104,109470,1,0,0:0:0:0:
256,72,109595,1,0,0:0:0:0:
256,40,109720,1,0,0:0:0:0:
256,40,109970,1,0,0:0:0:0:
72,120,110220,6,0,B|72:184|72:184|112:232,1,95
168,296,110720,2,0,B|231:297|231:297|280:257,1,95
344,296,111220,2,0,B|280:297|280:297|231:257,1,95
256,160,111720,1,0,0:0:0:0:
256,160,111845,1,0,0:0:0:0:
256,160,111970,1,0,0:0:0:0:
200,64,112220,5,0,0:0:0:0:
312,64,112470,1,0,0:0:0:0:
200,64,112720,1,0,0:0:0:0:
312,64,112970,1,0,0:0:0:0:
392,144,113220,5,0,0:0:0:0:
408,184,113345,1,0,0:0:0:0:
416,224,113470,1,0,0:0:0:0:
408,264,113595,1,0,0:0:0:0:
384,304,113720,2,0,P|320:352|264:352,1,95
192,352,114220,6,0,P|96:304|112:200,1,190
256,192,114970,1,0,0:0:0:0:
320,32,115220,2,0,P|416:80|400:184,1,190
256,192,115970,1,0,0:0:0:0:
160,72,116220,6,0,L|88:160,1,95
160,312,116720,2,0,L|99:238,1,95
208,192,117220,1,0,0:0:0:0:
320,224,117470,1,0,0:0:0:0:
416,168,117720,1,0,0:0:0:0:
416,128,117845,1,0,0:0:0:0:
400,88,117970,1,0,0:0:0:0:
368,64,118095,1,0,0:0:0:0:
328,56,118220,6,0,L|224:56,1,95
120,56,118720,1,0,0:0:0:0:
192,144,118970,2,0,L|312:144,1,95
400,144,119470,1,0,0:0:0:0:
328,232,119720,6,0,L|224:232,1,95
120,232,120220,1,0,0:0:0:0:
192,320,120470,2,0,L|312:320,1,95
400,320,120970,1,0,0:0:0:0:
400,320,121095,1,0,0:0:0:0:
400,320,121220,1,0,0:0:0:0:
312,240,121470,1,0,0:0:0:0:
312,240,121595,1,0,0:0:0:0:
312,240,121720,1,0,0:0:0:0:
200,240,121970,1,0,0:0:0:0:
200,240,122095,1,0,0:0:0:0:
200,240,122220,6,0,L|120:320,1,95
200,144,122720,6,0,L|120:64,1,95
312,144,123220,6,0,L|392:64,1,95
312,240,123720,6,0,L|392:320,1,95
208,320,124220,5,0,0:0:0:0:
144,224,124470,1,0,0:0:0:0:
304,320,124720,1,0,0:0:0:0:
368,224,124970,1,0,0:0:0:0:
256,192,125220,1,0,0:0:0:0:
256,160,125345,1,0,0:0:0:0:
256,128,125470,1,0,0:0:0:0:
256,96,125595,1,0,0:0:0:0:
256,64,125720,2,0,L|256:16,4,47.5
136,88,142220,5,0,0:0:0:0:
136,88,142720,6,0,B|192:104|192:104|256:72|256:72|328:96,1,190
400,112,143470,1,0,0:0:0:0:
448,184,143720,1,0,0:0:0:0:
400,256,143970,1,0,0:0:0:0:
320,296,144220,2,0,B|262:315|262:315|198:283|198:283|142:299,1,190
96,232,144970,2,0,P|97:180|156:147,1,95
136,64,145470,2,0,P|185:75|206:141,1,95
288,144,145970,2,0,L|360:96,2,47.5
336,216,146470,2,0,L|272:264,2,47.5
416,176,146970,2,0,P|433:213|414:261,1,95
448,72,150970,6,0,B|360:72|360:72|304:16|264:88,1,190
192,72,151720,2,0,P|144:96|144:168,1,95
192,312,152220,2,0,P|144:288|144:216,1,95
192,192,152720,1,0,0:0:0:0:
192,192,152970,2,0,B|248:168|248:168|312:208|312:208|376:184,2,190
120,144,154220,1,0,0:0:0:0:
120,240,154470,1,0,0:0:0:0:
208,104,154720,1,0,0:0:0:0:
208,280,154970,1,0,0:0:0:0:
272,192,155220,2,0,L|320:192,4,47.5
120,288,158220,6,0,P|160:256|232:272,1,95
392,288,158720,2,0,P|352:256|280:272,1,95
256,192,159220,1,0,0:0:0:0:
192,136,159470,1,0,0:0:0:0:
104,136,159720,2,0,P|104:80|176:64,1,95
216,48,160220,2,0,P|266:72|249:144,2,95
192,136,160970,2,0,L|152:248,1,95
351,225,161470,2,0,L|320:136,1,95
256,200,161970,2,0,L|256:256,2,47.5
176,96,166220,6,0,B|216:72|216:72|256:96|256:96|296:72|296:72|360:104,2,190
112,152,167470,2,0,L|40:112,2,47.5
160,224,167970,2,0,L|120:280,2,47.5
208,152,168470,2,0,L|264:64,1,95
320,16,168970,2,0,P|352:56|328:112,1,95
304,168,169470,2,0,P|339:187|387:168,1,95
440,240,169970,1,0,0:0:0:0:
392,312,170220,2,0,L|288:312,1,95
120,312,170720,2,0,L|224:312,1,95
256,232,171220,2,0,B|272:208|272:208|240:176|240:176|256:152,1,95
256,72,171720,1,0,0:0:0:0:
256,72,171845,1,0,0:0:0:0:
256,72,171970,1,0,0:0:0:0:
160,320,173220,6,0,B|177:267|177:267|153:235,1,95
352,320,173720,2,0,B|334:267|334:267|358:235,1,95
408,168,174220,1,0,0:0:0:0:
360,96,174470,1,0,0:0:0:0:
312,168,174720,1,0,0:0:0:0:
264,96,174970,1,0,0:0:0:0:
176,96,175220,2,0,L|104:184,1,95
336,288,175720,2,0,L|408:200,1,95
400,128,176220,6,0,L|320:64,1,95
112,128,176720,2,0,L|192:64,1,95
256,120,177220,1,0,0:0:0:0:
256,160,177345,1,0,0:0:0:0:
256,200,177470,1,0,0:0:0:0:
256,240,177595,1,0,0:0:0:0:
256,280,177720,1,0,0:0:0:0:
256,280,177970,1,0,0:0:0:0:
136,296,178220,6,0,P|168:352|224:376,1,95
319,367,178720,2,0,P|344:352|376:296,1,95
384,208,179220,2,0,L|464:224,2,47.5
344,128,179720,2,0,L|384:88,2,47.5
272,88,180220,2,0,B|232:104|176:104|176:104|184:184|136:216,1,190
272,296,180970,2,0,B|232:280|176:280|176:280|184:200|136:168,1,190
176,112,181720,5,0,0:0:0:0:
208,80,181845,1,0,0:0:0:0:
248,72,181970,1,0,0:0:0:0:
336,72,182220,6,0,L|400:160,1,95
440,224,182720,2,0,P|380:234|332:191,1,95
280,168,183220,2,0,L|200:256,1,95
160,304,183720,2,0,P|119:249|149:202,1,95
128,144,184220,5,0,0:0:0:0:
184,80,184470,1,0,0:0:0:0:
272,80,184720,1,0,0:0:0:0:
328,144,184970,1,0,0:0:0:0:
416,144,185220,2,0,P|400:200|336:224,1,95
416,296,185720,2,0,P|359:310|306:266,1,95
288,296,186095,1,0,0:0:0:0:
248,296,186220,6,0,B|264:248|264:248|264:224|264:224|224:192|224:192|224:168|224:168|248:88,2,190
168,280,187470,1,0,0:0:0:0:
112,216,187720,1,0,0:0:0:0:
144,136,187970,1,0,0:0:0:0:
256,48,188220,5,0,0:0:0:0:
256,48,188345,1,0,0:0:0:0:
424,96,188595,5,0,0:0:0:0:
424,96,188720,1,0,0:0:0:0:
416,256,188970,5,0,0:0:0:0:
376,280,189095,1,0,0:0:0:0:
336,256,189220,1,0,0:0:0:0:
304,232,189345,1,0,0:0:0:0:
264,208,189470,1,0,0:0:0:0:
232,184,189595,1,0,0:0:0:0:
192,200,189720,1,0,0:0:0:0:
160,216,189845,1,0,0:0:0:0:
128,240,189970,1,0,0:0:0:0:
96,216,190095,1,0,0:0:0:0:
56,216,190220,1,0,0:0:0:0:
248,48,190970,5,0,0:0:0:0:
349,255,191220,5,0,0:0:0:0:
144,144,191470,5,0,0:0:0:0:
376,120,191720,5,0,0:0:0:0:
200,264,191970,5,0,0:0:0:0:
352,312,192220,6,0,P|416:288|416:232,1,95
416,152,192720,1,0,0:0:0:0:
336,72,192970,1,0,0:0:0:0:
336,72,193095,1,0,0:0:0:0:
336,72,193220,1,0,0:0:0:0:
256,152,193470,1,0,0:0:0:0:
176,72,193720,2,0,L|104:160,1,95
176,312,194220,2,0,L|104:224,1,95
176,136,194720,1,0,0:0:0:0:
288,136,194970,1,0,0:0:0:0:
400,136,195220,5,0,0:0:0:0:
400,136,195345,1,0,0:0:0:0:
400,136,195470,1,0,0:0:0:0:
400,136,195595,1,0,0:0:0:0:
400,136,195720,2,0,P|448:168|448:224,1,95
368,280,196220,2,0,P|320:248|313:214,1,95
256,112,196720,1,0,0:0:0:0:
176,32,196970,1,0,0:0:0:0:
96,112,197220,1,0,0:0:0:0:
176,192,197470,1,0,0:0:0:0:
120,288,197720,6,0,B|152:288|152:288|192:264|192:264|232:288,1,95
392,288,198220,2,0,B|360:288|360:288|320:264|320:264|280:288,1,95
176,192,198720,1,0,0:0:0:0:
336,192,198970,1,0,0:0:0:0:
256,112,199220,1,0,0:0:0:0:
256,72,199345,1,0,0:0:0:0:
256,32,199470,1,0,0:0:0:0:
256,32,199720,1,0,0:0:0:0:
256,72,199845,1,0,0:0:0:0:
256,112,199970,1,0,0:0:0:0:
152,152,200220,6,0,L|224:224,1,95
360,152,200720,2,0,L|288:224,1,95
104,296,201220,2,0,L|256:312,1,95
408,296,201720,2,0,L|256:312,1,95
240,224,202220,1,0,0:0:0:0:
152,104,202470,1,0,0:0:0:0:
128,224,202720,1,0,0:0:0:0:
264,104,202970,1,0,0:0:0:0:
336,16,203220,6,0,P|384:64|376:112,1,95
496,96,203720,2,0,P|455:150|406:148,1,95
328,192,204220,1,0,0:0:0:0:
256,280,204470,1,0,0:0:0:0:
232,128,204720,1,0,0:0:0:0:
160,216,204970,1,0,0:0:0:0:
136,64,205220,1,0,0:0:0:0:
64,152,205470,1,0,0:0:0:0:
104,256,205720,2,0,L|192:320,1,95
368,312,206220,5,0,0:0:0:0:
368,312,206345,1,0,0:0:0:0:
456,160,206595,5,0,0:0:0:0:
456,160,206720,1,0,0:0:0:0:
296,56,206970,5,0,0:0:0:0:
256,72,207095,1,0,0:0:0:0:
224,104,207220,1,0,0:0:0:0:
200,144,207345,1,0,0:0:0:0:
192,192,207470,1,0,0:0:0:0:
208,232,207595,1,0,0:0:0:0:
232,272,207720,1,0,0:0:0:0:
232,272,207970,1,0,0:0:0:0:
344,272,208220,5,0,0:0:0:0:
416,184,208470,1,0,0:0:0:0:
344,96,208720,2,0,P|304:64|240:80,1,95
160,8,209220,2,0,P|130:57|162:122,1,95
64,176,209720,2,0,P|96:208|176:192,1,95
112,320,210220,2,0,B|144:280|144:280|160:264|280:272|304:304,1,190
280,288,210970,1,0,0:0:0:0:
368,216,211220,5,0,0:0:0:0:
384,176,211345,1,0,0:0:0:0:
392,136,211470,1,0,0:0:0:0:
376,96,211595,1,0,0:0:0:0:
360,64,211720,1,0,0:0:0:0:
360,64,211970,1,0,0:0:0:0:
256,24,212220,5,0,0:0:0:0:
176,104,212470,1,0,0:0:0:0:
176,216,212720,1,0,0:0:0:0:
256,128,212970,1,0,0:0:0:0:
352,64,213220,2,0,L|424:152,1,95
352,320,213720,2,0,L|424:232,1,95
352,320,214220,5,0,0:0:0:0:
272,240,214470,1,0,0:0:0:0:
192,320,214720,1,0,0:0:0:0:
112,240,214970,1,0,0:0:0:0:
192,160,215220,1,0,0:0:0:0:
232,128,215345,1,0,0:0:0:0:
224,80,215470,1,0,0:0:0:0:
184,56,215595,1,0,0:0:0:0:
144,72,215720,2,0,L|104:104,3,47.5
144,72,216220,5,0,0:0:0:0:
256,56,216470,2,0,P|304:72|320:136,1,95
416,176,216970,2,0,P|388:218|322:218,1,95
256,296,217470,1,0,0:0:0:0:
176,216,217720,1,0,0:0:0:0:
256,296,217970,1,0,0:0:0:0:
336,216,218220,6,0,L|408:136,1,95
336,48,218720,2,0,L|264:128,1,95
160,152,219220,1,0,0:0:0:0:
248,224,219470,1,0,0:0:0:0:
48,152,219720,1,0,0:0:0:0:
256,328,219970,1,0,0:0:0:0:
352,264,220220,6,0,L|424:192,1,95
344,112,220720,1,0,0:0:0:0:
419,196,220970,1,0,0:0:0:0:
160,192,221220,5,0,0:0:0:0:
236,108,221470,1,0,0:0:0:0:
160,192,221721,2,0,L|227:259,1,95
304,336,222220,5,0,0:0:0:0:
384,256,222470,1,0,0:0:0:0:
304,176,222720,1,0,0:0:0:0:
384,88,222970,1,0,0:0:0:0:
272,64,223220,1,0,0:0:0:0:
272,64,223345,1,0,0:0:0:0:
192,144,223595,1,0,0:0:0:0:
160,176,223720,1,0,0:0:0:0:
144,216,223845,1,0,0:0:0:0:
144,256,223970,1,0,0:0:0:0:
168,296,224095,1,0,0:0:0:0:
208,320,224220,1,0,0:0:0:0:
