osu file format v14

[General]
AudioFilename: WonChu KissMe!.mp3
AudioLeadIn: 0
PreviewTime: -1
Countdown: 1
SampleSet: Normal
StackLeniency: 0.7
Mode: 0
LetterboxInBreaks: 1
WidescreenStoryboard: 0

[Editor]
Bookmarks: 4086
DistanceSpacing: 2
BeatDivisor: 4
GridSize: 8
TimelineZoom: 1

[Metadata]
Title:Won(*3*)Chu KissMe!
TitleUnicode:Won(*3*)Chu KissMe!
Artist:SAKURA*TRICK
ArtistUnicode:SAKURA*TRICK
Creator:Randy_tnt
Version:Normal
Source:
Tags:
BeatmapID:1061769
BeatmapSetID:498806

[Difficulty]
HPDrainRate:8.4
CircleSize:4
OverallDifficulty:5
ApproachRate:8
SliderMultiplier:1.40000000596046
SliderTickRate:1

[Events]
//Background and Video events
0,0,"ss.jpg",0,0
//Break Periods
//Storyboard Layer 0 (Background)
//Storyboard Layer 1 (Fail)
//Storyboard Layer 2 (Pass)
//Storyboard Layer 3 (Foreground)
//Storyboard Sound Samples

[TimingPoints]
949,392.156862745098,4,1,0,100,1,0

[HitObjects]
160,264,949,5,0,0:0:0:0:
296,136,1537,1,0,0:0:0:0:
112,96,2125,1,0,0:0:0:0:
200,184,2517,2,0,P|240:216|464:296,1,280.000001192092
328,72,4086,5,0,0:0:0:0:
237,125,4282,2,0,L|157:157,1,70.000000298023
97,76,4674,2,0,L|121:108,1,35.0000001490115
196,175,4968,2,0,L|164:143,1,35.0000001490115
152,48,5262,1,0,0:0:0:0:
256,48,5458,1,0,0:0:0:0:
368,128,5654,5,0,0:0:0:0:
336,224,5850,1,0,0:0:0:0:
432,272,6047,1,0,0:0:0:0:
424,168,6243,2,0,L|376:128,1,35.0000001490115
304,104,6537,2,0,L|360:120,7,35.0000001490115
400,96,7419,1,0,0:0:0:0:
456,72,7615,1,0,0:0:0:0:
480,128,7811,2,0,L|464:160,1,35.0000001490115
408,192,8105,2,0,L|352:160,1,35.0000001490115
280,144,8399,5,0,0:0:0:0:
232,48,8596,1,0,0:0:0:0:
152,112,8792,2,0,L|112:136,4,35.0000001490115
77,37,9380,1,0,0:0:0:0:
288,104,9576,2,0,L|320:144,2,35.0000001490115
184,120,9968,2,0,L|152:136,2,35.0000001490115
312,176,10360,5,0,0:0:0:0:
248,96,10556,1,0,0:0:0:0:
240,200,10752,1,0,0:0:0:0:
104,152,10949,2,0,L|136:176,1,35.0000001490115
168,272,11243,2,0,L|160:216,1,35.0000001490115
216,104,11537,1,0,0:0:0:0:
264,240,11733,1,0,0:0:0:0:
376,152,11929,5,0,0:0:0:0:
472,104,12125,1,0,0:0:0:0:
448,208,12321,1,0,0:0:0:0:
328,136,12517,2,0,L|376:168,1,35.0000001490115
392,256,12811,2,0,L|400:192,1,35.0000001490115
376,80,13105,2,0,L|336:32,4,35.0000001490115
464,144,13694,1,0,0:0:0:0:
368,192,13890,1,0,0:0:0:0:
304,176,14086,6,0,L|240:152,1,35.0000001490115
208,80,14380,2,0,L|232:128,1,35.0000001490115
176,240,14674,1,0,0:0:0:0:
304,296,14870,1,0,0:0:0:0:
464,72,15262,5,0,0:0:0:0:
200,152,15654,1,0,0:0:0:0:
448,280,16047,1,0,0:0:0:0:
352,240,16243,2,0,L|304:224,4,35.0000001490115
464,296,17027,1,0,0:0:0:0:
416,200,17223,1,0,0:0:0:0:
296,168,17615,1,0,0:0:0:0:
96,104,18007,6,0,P|112:160|176:216,1,140.000000596046
232,232,18596,1,0,0:0:0:0:
352,168,18792,2,0,B|296:136|264:152|256:160,1,70.000000298023
104,40,19772,6,0,P|128:120|184:160,1,140.000000596046
272,136,20360,1,0,0:0:0:0:
72,64,20752,1,0,0:0:0:0:
136,264,21145,2,0,P|176:296|272:312,1,140.000000596046
352,256,21733,1,0,0:0:0:0:
248,160,21929,1,0,0:0:0:0:
192,248,22125,1,0,0:0:0:0:
432,240,22909,6,0,P|464:208|464:96,1,140.000000596046
440,72,23498,1,0,0:0:0:0:
352,160,23890,1,0,0:0:0:0:
480,152,24282,2,0,P|456:208|376:224,1,140.000000596046
328,200,24870,1,0,0:0:0:0:
344,96,25066,1,0,0:0:0:0:
416,168,25262,1,0,0:0:0:0:
224,328,26047,6,0,P|152:288|104:232,1,140.000000596046
64,208,26635,1,0,0:0:0:0:
272,256,27027,1,0,0:0:0:0:
152,288,27419,1,0,0:0:0:0:
168,160,27811,1,0,0:0:0:0:
288,208,28203,2,0,P|328:240|336:240,2,35.0000001490115
208,144,28596,1,0,0:0:0:0:
312,136,28792,1,0,0:0:0:0:
152,288,29184,6,0,P|200:304|304:312,1,140.000000596046
368,248,29772,1,0,0:0:0:0:
160,288,30164,1,0,0:0:0:0:
368,336,30556,6,0,P|400:304|432:184,1,140.000000596046
368,136,31145,1,0,0:0:0:0:
288,200,31341,1,0,0:0:0:0:
376,256,31537,1,0,0:0:0:0:
56,144,32321,6,0,P|88:96|184:88,1,140.000000596046
224,104,32909,1,0,0:0:0:0:
152,208,33301,1,0,0:0:0:0:
360,168,33694,1,0,0:0:0:0:
256,96,34086,1,0,0:0:0:0:
120,136,34282,2,0,P|80:128|64:80,2,70.000000298023
320,320,35458,6,0,P|384:304|440:240,1,140.000000596046
312,176,36047,1,0,0:0:0:0:
208,240,36439,1,0,0:0:0:0:
128,336,36831,2,0,P|80:280|80:192,1,140.000000596046
112,168,37419,1,0,0:0:0:0:
192,104,37615,1,0,0:0:0:0:
128,104,37811,1,0,0:0:0:0:
296,296,38596,6,0,P|352:296|440:256,1,140.000000596046
464,208,39184,1,0,0:0:0:0:
256,160,39576,1,0,0:0:0:0:
368,216,39968,2,0,P|368:256|336:288,4,70.000000298023
216,72,41145,1,0,0:0:0:0:
296,136,41341,2,0,L|320:176,4,35.0000001490115
96,64,42125,1,0,0:0:0:0:
48,104,42321,1,0,0:0:0:0:
232,200,42713,1,0,0:0:0:0:
120,264,43105,6,0,P|168:304|328:328,1,210.000000894069
360,296,43890,1,0,0:0:0:0:
176,192,44282,1,0,0:0:0:0:
280,176,44478,1,0,0:0:0:0:
208,104,44674,1,0,0:0:0:0:
112,208,44870,2,0,P|128:256|192:320,1,140.000000596046
256,312,45458,1,0,0:0:0:0:
136,280,45850,1,0,0:0:0:0:
416,312,46243,2,0,P|464:272|344:80,1,350.000001490115
176,208,47615,5,0,0:0:0:0:
256,312,48007,2,0,P|336:304|408:272,1,140.000000596046
424,224,48596,1,0,0:0:0:0:
224,160,48988,1,0,0:0:0:0:
416,72,49380,2,0,P|352:40|200:72,1,210.000000894069
184,112,50164,1,0,0:0:0:0:
344,248,50556,1,0,0:0:0:0:
160,296,51145,6,0,P|64:256|264:24,1,560.000002384184
296,48,52909,1,0,0:0:0:0:
216,120,53105,1,0,0:0:0:0:
120,80,53301,1,0,0:0:0:0:
216,32,53498,1,0,0:0:0:0:
328,120,53694,1,0,0:0:0:0:
64,296,54282,1,0,0:0:0:0:
368,224,54870,1,0,0:0:0:0:
96,72,55458,1,0,0:0:0:0:
200,128,55850,6,0,L|272:144,1,70.000000298023
320,176,56243,2,0,L|248:192,1,70.000000298023
112,192,56635,2,0,L|144:224,4,35.0000001490115
304,104,57419,5,0,0:0:0:0:
184,152,57811,1,0,0:0:0:0:
264,216,58007,1,0,0:0:0:0:
96,96,58399,1,0,0:0:0:0:
104,304,58792,2,0,P|160:312|248:288,1,140.000000596046
288,256,59380,1,0,0:0:0:0:
208,184,59576,1,0,0:0:0:0:
336,136,59772,1,0,0:0:0:0:
72,272,60556,6,0,P|112:296|232:328,1,140.000000596046
256,296,61145,1,0,0:0:0:0:
168,104,61537,1,0,0:0:0:0:
48,136,61929,2,0,P|64:176|144:232,1,140.000000596046
200,208,62517,1,0,0:0:0:0:
104,168,62713,1,0,0:0:0:0:
64,264,62909,1,0,0:0:0:0:
312,296,63694,6,0,P|368:280|408:192,1,140.000000596046
400,152,64282,1,0,0:0:0:0:
200,216,64674,1,0,0:0:0:0:
312,152,65066,2,0,P|280:136|168:144,1,140.000000596046
136,184,65654,1,0,0:0:0:0:
344,232,66047,1,0,0:0:0:0:
120,112,66831,6,0,B|136:72|160:56|208:48|248:40,1,140.000000596046
296,24,67419,1,0,0:0:0:0:
120,136,67811,1,0,0:0:0:0:
399,136,68203,2,0,P|303:160|231:256,1,210.000000894069
120,184,69184,2,0,P|144:216|248:240,1,140.000000596046
352,184,69968,1,0,0:0:0:0:
168,80,70360,1,0,0:0:0:0:
200,136,70556,1,0,0:0:0:0:
408,160,70948,1,0,0:0:0:0:
360,120,71145,1,0,0:0:0:0:
296,104,71341,1,0,0:0:0:0:
168,152,71537,2,0,P|144:256|392:368,1,420.000001788138
120,272,73105,6,0,B|80:248|64:168|72:136,1,140.000000596046
88,88,73694,1,0,0:0:0:0:
256,216,74086,1,0,0:0:0:0:
192,104,74478,1,0,0:0:0:0:
312,128,74870,1,0,0:0:0:0:
256,152,75066,2,0,L|184:200,1,70.000000298023
112,248,75458,1,0,0:0:0:0:
336,296,76243,6,0,P|408:280|456:216,1,140.000000596046
448,168,76831,1,0,0:0:0:0:
240,200,77223,1,0,0:0:0:0:
136,272,77615,1,0,0:0:0:0:
56,176,78007,2,0,P|40:120|48:104,2,70.000000298023
120,256,78596,1,0,0:0:0:0:
368,272,79380,6,0,P|416:256|456:160,1,140.000000596046
432,128,79968,1,0,0:0:0:0:
232,192,80360,1,0,0:0:0:0:
304,88,80752,2,0,P|264:48|184:56,1,140.000000596046
144,96,81341,1,0,0:0:0:0:
336,176,81733,1,0,0:0:0:0:
200,144,82517,6,0,L|168:120,2,35.0000001490115
248,184,82909,1,0,0:0:0:0:
304,216,83105,2,0,L|344:192,2,35.0000001490115
248,248,83498,1,0,0:0:0:0:
136,192,83890,1,0,0:0:0:0:
424,64,84478,1,0,0:0:0:0:
400,184,84870,1,0,0:0:0:0:
320,88,85262,1,0,0:0:0:0:
216,152,85654,5,0,0:0:0:0:
216,152,86243,1,0,0:0:0:0:
216,152,86831,1,0,0:0:0:0:
328,96,87223,1,0,0:0:0:0:
424,136,87419,2,0,P|400:184|368:192,1,70.000000298023
288,168,87811,1,0,0:0:0:0:
184,184,88007,2,0,P|136:192|120:208,1,70.000000298023
240,272,88399,1,0,0:0:0:0:
352,192,88596,1,0,0:0:0:0:
