osu file format v13

[General]
AudioFilename: OP.mp3
AudioLeadIn: 1000
PreviewTime: 57290
Countdown: 0
SampleSet: Soft
StackLeniency: 0.7
Mode: 0
LetterboxInBreaks: 0
WidescreenStoryboard: 0

[Editor]
DistanceSpacing: 0.6
BeatDivisor: 4
GridSize: 4
TimelineZoom: 1

[Metadata]
Title:Won(*3*)Chu KissMe! [TV Size]
TitleUnicode:Won(*3*)Chu KissMe! [TVサイズ]
Artist:SAKURA*TRICK
ArtistUnicode:SAKURA*TRICK
Creator:OniJAM
Version:Kiss
Source:桜Trick
Tags:Sakura Trick Funta7 Funta3 Takayama Haruka Tomatsu Haruka Sonoda Yuu Iguchi Yuka Noda Kotone Aisaka Yuka Minami Shizuku Igarashi Hiromi Ikeno Kaede Fujigami Mai Iitsuka Yuzu Toda Megumi Kiss Yuri Opening OP IamKwaN smallboat Minakami Yuki
BeatmapID:353182
BeatmapSetID:141672

[Difficulty]
HPDrainRate:7
CircleSize:4
OverallDifficulty:8
ApproachRate:9
SliderMultiplier:2
SliderTickRate:2

[Events]
//Background and Video events
0,0,"OP.jpg",0,0
Video,450,"OP.avi"
//Break Periods
//Storyboard Layer 0 (Background)
//Storyboard Layer 1 (Fail)
//Storyboard Layer 2 (Pass)
//Storyboard Layer 3 (Foreground)
//Storyboard Sound Samples
//Background Colour Transformations
3,100,163,162,255

[TimingPoints]
820,392.156862745098,4,2,1,90,1,0
3172,-100,4,2,1,70,0,0
3369,-100,4,2,1,75,0,0
3565,-100,4,2,1,80,0,0
3761,-100,4,2,1,85,0,0
3957,-100,4,2,1,100,0,1
16506,-125,4,2,1,80,0,0
26898,-100,4,2,1,90,0,0
28074,-100,4,2,1,70,0,0
28663,-66.6666666666667,4,2,1,80,0,0
29055,-100,4,2,1,90,0,0
41604,-125,4,2,1,80,0,0
51016,-100,4,2,1,90,0,0
55721,-33.3333333333333,4,2,1,80,0,0
56506,-100,4,2,1,90,0,0
57290,-100,4,2,1,100,0,1
71408,-100,4,2,1,90,0,1
72192,-100,4,2,1,90,0,0
72976,-100,4,2,1,100,0,1
85525,-100,4,2,1,90,0,0
87094,-50,4,2,1,70,0,0

[Colours]
Combo1 : 255,192,128
Combo2 : 255,144,224
Combo3 : 255,255,192
Combo4 : 255,64,128

[HitObjects]
336,212,820,6,0,L|376:304,1,100,4|0,0:0|0:0,0:0:0:0:
233,112,1408,2,0,L|292:32,1,100,4|0,0:0|0:0,0:0:0:0:
198,251,1996,2,0,L|99:239,1,100,4|0,0:0|0:0,0:0:0:0:
256,192,2388,5,4,0:0:0:0:
256,192,3172,5,8,0:0:0:0:
276,176,3270,1,8,0:0:0:0:
300,168,3369,1,8,0:0:0:0:
324,176,3467,1,8,0:0:0:0:
344,192,3565,1,8,0:0:0:0:
364,208,3663,1,8,0:0:0:0:
388,216,3761,1,8,0:0:0:0:
412,208,3860,1,8,0:0:0:0:
432,191,3957,6,0,P|464:154|469:106,1,100,14|0,0:0|0:0,0:0:0:0:
336,36,4349,1,8,0:0:0:0:
388,120,4545,1,2,0:0:0:0:
388,120,4643,1,0,0:0:0:0:
240,92,4839,1,0,0:0:0:0:
240,92,4937,1,2,0:0:0:0:
128,164,5133,1,8,0:0:0:0:
176,32,5329,1,2,0:0:0:0:
192,224,5525,6,0,P|172:280|136:304,1,100,2|0,0:0|0:0,0:0:0:0:
60,356,5918,1,8,0:0:0:0:
108,224,6114,1,2,0:0:0:0:
108,224,6212,1,0,0:0:0:0:
256,304,6408,1,0,0:0:0:0:
284,312,6506,1,2,0:0:0:0:
312,320,6604,1,0,0:0:0:0:
356,304,6702,5,10,0:0:0:0:
384,312,6800,1,0,0:0:0:0:
408,276,6898,5,2,0:0:0:0:
436,284,6996,1,0,0:0:0:0:
460,248,7094,5,6,0:0:0:0:
504,360,7290,1,0,0:0:0:0:
352,232,7486,1,8,0:0:0:0:
488,148,7682,1,2,0:0:0:0:
488,148,7780,1,0,0:0:0:0:
352,84,7976,1,0,0:0:0:0:
352,84,8074,1,2,0:0:0:0:
280,180,8270,1,10,0:0:0:0:
248,52,8467,1,2,0:0:0:0:
172,124,8663,6,0,P|153:170|151:220,1,100,2|0,0:0|0:0,0:0:0:0:
340,260,9055,2,0,P|358:213|360:163,1,100,10|0,0:0|0:0,0:0:0:0:
151,220,9447,5,2,0:0:0:0:
180,228,9545,1,0,0:0:0:0:
208,224,9643,1,2,0:0:0:0:
232,204,9741,1,0,0:0:0:0:
240,176,9839,1,10,0:0:0:0:
248,148,9937,1,0,0:0:0:0:
272,128,10035,1,10,0:0:0:0:
300,124,10133,1,0,0:0:0:0:
328,131,10231,6,0,L|340:232,1,100,6|0,0:0|0:0,0:0:0:0:
280,336,10623,1,8,0:0:0:0:
376,304,10820,1,2,0:0:0:0:
376,304,10918,1,0,0:0:0:0:
200,260,11114,1,0,0:0:0:0:
200,260,11212,1,2,0:0:0:0:
272,140,11408,1,8,0:0:0:0:
96,44,11604,1,2,0:0:0:0:
136,136,11800,6,0,P|112:180|117:229,1,100,2|0,0:0|0:0,0:0:0:0:
280,336,12192,1,8,0:0:0:0:
160,304,12388,1,2,0:0:0:0:
160,304,12486,1,0,0:0:0:0:
328,240,12682,1,0,0:0:0:0:
340,268,12780,1,2,0:0:0:0:
352,296,12878,1,0,0:0:0:0:
372,336,12976,5,10,0:0:0:0:
384,308,13074,1,0,0:0:0:0:
428,292,13172,5,2,0:0:0:0:
440,264,13270,1,0,0:0:0:0:
480,240,13369,5,6,0:0:0:0:
336,104,13565,1,2,0:0:0:0:
148,176,13761,1,8,0:0:0:0:
184,64,13957,1,2,0:0:0:0:
184,64,14055,1,0,0:0:0:0:
248,232,14251,1,0,0:0:0:0:
248,232,14349,1,2,0:0:0:0:
64,312,14545,1,8,0:0:0:0:
64,312,14643,1,0,0:0:0:0:
64,312,14741,1,10,0:0:0:0:
148,176,14937,5,0,0:0:0:0:
220,296,15133,1,8,0:0:0:0:
472,36,15525,1,8,0:0:0:0:
80,116,15918,1,8,0:0:0:0:
40,228,16114,1,8,0:0:0:0:
28,256,16212,1,8,0:0:0:0:
28,284,16310,1,8,0:0:0:0:
36,312,16408,1,8,0:0:0:0:
52,336,16506,6,0,L|148:328,1,80,6|0,0:0|0:0,0:0:0:0:
220,236,16898,1,8,0:0:0:0:
156,164,17094,1,2,0:0:0:0:
208,44,17290,2,0,P|264:60|292:92,1,80,0|0,0:0|0:0,0:0:0:0:
316,200,17682,1,8,0:0:0:0:
360,64,17878,6,0,B|400:104|376:160|376:160|388:180|390:202|384:224,1,160,6|2,0:0|0:0,0:0:0:0:
416,304,18467,2,0,L|320:324,1,80,8|0,0:0|0:0,0:0:0:0:
177,251,18859,2,0,L|256:268,1,80,2|0,0:0|0:0,0:0:0:0:
100,348,19251,2,0,L|81:312,3,40,8|0|0|0,0:0|0:0|0:0|0:0,0:0:0:0:
56,316,19643,6,0,L|62:236,1,80,4|0,0:0|0:0,0:0:0:0:
12,76,20035,1,8,0:0:0:0:
24,168,20231,1,2,0:0:0:0:
72,28,20427,2,0,L|164:56,1,80
244,29,20820,1,8,0:0:0:0:
116,122,21016,6,0,B|152:134|190:126|210:98|210:98|231:109|256:108|280:96,1,160,6|2,0:0|0:0,0:0:0:0:
396,52,21604,2,0,P|356:40|300:60,1,80,8|0,0:0|0:0,0:0:0:0:
352,156,21996,2,0,L|360:236,1,80,2|0,0:0|0:0,0:0:0:0:
288,300,22388,2,0,L|292:344,3,40,8|0|0|0,0:0|0:0|0:0|0:0,0:0:0:0:
312,352,22780,6,0,L|216:344,1,80,4|0,0:0|0:0,0:0:0:0:
136,356,23172,1,8,0:0:0:0:
224,260,23369,1,2,0:0:0:0:
380,324,23565,2,0,L|284:316,1,80,0|0,0:0|0:0,0:0:0:0:
460,368,23957,1,8,0:0:0:0:
456,272,24153,6,0,P|432:208|452:120,1,160,6|2,0:0|0:0,0:0:0:0:
400,40,24741,2,0,L|321:54,1,80,8|0,0:0|0:0,0:0:0:0:
157,85,25133,2,0,L|236:100,1,80,2|0,0:0|0:0,0:0:0:0:
316,152,25525,2,0,L|328:200,3,40,8|0|0|0,0:0|0:0|0:0|0:0,0:0:0:0:
344,176,25918,6,0,L|328:296,1,120,4|0,0:0|0:0,0:0:0:0:
308,312,26310,2,0,P|268:328|223:321,2,80,8|2|0,0:0|0:0|0:0,0:0:0:0:
256,224,26898,5,8,0:0:0:0:
36,336,27290,5,8,0:0:0:0:
348,272,27682,5,8,0:0:0:0:
440,320,28074,6,0,L|448:372,2,50,2|0|2,0:0|0:0|0:0,0:0:0:0:
488,152,28467,1,2,0:0:0:0:
492,204,28663,6,0,L|264:180,1,225.000008583069,2|0,0:0|0:0,0:0:0:0:
192,172,29055,5,4,0:0:0:0:
96,208,29251,2,0,P|56:248|56:292,2,100,0|8|2,0:0|0:0|0:0,0:0:0:0:
112,184,29741,1,0,0:0:0:0:
108,156,29839,1,2,0:0:0:0:
216,300,30035,2,0,L|196:192,1,100,0|8,0:0|0:0,0:0:0:0:
212,48,30427,1,2,0:0:0:0:
212,48,30525,1,0,0:0:0:0:
212,48,30623,6,0,P|260:84|268:132,1,100,2|0,0:0|0:0,0:0:0:0:
172,224,31016,1,10,0:0:0:0:
268,120,31212,1,0,0:0:0:0:
240,276,31408,2,0,P|212:300|180:308,3,50,2|0|2|0,0:0|0:0|0:0|0:0,0:0:0:0:
180,320,31800,1,10,0:0:0:0:
152,316,31898,1,0,0:0:0:0:
124,312,31996,1,2,0:0:0:0:
96,308,32094,1,0,0:0:0:0:
60,336,32192,5,4,0:0:0:0:
12,184,32388,1,0,0:0:0:0:
188,216,32584,1,8,0:0:0:0:
92,88,32780,1,2,0:0:0:0:
120,92,32878,1,2,0:0:0:0:
148,96,32976,1,0,0:0:0:0:
176,100,33074,1,0,0:0:0:0:
212,72,33172,5,2,0:0:0:0:
393,132,33369,2,0,L|296:156,1,100,8|2,0:0|0:0,0:0:0:0:
304,128,33663,1,0,0:0:0:0:
312,100,33761,2,0,P|344:56|404:64,1,100,0|2,0:0|0:0,0:0:0:0:
456,196,34153,2,0,L|444:296,1,100,8|2,0:0|0:0,0:0:0:0:
316,352,34545,5,2,0:0:0:0:
288,348,34643,1,0,0:0:0:0:
260,312,34741,1,2,0:0:0:0:
232,308,34839,1,0,0:0:0:0:
188,324,34937,1,10,0:0:0:0:
160,324,35035,1,0,0:0:0:0:
132,312,35133,1,10,0:0:0:0:
112,292,35231,1,0,0:0:0:0:
104,264,35329,6,0,L|116:164,1,100,4|0,0:0|0:0,0:0:0:0:
188,68,35721,2,0,P|232:36|284:40,1,100,8|2,0:0|0:0,0:0:0:0:
304,44,36016,1,0,0:0:0:0:
332,52,36114,1,2,0:0:0:0:
488,112,36310,2,0,P|444:144|392:140,1,100,0|8,0:0|0:0,0:0:0:0:
416,44,36702,1,2,0:0:0:0:
416,44,36800,1,0,0:0:0:0:
416,44,36898,5,2,0:0:0:0:
480,212,37094,1,0,0:0:0:0:
344,176,37290,1,10,0:0:0:0:
356,276,37486,1,0,0:0:0:0:
268,356,37682,2,0,L|216:336,3,50,2|0|2|0,0:0|0:0|0:0|0:0,0:0:0:0:
192,304,38074,1,10,0:0:0:0:
164,308,38172,1,0,0:0:0:0:
128,284,38270,1,2,0:0:0:0:
100,288,38369,1,0,0:0:0:0:
64,336,38467,5,4,0:0:0:0:
180,224,38663,1,0,0:0:0:0:
336,316,38859,1,8,0:0:0:0:
236,320,39055,1,2,0:0:0:0:
238,290,39153,1,2,0:0:0:0:
249,261,39251,1,0,0:0:0:0:
270,239,39349,1,0,0:0:0:0:
296,223,39447,1,2,0:0:0:0:
432,340,39643,1,8,0:0:0:0:
380,144,39839,1,2,0:0:0:0:
472,56,40035,5,8,0:0:0:0:
494,294,40231,1,8,0:0:0:0:
300,40,40427,1,8,0:0:0:0:
368,284,40623,1,8,0:0:0:0:
256,344,40820,5,2,0:0:0:0:
228,340,40918,1,0,0:0:0:0:
200,336,41016,1,10,0:0:0:0:
172,332,41114,1,0,0:0:0:0:
128,344,41212,1,8,0:0:0:0:
100,332,41310,1,0,0:0:0:0:
76,312,41408,1,8,0:0:0:0:
64,284,41506,1,8,0:0:0:0:
64,256,41604,6,0,B|56:208|96:176|96:176|104:196|92:216|92:216|124:204,1,160,4|8,0:0|0:0,0:0:0:0:
28,128,42192,2,0,P|72:96|164:132,1,160,2|0,0:0|0:0,0:0:0:0:
368,176,42780,1,8,0:0:0:0:
368,176,42976,6,0,P|324:208|232:172,1,160,6|0,0:0|0:0,0:0:0:0:
302,128,43565,1,8,0:0:0:0:
424,84,43761,1,2,0:0:0:0:
284,120,43957,1,0,0:0:0:0:
442,92,44153,1,0,0:0:0:0:
266,112,44349,1,8,0:0:0:0:
460,100,44545,1,0,0:0:0:0:
247,103,44741,6,0,P|173:79|96:104,1,160,4|8,0:0|0:0,0:0:0:0:
100,224,45329,2,0,P|174:248|251:223,1,160,2|0,0:0|0:0,0:0:0:0:
247,103,45918,1,8,0:0:0:0:
247,103,46114,6,0,P|173:79|96:104,1,160,6|0,0:0|0:0,0:0:0:0:
44,228,46702,1,8,0:0:0:0:
136,164,46898,1,0,0:0:0:0:
44,228,47094,2,0,P|88:268|156:272,1,120,2|0,0:0|0:0,0:0:0:0:
168,268,47486,2,0,L|248:268,1,80,8|8,0:0|0:0,0:0:0:0:
468,228,47878,6,0,P|416:272|328:252,1,160,4|8,0:0|0:0,0:0:0:0:
388,192,48467,2,0,L|424:364,1,160,2|0,0:0|0:0,0:0:0:0:
420,348,49055,1,8,0:0:0:0:
319,279,49251,6,0,P|247:248|172:272,1,160,6|0,0:0|0:0,0:0:0:0:
96,348,49839,1,8,0:0:0:0:
132,208,50035,1,2,0:0:0:0:
112,344,50231,1,0,0:0:0:0:
112,180,50427,1,0,0:0:0:0:
128,340,50623,1,8,0:0:0:0:
92,152,50820,1,0,0:0:0:0:
144,336,51016,6,0,L|352:368,1,200,4|8,0:0|0:0,0:0:0:0:
448,312,51604,1,0,0:0:0:0:
448,312,51800,2,0,P|500:232|448:152,1,200,2|8,0:0|0:0,0:0:0:0:
340,192,52388,1,0,0:0:0:0:
424,56,52584,1,0,0:0:0:0:
256,164,52780,5,2,0:0:0:0:
83,108,52976,1,8,0:0:0:0:
256,52,53173,1,0,0:0:0:0:
149,198,53369,1,2,0:0:0:0:
149,17,53565,1,0,0:0:0:0:
256,164,53761,2,0,L|256:264,1,100,8|2,0:0|0:0,0:0:0:0:
256,192,54153,12,0,55330,0:0:0:0:
129,283,55721,5,4,0:0:0:0:
412,192,55918,1,4,0:0:0:0:
129,100,56114,1,4,0:0:0:0:
304,340,56310,1,4,0:0:0:0:
304,43,56506,1,12,0:0:0:0:
296,60,56604,1,8,0:0:0:0:
288,80,56702,1,8,0:0:0:0:
280,100,56800,1,8,0:0:0:0:
268,128,56898,5,8,0:0:0:0:
280,156,56996,1,8,0:0:0:0:
284,184,57094,1,8,0:0:0:0:
280,212,57192,1,8,0:0:0:0:
268,240,57290,5,12,0:0:0:0:
96,284,57486,1,2,0:0:0:0:
180,180,57682,1,8,0:0:0:0:
244,260,57878,1,2,0:0:0:0:
272,256,57976,1,0,0:0:0:0:
300,252,58074,1,0,0:0:0:0:
328,248,58172,1,0,0:0:0:0:
356,244,58270,1,2,0:0:0:0:
492,124,58467,6,0,P|468:68|420:52,1,100,8|2,0:0|0:0,0:0:0:0:
404,56,58761,1,0,0:0:0:0:
376,60,58859,1,0,0:0:0:0:
460,224,59055,1,2,0:0:0:0:
300,252,59251,1,8,0:0:0:0:
484,292,59447,1,2,0:0:0:0:
276,344,59643,6,0,L|224:332,3,50,2|0|2|0,0:0|0:0|0:0|0:0,0:0:0:0:
198,341,60035,1,10,0:0:0:0:
168,336,60133,1,0,0:0:0:0:
143,319,60231,1,10,0:0:0:0:
128,292,60329,1,0,0:0:0:0:
125,262,60427,6,0,L|224:248,1,100,4|2,0:0|0:0,0:0:0:0:
220,220,60721,1,0,0:0:0:0:
220,220,60819,2,0,P|207:172|166:145,1,100,8|2,0:0|0:0,0:0:0:0:
264,32,61212,2,0,L|360:60,1,100,0|2,0:0|0:0,0:0:0:0:
364,64,61506,1,0,0:0:0:0:
368,68,61604,1,8,0:0:0:0:
476,192,61800,5,2,0:0:0:0:
315,155,61996,1,0,0:0:0:0:
466,90,62192,1,2,0:0:0:0:
381,231,62388,1,8,0:0:0:0:
368,68,62584,1,2,0:0:0:0:
476,192,62780,5,10,0:0:0:0:
456,208,62878,1,0,0:0:0:0:
432,216,62977,1,10,0:0:0:0:
408,208,63075,1,0,0:0:0:0:
388,192,63173,1,10,0:0:0:0:
368,176,63271,1,8,0:0:0:0:
344,168,63369,1,10,0:0:0:0:
320,176,63468,1,8,0:0:0:0:
300,192,63565,6,0,L|200:192,1,100,4|2,0:0|0:0,0:0:0:0:
200,192,63859,1,0,0:0:0:0:
200,192,63957,1,8,0:0:0:0:
64,44,64153,1,2,0:0:0:0:
92,44,64251,1,0,0:0:0:0:
120,56,64349,1,0,0:0:0:0:
148,68,64447,1,0,0:0:0:0:
176,68,64545,1,2,0:0:0:0:
296,44,64741,2,0,P|340:64|384:44,1,100,8|2,0:0|0:0,0:0:0:0:
368,20,65035,5,0,0:0:0:0:
368,20,65133,2,0,L|380:140,1,100,0|2,0:0|0:0,0:0:0:0:
480,132,65525,1,8,0:0:0:0:
484,160,65623,1,0,0:0:0:0:
464,184,65721,1,2,0:0:0:0:
444,208,65819,1,0,0:0:0:0:
448,236,65918,1,2,0:0:0:0:
236,296,66114,1,8,0:0:0:0:
480,348,66310,1,8,0:0:0:0:
312,244,66506,1,2,0:0:0:0:
312,244,66604,1,0,0:0:0:0:
312,244,66702,6,0,P|273:212|224:204,1,100,4|2,0:0|0:0,0:0:0:0:
196,212,66996,1,0,0:0:0:0:
196,212,67094,2,0,L|216:108,1,100,8|2,0:0|0:0,0:0:0:0:
312,44,67486,1,0,0:0:0:0:
468,72,67682,1,2,0:0:0:0:
440,228,67878,1,8,0:0:0:0:
284,200,68074,1,2,0:0:0:0:
376,136,68270,6,0,L|356:240,1,100,4|2,0:0|0:0,0:0:0:0:
380,256,68565,1,0,0:0:0:0:
380,256,68663,2,8,P|336:308|280:316,1,100,8|2,0:0|0:0,0:0:0:0:
148,296,69055,1,2,0:0:0:0:
212,80,69251,1,8,0:0:0:0:
288,220,69447,1,8,0:0:0:0:
72,156,69643,1,2,0:0:0:0:
180,188,69839,5,4,0:0:0:0:
104,48,70035,1,2,0:0:0:0:
104,48,70133,1,0,0:0:0:0:
104,48,70231,1,8,0:0:0:0:
256,144,70427,1,2,0:0:0:0:
256,36,70623,1,0,0:0:0:0:
256,192,70819,1,2,0:0:0:0:
256,192,70918,1,0,0:0:0:0:
256,192,71016,1,8,0:0:0:0:
396,192,71212,1,8,0:0:0:0:
116,192,71408,5,4,0:0:0:0:
256,36,71702,1,4,0:0:0:0:
256,348,71996,1,4,0:0:0:0:
168,100,72192,5,8,0:0:0:0:
180,128,72290,1,8,0:0:0:0:
200,148,72388,1,8,0:0:0:0:
228,160,72486,1,8,0:0:0:0:
256,164,72584,1,8,0:0:0:0:
284,160,72682,1,8,0:0:0:0:
312,148,72780,1,8,0:0:0:0:
332,128,72878,1,8,0:0:0:0:
344,100,72976,5,12,0:0:0:0:
256,36,73172,1,2,0:0:0:0:
256,164,73368,1,8,0:0:0:0:
168,100,73564,1,2,0:0:0:0:
136,100,73663,1,2,0:0:0:0:
108,100,73760,1,0,0:0:0:0:
80,100,73858,1,0,0:0:0:0:
52,100,73956,1,2,0:0:0:0:
136,260,74153,6,0,L|236:260,1,100,8|2,0:0|0:0,0:0:0:0:
264,260,74447,1,0,0:0:0:0:
292,260,74545,1,0,0:0:0:0:
168,100,74741,1,2,0:0:0:0:
136,260,74937,1,8,0:0:0:0:
344,100,75133,1,2,0:0:0:0:
372,260,75329,6,0,L|320:260,3,50,2|0|2|0,0:0|0:0|0:0|0:0,0:0:0:0:
329,289,75721,1,10,0:0:0:0:
341,316,75819,1,0,0:0:0:0:
365,333,75918,1,10,0:0:0:0:
394,336,76016,1,0,0:0:0:0:
417,328,76114,6,0,P|452:272|446:224,1,100,4|2,0:0|0:0,0:0:0:0:
468,216,76408,1,0,0:0:0:0:
468,216,76506,2,0,L|456:116,1,100,8|2,0:0|0:0,0:0:0:0:
394,336,76898,2,0,L|382:236,1,100,0|2,0:0|0:0,0:0:0:0:
382,236,77192,1,0,0:0:0:0:
382,236,77290,1,8,0:0:0:0:
452,80,77486,5,2,0:0:0:0:
382,236,77682,1,0,0:0:0:0:
208,320,77878,1,2,0:0:0:0:
276,116,78074,1,8,0:0:0:0:
116,140,78270,1,2,0:0:0:0:
132,256,78466,5,10,0:0:0:0:
160,252,78564,1,0,0:0:0:0:
188,248,78662,1,10,0:0:0:0:
216,244,78760,1,0,0:0:0:0:
256,260,78858,1,10,0:0:0:0:
284,272,78956,1,8,0:0:0:0:
316,276,79055,1,10,0:0:0:0:
344,268,79153,1,8,0:0:0:0:
372,256,79251,6,0,P|400:224|392:152,1,100,4|2,0:0|0:0,0:0:0:0:
401,168,79545,1,0,0:0:0:0:
401,168,79643,1,8,0:0:0:0:
308,52,79839,1,2,0:0:0:0:
284,36,79937,1,0,0:0:0:0:
256,32,80035,1,0,0:0:0:0:
228,36,80133,1,0,0:0:0:0:
204,52,80231,2,0,P|172:104|182:158,1,100,2|8,0:0|0:0,0:0:0:0:
316,60,80623,5,2,0:0:0:0:
316,60,80721,1,0,0:0:0:0:
316,60,80819,1,0,0:0:0:0:
256,192,81015,1,2,0:0:0:0:
308,332,81212,1,8,0:0:0:0:
284,348,81310,1,0,0:0:0:0:
256,352,81408,1,2,0:0:0:0:
228,348,81506,1,0,0:0:0:0:
204,332,81604,1,2,0:0:0:0:
256,192,81800,5,8,0:0:0:0:
68,268,81996,1,8,0:0:0:0:
128,96,82192,1,0,0:0:0:0:
256,192,82388,5,4,0:0:0:0:
336,104,82584,1,2,0:0:0:0:
336,104,82682,1,0,0:0:0:0:
336,104,82780,1,8,0:0:0:0:
204,60,82976,1,2,0:0:0:0:
348,196,83172,5,0,0:0:0:0:
292,336,83368,1,2,0:0:0:0:
376,188,83564,1,8,0:0:0:0:
320,328,83760,1,2,0:0:0:0:
256,192,83957,5,4,0:0:0:0:
168,112,84153,1,2,0:0:0:0:
168,112,84251,1,0,0:0:0:0:
168,112,84349,1,8,0:0:0:0:
124,244,84545,1,2,0:0:0:0:
260,100,84741,5,0,0:0:0:0:
400,156,84937,1,2,0:0:0:0:
252,72,85133,1,8,0:0:0:0:
392,128,85329,1,2,0:0:0:0:
92,136,85525,6,0,L|190:153,1,100,4|0,0:0|0:0,0:0:0:0:
387,77,86113,2,0,L|323:153,1,100,4|0,0:0|0:0,0:0:0:0:
291,362,86701,2,0,L|256:268,1,100,4|0,0:0|0:0,0:0:0:0:
165,236,87094,5,6,0:0:0:0:
395,317,87290,1,0,0:0:0:0:
352,75,87486,1,2,0:0:0:0:
304,209,87682,1,0,0:0:0:0:
443,183,87878,5,0,0:0:0:0:
213,101,88074,1,0,0:0:0:0:
256,344,88270,1,2,0:0:0:0:
304,209,88467,1,0,0:0:0:0:
