osu file format v13

[General]
AudioFilename: Sakura Trick so moe.mp3
AudioLeadIn: 1500
PreviewTime: 56090
Countdown: 0
SampleSet: Soft
StackLeniency: 0.3
Mode: 0
LetterboxInBreaks: 0
WidescreenStoryboard: 0

[Editor]
DistanceSpacing: 1
BeatDivisor: 4
GridSize: 4
TimelineZoom: 1.3

[Metadata]
Title:Sakura Sweet Kiss
TitleUnicode:桜Sweet Kiss
Artist:SAKURA*TRICK
ArtistUnicode:SAKURA*TRICK
Creator:Momochikun
Version:Easy
Source:桜Trick
Tags:Sakura Trick yuri ending xmas winter 高山 春香 Takayama Haruka 園田 優 Sonoda Yuu 野田 コトネ Noda Kotone 南 しずく Minami Shizuku 池野 楓 Ikeno Kaede 飯塚 ゆず Iizuka Yuzu 戸松 遥 Tomatsu Haruka 井口 裕香 Iguchi Yuka 相坂 優歌 Aisaka Yuuka 五十嵐 裕美 Igarashi Hiromi 渕上 舞 Fuchigami Mai 戸田 めぐみ Toda Megumi
BeatmapID:547750
BeatmapSetID:236505

[Difficulty]
HPDrainRate:2
CircleSize:3
OverallDifficulty:2
ApproachRate:3
SliderMultiplier:0.95
SliderTickRate:1

[Events]
//Background and Video events
0,0,"BG sekai.jpg",0,0
Video,0,"Sweet Kiss.avi"
//Break Periods
//Storyboard Layer 0 (Background)
//Storyboard Layer 1 (Fail)
//Storyboard Layer 2 (Pass)
//Storyboard Layer 3 (Foreground)
//Storyboard Sound Samples
//Background Colour Transformations
3,100,163,162,255

[TimingPoints]
14,461.538461538462,4,2,4,55,1,0
706,-100,4,2,4,55,0,0
821,-100,4,2,4,30,0,0
1860,-100,4,2,4,65,0,0
1975,-100,4,2,3,65,0,0
5552,-100,4,2,4,65,0,0
5783,-100,4,2,4,65,0,0
7398,-100,4,2,4,65,0,0
7514,-100,4,2,3,65,0,0
9244,-100,4,2,4,65,0,0
9360,-100,4,2,3,65,0,0
11437,-100,4,2,3,45,0,0
11552,-100,4,2,3,65,0,0
11783,-100,4,2,3,40,0,0
12014,-100,4,2,3,55,0,0
12475,-100,4,2,3,5,0,0
12706,-100,4,2,3,75,0,0
13167,-100,4,2,3,80,0,0
14552,-100,4,2,3,85,0,0
16398,-100,4,2,3,45,0,0
16629,-100,4,2,3,85,0,1
16744,-100,4,2,3,80,0,0
17437,-100,4,2,3,70,0,0
17783,-100,4,1,3,85,0,0
18590,-100,4,2,3,80,0,0
18706,-100,4,1,3,85,0,0
18937,-100,4,2,3,80,0,0
19398,-100,4,1,3,85,0,0
19860,-100,4,2,3,80,0,0
20090,-100,4,1,3,85,0,0
20552,-100,4,2,3,80,0,0
21129,-100,4,2,3,70,0,0
21475,-100,4,1,3,85,0,0
21937,-100,4,1,3,85,0,0
22629,-100,4,2,3,80,0,0
24014,-100,4,2,3,70,0,0
24937,-100,4,1,3,80,0,0
25398,-100,4,2,3,70,0,0
25860,-100,4,2,4,65,0,0
26321,-100,4,2,3,70,0,0
26783,-100,4,1,3,80,0,0
27244,-100,4,2,3,70,0,0
27706,-100,4,2,4,65,0,0
27937,-100,4,2,3,70,0,0
28629,-100,4,1,3,80,0,0
29090,-100,4,2,3,70,0,0
32321,-100,4,1,3,80,0,0
32667,-100,4,2,3,70,0,0
33014,-100,4,1,3,80,0,0
33244,-100,4,2,4,65,0,0
33706,-100,4,2,3,70,0,0
34167,-100,4,1,3,80,0,0
34629,-100,4,2,3,70,0,0
34860,-100,4,1,3,80,0,0
35090,-100,4,2,4,65,0,0
35321,-100,4,2,3,70,0,0
36014,-100,4,1,3,80,0,0
36475,-100,4,2,3,70,0,0
36706,-100,4,1,3,80,0,0
37167,-100,4,2,3,55,0,0
38090,-100,4,3,3,30,0,0
38321,-100,4,3,3,20,0,0
38783,-100,4,2,3,75,0,0
40398,-100,4,1,3,70,0,0
40860,-100,4,2,3,75,0,0
41321,-100,4,1,3,70,0,0
41552,-100,4,2,3,55,0,0
41667,-100,4,2,3,75,0,0
43167,-100,4,1,3,80,0,0
43398,-100,4,2,3,75,0,0
44090,-100,4,1,3,80,0,0
44321,-100,4,2,3,75,0,0
45244,-100,4,2,3,55,0,0
45475,-100,4,2,3,50,0,0
46167,-100,4,2,3,85,0,0
47552,-100,4,2,4,60,0,0
47898,-100,4,2,3,85,0,0
48014,-100,4,2,4,45,0,0
48360,-100,4,2,3,75,0,0
48475,-100,4,2,3,85,0,0
48937,-100,4,2,4,45,0,0
49283,-100,4,2,3,75,0,0
49398,-100,4,2,3,85,0,0
50552,-100,4,2,4,45,0,0
50783,-100,4,2,3,85,0,0
51706,-100,4,2,3,90,0,0
52167,-100,4,2,3,85,0,0
53090,-100,4,2,4,45,0,0
53552,-100,4,2,3,90,0,0
53783,-100,4,2,3,80,0,0
54475,-100,4,2,3,75,0,0
54937,-100,4,2,3,85,0,0
56090,-100,4,2,4,75,0,0
56783,-100,4,2,4,70,0,0
57244,-100,4,2,3,95,0,1
57475,-100,4,2,3,90,0,1
58167,-100,4,1,3,95,0,1
58629,-100,4,2,3,90,0,1
60014,-100,4,1,3,95,0,1
60475,-100,4,2,3,90,0,1
60706,-100,4,1,3,95,0,1
61398,-100,4,2,3,90,0,1
62321,-100,4,1,3,95,0,1
63244,-100,4,2,3,90,0,1
63475,-100,4,1,3,95,0,1
64744,-100,4,2,3,90,0,1
65552,-100,4,1,3,95,0,1
66014,-100,4,2,3,90,0,1
66244,-100,4,1,3,95,0,1
66937,-100,4,2,3,90,0,1
67283,-100,4,2,3,80,0,1
67629,-100,4,1,3,95,0,1
68783,-100,4,2,3,90,0,1
69014,-100,4,1,3,95,0,1
69706,-100,4,2,3,90,0,1
70167,-100,4,2,3,80,0,1
70398,-100,4,2,3,90,0,1
71321,-100,4,2,3,90,0,0
71552,-100,4,2,4,95,0,0
71898,-100,4,2,3,5,0,0
72014,-100,4,2,3,90,0,1
72937,-100,4,1,3,95,0,1
73398,-100,4,2,3,90,0,1
73629,-100,4,1,3,95,0,1
74321,-100,4,2,3,90,0,1
74783,-100,4,1,3,95,0,1
75244,-100,4,2,3,90,0,1
75475,-100,4,1,3,95,0,1
76167,-100,4,2,3,90,0,1
77783,-100,4,2,3,80,0,1
78014,-100,4,2,3,90,0,1
78244,-100,4,2,3,75,0,1
78475,-100,4,2,3,90,0,1
79283,-100,4,2,3,90,0,0
79398,-100,4,2,3,90,0,1
79514,-100,4,2,3,80,0,0
79744,-100,4,2,3,45,0,0
79860,-100,4,2,3,80,0,0
80321,-100,4,1,3,85,0,0
80783,-100,4,2,3,80,0,0
81014,-100,4,1,3,85,0,0
81706,-100,4,2,3,80,0,0
82167,-100,4,1,3,85,0,0
82629,-100,4,2,3,80,0,0
82860,-100,4,1,3,85,0,0
83090,-100,4,2,3,80,0,0
83898,-100,4,2,3,35,0,0
84244,-100,4,2,3,85,0,0
84706,-100,4,2,3,85,0,1
84821,-100,4,2,3,85,0,0
85398,-100,4,2,3,50,0,0
85860,-100,4,2,3,45,0,0
86321,-100,4,2,3,40,0,0
86783,-100,4,2,3,30,0,0
87244,-100,4,2,3,20,0,0
87706,-100,4,2,3,15,0,0

[Colours]
Combo1 : 255,128,128
Combo2 : 255,128,255
Combo3 : 255,145,91
Combo4 : 128,255,255

[HitObjects]
417,297,706,6,0,B|330:307|352:265|251:286,1,142.5,2|2,0:0|0:0,0:0:0:0:
182,294,1860,2,0,P|111:290|81:263,1,95,4|2,0:0|0:0,0:0:0:0:
153,203,2783,2,0,B|136:111|136:111|95:77,2,142.5,2|2|2,0:0|0:0|0:0,0:0:0:0:
245,224,4629,2,0,L|231:130,1,95,2|2,0:0|0:0,0:0:0:0:
296,61,5552,6,0,P|345:45|405:53,1,95,4|2,0:0|0:0,0:0:0:0:
446,122,6475,2,0,P|397:138|337:130,1,95,4|4,0:0|0:0,0:0:0:0:
266,171,7398,2,0,P|246:237|241:311,2,142.5,4|2|0,0:0|0:0|0:0,0:0:0:0:
237,81,9244,6,0,L|139:95,1,95,4|2,0:0|0:0,0:0:0:0:
163,187,10167,2,0,L|65:201,2,95,2|2|2,0:0|0:0|0:0,0:0:0:0:
252,218,11552,1,2,0:0:0:0:
325,158,12014,6,0,B|364:127|364:127|338:89|345:32,1,142.5,8|4,0:3|0:0,0:0:0:0:
436,59,13167,1,8,0:0:0:0:
474,145,13629,2,0,B|433:269|433:269|379:310,1,190,4|4,0:0|0:0,0:0:0:0:
293,327,15014,2,0,L|236:341,1,47.5,8|8,0:0|0:0,0:0:0:0:
213,249,15706,2,0,L|166:260,2,47.5,4|4|2,0:0|0:0|0:0,0:0:0:0:
279,181,16629,6,0,P|268:133|237:98,1,95,4|10,1:2|0:0,0:0:0:0:
172,30,17552,2,0,L|326:55,2,142.5,2|4|8,1:2|0:2|0:0,0:0:0:0:
93,84,19398,1,2,1:2:0:0:
15,139,19860,1,10,0:0:0:0:
80,207,20321,6,0,P|100:274|107:302,1,95,6|10,0:2|0:0,0:0:0:0:
185,350,21244,2,0,B|263:364|258:320|356:345,2,142.5,2|4|8,1:2|0:2|0:0,0:0:0:0:
92,371,23090,2,0,L|26:357,1,47.5,4|4,0:0|0:0,0:0:0:0:
86,224,24014,6,0,P|96:176|100:122,1,95,4|2,1:2|0:0,0:0:0:0:
178,77,24937,2,0,P|225:81|271:90,1,95,0|2,0:0|0:0,0:0:0:0:
342,152,25860,2,0,P|389:162|436:166,1,95,4|2,0:0|0:0,0:0:0:0:
485,248,26783,2,0,L|475:305,2,47.5,0|0|2,0:0|0:0|0:0,0:0:0:0:
437,166,27706,6,0,L|420:61,1,95,4|2,0:0|0:0,0:0:0:0:
328,47,28629,1,0,0:0:0:0:
235,26,29090,2,0,L|175:42,1,47.5,8|4,0:0|0:0,0:0:0:0:
126,109,29783,2,0,P|64:100|10:84,1,95,4|4,0:0|0:0,0:0:0:0:
201,256,31398,6,0,P|263:265|317:281,1,95,4|2,1:0|0:0,0:0:0:0:
386,295,32321,2,0,L|375:194,1,95,0|2,0:0|0:0,0:0:0:0:
467,227,33244,2,0,L|456:132,1,95,4|2,0:0|0:0,0:0:0:0:
365,107,34167,1,0,0:0:0:0:
273,81,34629,1,2,0:0:0:0:
181,55,35090,6,0,L|82:70,2,95,4|2|0,0:0|0:0|1:0,0:0:0:0:
273,81,36475,1,2,0:0:0:0:
224,163,36937,2,0,L|217:236,1,47.5,2|4,1:2|0:0,0:0:0:0:
276,286,37629,2,0,P|323:310|381:304,1,95,4|0,0:0|0:0,0:0:0:0:
452,200,38783,6,0,B|426:163|435:105|435:105|386:112|346:71,1,190,4|8,0:2|0:0,0:0:0:0:
161,79,40629,2,0,B|126:114|77:107|77:107|86:165|60:202,1,190,0|2,0:0|0:3,0:0:0:0:
91,294,42014,1,0,1:0:0:0:
171,344,42475,6,0,L|275:331,1,95,4|0,0:0|0:0,0:0:0:0:
239,240,43398,2,0,L|343:227,1,95,4|0,0:0|0:0,0:0:0:0:
407,168,44321,1,4,0:0:0:0:
337,103,44783,2,0,L|242:114,1,95,0|2,1:2|0:3,0:0:0:0:
161,164,45706,1,8,0:3:0:0:
76,120,46167,6,0,P|55:73|55:31,2,95,4|8|0,0:0|0:0|1:0,0:0:0:0:
161,164,47552,2,0,L|152:266,1,95,4|4,1:2|1:2,0:0:0:0:
223,322,48475,1,8,0:0:0:0:
308,280,48937,2,0,P|363:263|402:267,1,95,4|0,1:2|1:0,0:0:0:0:
475,209,49860,6,0,P|477:161|461:117,1,95,4|8,0:0|0:0,0:0:0:0:
378,70,50783,1,0,1:0:0:0:
284,56,51244,1,8,0:0:0:0:
198,96,51706,2,0,P|133:92|92:64,2,95,4|2|2,0:0|1:2|1:2,0:0:0:0:
284,56,53090,1,4,1:2:0:0:
298,149,53552,6,0,L|306:250,1,95,4|2,0:0|1:2,0:0:0:0:
225,294,54475,2,0,L|217:199,1,95,10|2,1:2|1:2,0:0:0:0:
129,162,55398,2,0,L|111:105,1,47.5,4|4,0:0|0:0,0:0:0:0:
187,55,56090,6,0,P|262:39|328:34,1,142.5,4|2,0:0|0:0,0:0:0:0:
377,126,57244,2,0,P|422:140|469:141,1,95,4|8,1:2|0:0,0:0:0:0:
477,235,58167,2,0,P|427:251|326:253,2,142.5,0|4|8,1:0|0:0|0:0,0:0:0:0:
469,141,60014,2,0,B|452:52|452:52|411:21,2,142.5,2|4|10,1:2|0:2|0:0,0:0:0:0:
468,221,61860,5,2,1:2:0:0:
374,205,62321,1,10,2:2:0:0:
281,184,62783,2,0,B|220:195|182:166|182:166|118:189,1,142.5,4|4,0:2|0:2,0:0:0:0:
79,244,63937,1,2,1:2:0:0:
20,169,64398,6,0,B|4:98|4:98|31:57|78:63,1,142.5,4|10,0:2|0:2,0:0:0:0:
154,79,65552,2,0,P|207:77|294:49,2,142.5,2|4|10,1:2|1:2|0:0,0:0:0:0:
118,167,67398,2,0,P|156:203|238:244,1,142.5,0|4,1:0|0:2,0:0:0:0:
328,224,68552,6,0,L|382:216,2,47.5,0|10|4,1:0|0:0|2:0,0:0:0:0:
382,301,69475,2,0,L|436:293,2,47.5,0|10|4,1:0|0:0|0:0,0:0:0:0:
249,354,70629,2,0,P|201:361|155:337,1,95,10|4,0:0|0:0,0:0:0:0:
103,266,71552,2,0,L|80:167,1,95,2|4,0:0|1:2,0:0:0:0:
153,109,72475,5,8,0:0:0:0:
247,100,72937,2,0,L|220:252,2,142.5,2|4|8,1:2|0:2|0:0,0:0:0:0:
323,43,74783,2,0,P|377:23|429:31,1,95,2|10,1:2|0:0,0:0:0:0:
437,117,75706,6,0,P|393:135|346:134,1,95,4|8,0:2|0:0,0:0:0:0:
253,112,76629,2,0,B|199:98|151:119|151:119|112:103,2,142.5,4|4|8,0:2|0:0|0:0,0:0:0:0:
295,196,78475,1,0,1:2:0:0:
331,283,78937,1,4,0:1:0:0:
242,317,79398,6,0,L|146:337,1,95,4|8,1:2|0:0,0:0:0:0:
58,307,80321,2,0,P|28:253|40:171,2,142.5,2|4|10,1:2|0:2|0:0,0:0:0:0:
114,230,82167,2,0,L|207:210,1,95,2|10,1:2|0:0,0:0:0:0:
235,119,83090,6,0,L|293:106,2,47.5,4|4|8,0:0|0:0|0:0,0:0:0:0:
163,56,84014,2,0,L|116:65,1,47.5,0|4,1:0|0:0,0:0:0:0:
256,192,84706,12,0,87706,0:0:0:0:
