osu file format v12

[General]
AudioFilename: MTC - S3RL.mp3
AudioLeadIn: 0
PreviewTime: -1
Countdown: 0
SampleSet: None
StackLeniency: 0.7
Mode: 0
LetterboxInBreaks: 1
WidescreenStoryboard: 0

[Editor]
DistanceSpacing: 0.8
BeatDivisor: 4
GridSize: 8

[Metadata]
Title:MTC
TitleUnicode:MTC
Artist:S3rl
ArtistUnicode:S3rl
Creator:Jonese1234
Version:Normal
Source:
Tags:
BeatmapID:340242
BeatmapSetID:135865

[Difficulty]
HPDrainRate:5
CircleSize:5
OverallDifficulty:5
ApproachRate:5
SliderMultiplier:1.3
SliderTickRate:2

[Events]
//Background and Video events
0,0,"maxresdefault.jpg",0,0
//Break Periods
2,47825,58518
2,92731,100518
2,114856,118800
//Storyboard Layer 0 (Background)
//Storyboard Layer 1 (Fail)
//Storyboard Layer 2 (Pass)
//Storyboard Layer 3 (Foreground)
//Storyboard Sound Samples
//Background Colour Transformations
3,100,163,162,255

[TimingPoints]
0,375,4,1,0,100,1,0
21281,-200,4,1,0,100,0,0
24468,-100,4,1,0,100,0,0

[HitObjects]
96,144,4593,1,0,0:0:0:0:
168,144,4875,6,0,L|360:144,1,162.5
416,144,5718,5,0,0:0:0:0:
416,144,7031,1,0,0:0:0:0:
348,144,7312,6,0,L|168:144,1,162.5
104,144,8156,5,0,0:0:0:0:
96,224,9093,1,0,0:0:0:0:
168,256,9468,1,0,0:0:0:0:
256,264,9843,1,0,0:0:0:0:
344,256,10218,1,0,0:0:0:0:
416,224,10593,1,0,0:0:0:0:
384,176,11062,6,0,L|136:176|128:176,1,227.5
112,104,12187,2,0,L|176:56,1,65
240,64,12750,2,0,L|352:64,1,97.5
408,92,13406,2,0,L|456:128,1,32.5
456,200,13968,6,0,P|256:344|96:192,1,487.5
104,128,16312,5,0,0:0:0:0:
176,128,16687,1,0,0:0:0:0:
248,128,17062,2,0,L|344:128,1,65
328,264,18000,5,0,0:0:0:0:
256,264,18375,1,0,0:0:0:0:
184,264,18750,2,0,L|88:264,1,65
104,128,19781,5,0,0:0:0:0:
176,128,20156,1,0,0:0:0:0:
248,128,20531,2,0,L|344:128,1,65
0,192,21281,6,0,L|520:192,1,552.5
256,192,24843,12,0,26156,0:0:0:0:
56,80,26625,6,0,L|184:80,3,97.5
224,80,27843,1,0,0:0:0:0:
224,80,28031,1,0,0:0:0:0:
304,80,28406,6,0,L|432:80,3,97.5
472,80,29624,1,0,0:0:0:0:
472,80,29812,1,0,0:0:0:0:
472,192,30375,6,0,L|344:192,3,97.5
304,192,31593,1,0,0:0:0:0:
304,192,31781,1,0,0:0:0:0:
224,192,32156,6,0,L|96:192,3,97.5
56,192,33374,1,0,0:0:0:0:
56,192,33562,1,0,0:0:0:0:
48,312,34031,6,0,L|176:312,3,97.5
216,312,35249,1,0,0:0:0:0:
216,312,35437,1,0,0:0:0:0:
296,312,35812,6,0,L|424:312,3,97.5
464,312,37030,1,0,0:0:0:0:
464,312,37218,1,0,0:0:0:0:
256,192,37875,12,0,40125,0:0:0:0:
256,192,40687,12,0,43125,0:0:0:0:
80,64,43593,5,0,0:0:0:0:
72,296,45000,1,0,0:0:0:0:
440,304,46312,1,0,0:0:0:0:
440,64,47625,1,0,0:0:0:0:
256,192,59718,5,0,0:0:0:0:
144,264,60281,2,0,B|256:304|368:264|368:136|256:88|144:120,2,422.5
80,200,63093,6,0,L|80:96,1,97.5
168,96,63749,6,0,L|304:96,1,130
392,104,64499,6,0,L|392:216,1,97.5
296,264,65156,6,0,L|160:264,1,130
256,192,65906,12,0,69000,0:0:0:0:
80,192,70875,5,0,0:0:0:0:
128,192,71156,6,0,L|176:192,1,32.5
208,192,71531,1,0,0:0:0:0:
256,192,71812,5,0,0:0:0:0:
304,192,72093,6,0,L|352:192,1,32.5
384,192,72467,1,0,0:0:0:0:
384,120,72749,5,0,0:0:0:0:
336,120,73031,6,0,L|304:120,1,32.5
256,120,73406,1,0,0:0:0:0:
208,120,73687,5,0,0:0:0:0:
160,120,73968,6,0,L|128:120,1,32.5
80,120,74343,1,0,0:0:0:0:
56,200,75000,5,0,0:0:0:0:
120,200,75375,1,0,0:0:0:0:
184,200,75750,1,0,0:0:0:0:
248,200,76125,1,0,0:0:0:0:
312,200,76500,1,0,0:0:0:0:
376,200,76875,1,0,0:0:0:0:
440,200,77250,1,0,0:0:0:0:
440,288,77812,6,0,L|288:288|280:288,3,130
264,288,79124,1,0,0:0:0:0:
264,288,79218,1,0,0:0:0:0:
440,216,79687,6,0,L|288:216|280:216,3,130
264,216,80999,1,0,0:0:0:0:
264,216,81093,1,0,0:0:0:0:
440,144,81562,6,0,L|288:144|280:144,3,130
264,144,82874,1,0,0:0:0:0:
264,144,82968,1,0,0:0:0:0:
440,64,83437,6,0,L|288:64|280:64,3,130
264,64,84749,1,0,0:0:0:0:
264,64,84843,1,0,0:0:0:0:
0,64,85500,6,0,L|152:64|160:64,3,130
176,64,86812,1,0,0:0:0:0:
176,64,86906,1,0,0:0:0:0:
0,136,87375,6,0,L|152:136|160:136,3,130
176,136,88687,1,0,0:0:0:0:
176,136,88781,1,0,0:0:0:0:
0,208,89250,6,0,L|152:208|160:208,3,130
176,208,90562,1,0,0:0:0:0:
176,208,90656,1,0,0:0:0:0:
0,288,91125,6,0,L|152:288|160:288,3,130
176,288,92437,1,0,0:0:0:0:
176,288,92531,1,0,0:0:0:0:
256,192,101718,12,0,105000,0:0:0:0:
56,304,105563,6,0,L|168:304,1,97.5
216,304,106125,2,0,B|328:304|360:240|352:160,1,227.5
272,104,107156,5,0,0:0:0:0:
208,104,107437,1,0,0:0:0:0:
144,104,107719,5,0,0:0:0:0:
80,104,108000,1,0,0:0:0:0:
0,164,108375,6,0,B|-8:240|24:304|136:304,1,227.5
198,304,109218,2,0,L|296:304,1,97.5
304,304,110531,6,0,L|304:216,2,65
368,304,111281,6,0,L|368:216,2,65
432,304,112031,6,0,L|432:216,2,65
432,176,112781,6,0,L|432:111,2,65
368,176,113531,6,0,L|368:111,2,65
304,176,114281,6,0,L|304:111,2,65
248,192,120000,5,0,0:0:0:0:
248,192,121500,1,0,0:0:0:0:
248,192,122625,1,0,0:0:0:0:
72,192,125625,5,0,0:0:0:0:
136,192,126000,1,0,0:0:0:0:
208,192,126375,6,0,L|304:192,1,65
280,120,126937,5,0,0:0:0:0:
344,120,127312,1,0,0:0:0:0:
416,120,127687,6,0,L|512:120,1,65
488,200,128250,5,0,0:0:0:0:
424,200,128625,1,0,0:0:0:0:
352,200,129000,6,0,L|287:200,1,65
216,200,129562,5,0,0:0:0:0:
152,200,129937,1,0,0:0:0:0:
80,200,130312,6,0,L|15:200,2,65
152,200,131062,5,0,0:0:0:0:
216,200,131437,1,0,0:0:0:0:
288,200,131812,6,0,L|344:128,2,65
368,200,132562,2,0,L|424:264,2,65
256,192,134156,12,0,138656,0:0:0:0:
112,192,139500,5,0,0:0:0:0:
176,192,139781,1,0,0:0:0:0:
240,192,140062,1,0,0:0:0:0:
304,192,140343,1,0,0:0:0:0:
256,192,141000,12,0,145500,0:0:0:0:
