osu file format v14

[General]
AudioFilename: S3RL-I Will Pick You Up (FEAT TAMIKA).mp3
AudioLeadIn: 0
PreviewTime: 64971
Countdown: 0
SampleSet: Soft
StackLeniency: 0.7
Mode: 0
LetterboxInBreaks: 0
EpilepsyWarning: 1
WidescreenStoryboard: 0

[Editor]
DistanceSpacing: 1.1
BeatDivisor: 4
GridSize: 4
TimelineZoom: 2.4

[Metadata]
Title:I Will Pick You Up
TitleUnicode:I Will Pick You Up
Artist:S3RL feat Tamika
ArtistUnicode:S3RL feat Tamika
Creator:Ashasaki
Version:Asagi's Insane
Source:
Tags:Emfa music Jole Hughes Tamika Miller Asagi Gero Trance Rave
BeatmapID:544993
BeatmapSetID:235093

[Difficulty]
HPDrainRate:7
CircleSize:4
OverallDifficulty:7
ApproachRate:9
SliderMultiplier:1.6
SliderTickRate:2

[Events]
//Background and Video events
0,0,"Inori.jpg",0,0
//Break Periods
2,111456,121627
//Storyboard Layer 0 (Background)
//Storyboard Layer 1 (Fail)
//Storyboard Layer 2 (Pass)
//Storyboard Layer 3 (Foreground)
Sprite,Foreground,Centre,"SB\Lyrics\mapped-Asagi.png",320,240 S,0,1542,,0.4467096 M,0,1542,1884,204,282,204,257 F,0,1542,1885,0,1 M,0,1884,4284,204,257,185,257 F,0,1885,4285,1 M,2,4284,5656,185,257,-104,257 F,0,4285,,1 F,0,4285,5656,1,0
//Storyboard Sound Samples

[TimingPoints]
1542,342.857142857143,4,2,1,30,1,0
1542,-200,4,2,0,30,0,0
12513,-125,4,2,1,30,0,0
12856,-125,4,2,0,30,0,0
14913,-200,4,2,0,20,0,0
15256,-125,4,2,0,30,0,0
17827,-200,4,2,0,20,0,0
18170,-125,4,2,0,30,0,0
20227,-200,4,2,0,20,0,0
20742,-200,4,2,1,20,0,0
22113,-200,4,2,0,20,0,0
23484,-125,4,2,0,50,0,0
28970,-100,4,2,0,50,0,0
29999,-125,4,2,0,50,0,0
31713,-100,4,2,0,50,0,0
32742,-125,4,2,0,50,0,0
39942,-100,4,2,0,50,0,0
40970,-125,4,2,0,50,0,0
42684,-100,4,2,0,50,0,0
43713,-125,4,2,1,30,0,0
45427,-90.9090909090909,4,2,1,60,0,0
56399,-100,4,2,1,50,0,0
61884,-100,4,1,1,40,0,0
62570,-100,4,1,1,45,0,0
63256,-100,4,1,1,50,0,0
63942,-100,4,1,1,55,0,0
64627,-100,4,2,1,50,0,0
65999,-100,4,2,1,30,0,0
66256,-100,4,2,1,5,0,0
66342,-83.3333333333333,4,2,1,40,0,0
66599,-83.3333333333333,4,2,1,5,0,0
66684,-71.4285714285714,4,2,1,50,0,0
66942,-71.4285714285714,4,2,1,5,0,0
67027,-55.5555555555556,4,2,10,60,0,0
67113,-55.5555555555556,4,2,1,60,0,0
67284,-55.5555555555556,4,2,1,5,0,0
67370,-83.3333333333333,4,2,1,70,0,1
67456,-83.3333333333333,4,2,2,70,0,0
86913,-90.9090909090909,4,2,1,50,0,0
87256,-100,4,2,1,50,0,0
87942,-100,4,2,1,50,0,0
88113,-100,4,2,1,5,0,0
88284,-111.111111111111,4,2,1,45,0,0
88456,-111.111111111111,4,2,1,5,0,0
88627,-125,4,2,1,40,0,0
88799,-125,4,2,1,5,0,0
88970,-142.857142857143,4,2,1,35,0,0
89142,-142.857142857143,4,2,1,5,0,0
89313,-83.3333333333333,4,2,10,80,0,1
89399,-83.3333333333333,4,2,2,70,0,1
98913,-83.3333333333333,4,2,2,60,0,0
99256,-90.9090909090909,4,2,2,60,0,0
99599,-100,4,2,2,60,0,0
99942,-111.111111111111,4,2,2,60,0,0
100284,-83.3333333333333,4,2,2,60,0,1
109884,-125,4,2,1,30,0,0
111256,-100,4,2,1,60,0,0
122227,-200,4,2,1,30,0,0
133199,-90.9090909090909,4,2,1,60,0,0
144170,-100,4,2,2,80,0,0
144513,-83.3333333333333,4,2,2,60,0,0
144856,-100,4,2,2,60,0,0
145199,-83.3333333333333,4,2,2,60,0,0
145542,-100,4,2,2,60,0,0
145884,-83.3333333333333,4,2,2,60,0,0
146227,-100,4,2,2,60,0,0
146570,-83.3333333333333,4,2,2,60,0,0
146913,-100,4,2,2,60,0,0
147256,-83.3333333333333,4,2,2,60,0,0
147599,-100,4,2,2,60,0,0
147942,-83.3333333333333,4,2,2,60,0,0
148284,-100,4,2,2,60,0,0
148627,-83.3333333333333,4,2,2,60,0,0
148970,-100,4,2,2,60,0,0
149313,-83.3333333333333,4,2,1,60,0,0
149656,-83.3333333333333,4,1,2,40,0,0
150342,-83.3333333333333,4,1,2,45,0,0
151027,-83.3333333333333,4,1,2,50,0,0
151713,-83.3333333333333,4,1,2,55,0,0
152399,-83.3333333333333,4,2,1,50,0,0
152742,-83.3333333333333,4,2,1,40,0,0
153427,-100,4,2,1,40,0,0
154799,-66.6666666666667,4,2,10,70,0,0
154884,-66.6666666666667,4,2,1,70,0,0
155056,-66.6666666666667,4,2,1,5,0,0
155142,-100,4,2,1,60,0,0
166113,-125,4,2,0,45,0,0
166456,-125,4,2,0,30,0,0
168513,-100,4,2,0,30,0,0
169027,-125,4,2,0,30,0,0
171256,-100,4,2,0,30,0,0
171942,-125,4,2,0,30,0,0
173999,-100,4,2,0,30,0,0
174342,-100,4,2,1,30,0,0
175713,-200,4,2,0,15,0,0
177084,-76.9230769230769,4,2,10,75,0,1
177170,-76.9230769230769,4,2,2,75,0,1
186684,-83.3333333333333,4,2,2,60,0,0
187027,-90.9090909090909,4,2,2,60,0,0
187370,-100,4,2,2,60,0,0
187713,-111.111111111111,4,2,2,60,0,0
188056,-76.9230769230769,4,2,2,75,0,1
197656,-125,4,2,1,40,0,0
199027,-83.3333333333333,4,2,2,70,0,0
218227,-90.9090909090909,4,2,1,60,0,0
218570,-100,4,2,1,60,0,0
218913,-111.111111111111,4,2,1,50,0,0
219256,-125,4,2,1,40,0,0
219599,-100,4,2,1,30,0,0

[Colours]
Combo1 : 51,255,51
Combo2 : 157,47,170
Combo3 : 170,164,159
Combo4 : 255,108,108
Combo5 : 72,225,218
Combo6 : 220,220,82
Combo7 : 41,115,169
Combo8 : 255,62,62

[HitObjects]
316,260,1542,54,0,P|479:145|376:323,1,560,4|0,0:1|0:0,0:0:0:0:
215,235,4284,86,0,P|304:65|494:46,1,400,2|0,0:2|0:0,0:0:0:0:
495,50,7027,54,0,B|496:96|432:112|432:112|368:80|304:112|304:112|256:96|256:96|208:112|208:112|144:80|80:112|80:112|16:96|16:50,1,560,2|0,0:0|0:0,0:0:0:0:
144,184,9770,54,0,P|128:360|24:200,1,480,2|0,0:0|0:0,0:0:0:0:
96,268,12513,53,2,0:0:0:0:
96,268,12856,54,0,P|84:236|88:192,1,64,2|0,0:0|0:0,0:0:0:0:
156,68,13199,2,0,L|163:131,1,64,2|0,0:0|0:0,0:0:0:0:
176,216,13542,1,0,0:0:0:0:
176,216,13713,1,0,0:0:0:0:
256,280,13884,54,0,L|320:276,1,64,2|0,0:0|0:0,0:0:0:0:
276,196,14227,2,0,L|352:192,1,64,2|0,0:0|0:0,0:0:0:0:
488,132,14570,2,0,L|424:136,1,64,2|0,0:0|0:0,0:0:0:0:
508,216,14913,54,0,L|428:220,1,80,2|0,0:0|0:0,0:0:0:0:
276,196,15427,53,0,0:0:0:0:
212,124,15599,2,0,P|200:88|200:52,1,64,2|0,0:0|0:0,0:0:0:0:
180,212,15942,2,0,P|120:216|40:176,1,128,2|0,0:0|0:0,0:0:0:0:
108,304,16456,1,0,0:0:0:0:
216,368,16627,54,0,P|218:335|204:296,1,64,2|0,0:0|0:0,0:0:0:0:
180,212,16970,1,0,0:0:0:0:
300,276,17142,2,0,L|368:272,1,64,2|0,0:0|0:0,0:0:0:0:
492,180,17484,2,0,L|428:185,1,64,2|0,0:0|0:0,0:0:0:0:
308,264,17827,54,0,L|387:257,1,80,2|0,0:0|0:0,0:0:0:0:
264,172,18342,53,0,0:0:0:0:
188,248,18513,1,0,0:0:0:0:
168,92,18684,2,0,L|172:160,1,64,2|0,0:0|0:0,0:0:0:0:
16,272,19027,53,0,0:0:0:0:
88,200,19199,1,0,0:0:0:0:
104,296,19370,2,0,L|108:360,2,64,2|0|0,0:0|0:0|0:0,0:0:0:0:
172,144,19884,2,0,L|176:216,1,64,2|0,0:0|0:0,0:0:0:0:
260,356,20227,54,0,L|252:264,1,80,2|0,0:0|0:0,0:0:0:0:
360,112,20742,53,2,0:0:0:0:
360,112,22113,54,0,P|399:116|438:106,2,80,2|2|2,0:0|0:0|0:0,0:0:0:0:
284,180,23142,2,0,L|296:220,1,40,2|0,0:0|0:0,0:0:0:0:
398,273,23484,6,0,P|306:262|236:324,1,192,4|0,0:1|0:0,0:0:0:0:
244,332,24084,1,0,0:0:0:0:
244,332,24170,2,0,P|307:326|363:370,1,128,2|0,0:0|0:0,0:0:0:0:
156,380,24856,102,0,P|146:346|152:308,1,64,2|0,0:0|0:0,0:0:0:0:
204,232,25199,2,0,L|280:236,1,64,0|0,0:0|0:0,0:0:0:0:
416,188,25542,2,0,L|352:184,1,64,2|0,0:0|0:0,0:0:0:0:
267,142,25884,2,0,P|256:112|256:80,1,64,0|0,0:0|0:0,0:0:0:0:
180,184,26227,38,0,P|84:244|0:220,1,192,2|0,0:0|0:0,0:0:0:0:
20,236,26828,1,0,0:0:0:0:
20,236,26913,2,0,P|52:288|40:364,1,128,2|0,0:0|0:0,0:0:0:0:
316,336,27599,86,0,P|340:348|384:352,1,64,2|0,0:0|0:0,0:0:0:0:
200,300,27942,2,0,P|166:300|136:292,1,64,0|0,0:0|0:0,0:0:0:0:
376,256,28284,2,0,P|408:246|436:224,1,64,2|0,0:0|0:0,0:0:0:0:
172,220,28627,2,0,P|144:200|120:160,1,64,0|0,0:0|0:0,0:0:0:0:
364,168,28970,54,0,P|392:96|376:16,1,160,2|0,0:0|0:0,0:0:0:0:
164,156,29999,38,0,L|172:224,1,64,2|0,0:0|0:0,0:0:0:0:
152,316,30342,1,2,0:0:0:0:
268,352,30513,2,0,L|256:256,1,96,0|0,0:0|0:0,0:0:0:0:
256,256,30856,2,0,P|284:244|328:248,1,64,2|0,0:0|0:0,0:0:0:0:
500,312,31199,2,0,P|432:324|368:300,1,128,0|0,0:0|0:0,0:0:0:0:
364,168,31713,70,0,P|392:96|376:16,1,160,2|0,0:0|0:0,0:0:0:0:
76,136,32742,86,0,L|144:140,1,64,2|0,0:0|0:0,0:0:0:0:
204,68,33084,2,0,P|176:56|140:52,1,64,2|0,0:0|0:0,0:0:0:0:
364,88,33427,2,0,P|392:74|436:68,1,64,2|0,0:0|0:0,0:0:0:0:
240,176,33770,2,0,P|208:192|168:200,1,64
348,200,34113,2,0,P|380:216|420:228,1,64,2|0,0:0|0:0,0:0:0:0:
356,344,34456,86,0,P|300:288|180:292,1,192,4|0,0:1|0:0,0:0:0:0:
200,292,35056,1,0,0:0:0:0:
200,292,35142,2,0,P|136:327|64:319,1,128,2|0,0:0|0:0,0:0:0:0:
196,192,35827,102,0,L|268:200,1,64,2|0,0:0|0:0,0:0:0:0:
112,240,36170,2,0,P|80:244|48:236,1,64,2|0,0:0|0:0,0:0:0:0:
200,292,36513,2,0,P|212:324|208:372,1,64
108,156,36856,2,0,L|121:93,1,64,2|0,0:0|0:0,0:0:0:0:
48,32,37199,38,0,B|124:84|124:84|240:68,1,192,2|0,0:0|0:0,0:0:0:0:
412,140,37884,2,0,P|360:112|280:120,1,128,2|0,0:0|0:0,0:0:0:0:
396,260,38570,86,0,L|464:252,1,64,2|0,0:0|0:0,0:0:0:0:
312,360,38913,2,0,P|300:333|296:288,1,64,2|0,0:0|0:0,0:0:0:0:
332,168,39256,2,0,P|310:192|272:212,1,64,0|0,0:0|0:0,0:0:0:0:
392,92,39599,2,0,L|468:100,1,64,2|0,0:0|0:0,0:0:0:0:
248,124,39942,54,0,P|172:100|140:24,1,160,2|0,0:0|0:0,0:0:0:0:
140,31,40970,38,0,P|141:62|128:96,1,64,2|0,0:0|0:0,0:0:0:0:
64,172,41313,1,2,0:0:0:0:
180,272,41484,2,0,P|156:228|160:168,1,96
155,183,41827,2,0,P|184:192|220:192,1,64,2|0,0:0|0:0,0:0:0:0:
407,263,42170,2,0,P|357:226|294:227,1,128
484,211,42684,70,0,P|495:134|460:63,1,160,2|0,0:0|0:0,0:0:0:0:
252,280,43713,38,0,P|248:320|264:360,1,64
180,228,44056,2,0,P|137:227|96:244,1,64,0|0,0:0|0:0,0:0:0:0:
340,300,44399,2,0,L|420:288,1,64,0|0,0:0|0:0,0:0:0:0:
260,176,44742,2,0,P|228:152|208:112,1,64
376,24,45084,2,0,L|368:96,1,64
124,292,45427,6,0,P|96:258|91:214,1,88.000002685547,4|2,0:0|0:0,0:0:0:0:
224,304,45770,1,8,0:0:0:0:
40,332,45942,1,2,0:0:0:0:
180,216,46113,2,0,P|192:168|188:124,1,88.000002685547,2|0,0:0|0:0,0:0:0:0:
108,32,46456,1,8,0:0:0:0:
68,164,46627,1,0,0:0:0:0:
200,100,46799,6,0,L|304:108,1,88.000002685547,2|2,0:0|0:0,0:0:0:0:
476,84,47142,2,0,P|436:98|388:90,1,88.000002685547,8|2,0:0|0:0,0:0:0:0:
272,216,47484,2,0,P|308:192|372:188,1,88.000002685547,2|0,0:0|0:0,0:0:0:0:
504,304,47827,2,0,B|436:312|436:312|368:280,1,132.00000402832,8|0,0:0|0:0,0:0:0:0:
344,272,48170,70,0,P|328:316|344:372,1,88.000002685547,2|2,0:0|0:0,0:0:0:0:
448,224,48513,1,8,0:0:0:0:
344,92,48684,1,2,0:0:0:0:
360,184,48856,1,2,0:0:0:0:
408,28,49027,1,0,0:0:0:0:
252,60,49199,1,8,0:0:0:0:
440,120,49370,1,0,0:0:0:0:
264,152,49542,70,0,P|220:148|172:124,1,88.000002685547,2|2,0:0|0:0,0:0:0:0:
32,220,49884,2,0,P|71:221|136:192,1,88.000002685547,8|2,0:0|0:0,0:0:0:0:
280,288,50227,2,0,P|240:272|168:276,1,88.000002685547,2|0,0:0|0:0,0:0:0:0:
400,356,50570,2,0,L|388:220,1,132.00000402832,8|0,0:0|0:0,0:0:0:0:
384,192,50913,70,0,P|428:208|472:204,1,88.000002685547,2|2,0:0|0:0,0:0:0:0:
344,108,51256,1,8,0:0:0:0:
296,192,51427,1,2,0:0:0:0:
440,120,51599,1,2,0:0:0:0:
296,24,51770,1,0,0:0:0:0:
384,192,51942,1,8,0:0:0:0:
396,28,52113,1,0,0:0:0:0:
252,108,52284,6,0,P|206:105|156:80,1,88.000002685547,2|2,0:0|0:0,0:0:0:0:
48,44,52627,1,8,0:0:0:0:
112,148,52799,1,2,0:0:0:0:
40,284,52970,2,0,P|24:244|32:192,1,88.000002685547,2|0,0:0|0:0,0:0:0:0:
272,248,53313,2,0,B|228:244|228:244|188:256|188:256|143:245,1,132.00000402832,8|0,0:0|0:0,0:0:0:0:
108,232,53656,69,2,0:0:0:0:
240,336,53827,1,2,0:0:0:0:
180,168,53999,1,8,0:0:0:0:
144,324,54170,1,2,0:0:0:0:
340,296,54342,2,0,P|355:255|312:172,1,132.00000402832,2|0,0:0|0:0,0:0:0:0:
292,160,54684,2,0,L|380:144,1,88.000002685547,8|0,0:0|0:0,0:0:0:0:
236,88,55027,70,0,P|199:74|136:76,1,88.000002685547,2|2,0:0|0:0,0:0:0:0:
324,176,55370,2,0,L|416:160,1,88.000002685547,8|2,0:0|0:0,0:0:0:0:
180,168,55713,2,0,P|132:172|88:200,1,88.000002685547,2|0,0:0|0:0,0:0:0:0:
300,288,56056,2,0,L|460:260,1,132.00000402832,8|0,0:0|0:0,0:0:0:0:
456,260,56399,54,0,P|468:212|448:164,1,80,4|0,0:0|0:0,0:0:0:0:
396,36,56742,2,0,L|388:128,1,80,2|0,0:0|0:0,0:0:0:0:
292,200,57084,2,0,P|272:168|266:125,1,80,2|0,0:0|0:0,0:0:0:0:
380,236,57427,1,2,0:0:0:0:
360,140,57599,1,0,0:0:0:0:
300,288,57770,54,0,P|260:283|220:248,1,80,2|0,0:0|0:0,0:0:0:0:
52,332,58113,2,0,P|91:333|144:312,1,80,2|0,0:0|0:0,0:0:0:0:
136,152,58456,2,0,L|140:244,1,80,2|0,0:0|0:0,0:0:0:0:
72,96,58799,2,0,P|129:108|192:84,1,120,2|0,0:0|0:0,0:0:0:0:
208,76,59142,38,0,L|287:79,1,80,2|0,0:0|0:0,0:0:0:0:
360,128,59484,1,2,0:0:0:0:
444,88,59656,1,0,0:0:0:0:
360,216,59827,1,2,0:0:0:0:
288,80,59999,1,0,0:0:0:0:
444,180,60170,1,2,0:0:0:0:
368,40,60342,1,0,0:0:0:0:
280,172,60513,6,0,P|270:210|284:264,1,80,2|0,0:0|0:0,0:0:0:0:
428,284,60856,2,0,P|388:304|344:304,1,80,2|0,0:0|0:0,0:0:0:0:
192,288,61199,2,0,P|215:319|250:338,1,80,2|0,0:0|0:0,0:0:0:0:
168,196,61542,2,0,P|104:220|28:204,1,120,2|0,0:0|0:0,0:0:0:0:
16,200,61884,6,0,P|9:238|24:288,1,80,2|0,0:2|0:0,0:0:0:0:
96,128,62227,1,2,0:2:0:0:
112,292,62399,1,0,0:0:0:0:
256,224,62570,2,0,P|260:180|248:144,1,80,2|0,0:2|0:0,0:0:0:0:
168,196,62913,1,2,0:2:0:0:
232,328,63084,1,0,0:0:0:0:
344,284,63256,6,2,P|372:248|384:196,1,80,2|0,0:2|0:0,1:0:0:0:
360,96,63599,1,2,0:2:0:0:
464,132,63770,1,0,0:0:0:0:
252,120,63942,69,2,0:2:0:0:
280,32,64113,1,0,0:0:0:0:
380,196,64284,69,2,0:2:0:0:
344,284,64456,1,0,0:0:0:0:
160,72,64627,5,4,1:0:0:0:
380,196,64970,53,0,0:0:0:0:
292,140,65142,1,0,0:0:0:0:
320,280,65313,53,0,0:0:0:0:
444,112,65484,1,0,0:0:0:0:
468,256,65656,53,0,0:0:0:0:
292,140,65827,1,0,0:0:0:0:
144,308,65999,54,0,B|88:328|88:328|24:308,1,120
84,239,66342,54,0,P|151:219|213:251,1,143.999995605469
296,344,66684,54,0,B|284:300|284:300|308:224|308:224|280:152,1,167.999994873047
228,100,67027,54,0,B|356:100|356:100|332:44|332:44|312:63,1,215.999993408203,4|0,0:0|0:0,0:0:0:0:
360,192,67370,6,0,B|408:188|408:188|452:100|452:100|428:48,1,191.999994140625,4|8,0:1|0:0,0:0:0:0:
256,192,67884,1,0,0:0:0:0:
376,280,68056,2,0,B|480:272,1,95.9999970703126,4|0,0:3|0:0,0:0:0:0:
296,344,68399,1,8,0:0:0:0:
180,248,68570,6,0,P|166:199|176:152,1,95.9999970703126,0|4,0:0|0:3,0:0:0:0:
352,80,68913,2,0,P|307:97|260:100,1,95.9999970703126,0|8,0:0|0:0,0:0:0:0:
48,72,69256,2,0,P|87:59|148:60,1,95.9999970703126,0|4,0:0|0:3,0:0:0:0:
256,192,69599,1,0,0:0:0:0:
100,320,69770,2,0,P|72:255|93:187,1,143.999995605469,8|0,0:0|0:0,0:0:0:0:
104,160,70113,6,0,P|52:176|4:164,1,95.9999970703126,4|0,0:3|0:0,0:0:0:0:
164,248,70456,2,0,P|212:252|260:280,1,95.9999970703126,8|0,0:0|0:0,0:0:0:0:
432,196,70799,2,0,P|388:212|337:209,1,95.9999970703126,4|0,0:3|0:0,0:0:0:0:
272,100,71142,1,8,0:0:0:0:
456,164,71313,54,0,L|448:288,1,95.9999970703126,0|4,0:0|0:3,0:0:0:0:
336,364,71656,2,0,P|320:320|276:280,1,95.9999970703126,0|8,0:0|0:0,0:0:0:0:
69,262,71999,2,0,L|164:248,1,95.9999970703126,0|4,0:0|0:3,0:0:0:0:
272,100,72342,1,0,0:0:0:0:
272,100,72427,1,0,0:0:0:0:
272,100,72513,2,0,P|212:148|124:136,1,143.999995605469,8|0,0:0|0:0,0:0:0:0:
112,127,72856,102,0,P|154:106|179:66,1,95.9999970703126,4|0,0:3|0:0,0:0:0:0:
16,104,73199,1,8,0:0:0:0:
148,212,73370,1,0,0:0:0:0:
96,36,73542,1,4,0:3:0:0:
44,204,73713,1,0,0:0:0:0:
212,132,73884,1,8,0:0:0:0:
304,288,74056,38,0,P|265:263|240:208,1,95.9999970703126,0|4,0:0|0:3,0:0:0:0:
456,264,74399,2,0,P|456:308|428:368,1,95.9999970703126,0|8,0:0|0:0,0:0:0:0:
340,196,74742,2,0,L|356:84,1,95.9999970703126,0|4,0:0|0:3,0:0:0:0:
504,64,75084,1,0,0:0:0:0:
360,216,75256,2,0,P|296:200|216:244,1,143.999995605469,8|0,0:0|0:0,0:0:0:0:
200,256,75599,6,0,P|204:208|188:160,1,95.9999970703126,4|0,0:3|0:0,0:0:0:0:
128,328,75942,1,8,0:0:0:0:
292,276,76113,1,0,0:0:0:0:
108,228,76284,1,4,0:3:0:0:
228,348,76456,1,0,0:0:0:0:
184,160,76627,1,8,0:0:0:0:
372,332,76799,6,0,B|420:344|420:344|467:324,1,95.9999970703126,0|4,0:0|0:3,0:0:0:0:
448,128,77142,2,0,L|464:228,1,95.9999970703126,0|8,0:0|0:0,0:0:0:0:
352,24,77484,2,0,L|336:132,1,95.9999970703126,0|4,0:0|0:3,0:0:0:0:
312,232,77827,1,0,0:0:0:0:
176,56,77999,1,8,0:0:0:0:
140,84,78084,1,0,0:0:0:0:
124,128,78170,1,0,0:0:0:0:
132,176,78256,1,0,0:0:0:0:
164,212,78342,54,0,P|200:180|260:168,1,95.9999970703126,4|0,0:1|0:0,0:0:0:0:
144,336,78684,2,0,P|107:300|44:280,1,95.9999970703126,8|0,0:0|0:0,0:0:0:0:
256,272,79027,2,0,P|307:273|356:296,1,95.9999970703126,4|0,0:3|0:0,0:0:0:0:
499,153,79370,2,0,L|452:164,1,47.9999985351563,8|0,0:0|0:0,0:0:0:0:
352,120,79542,102,0,B|332:76|332:76|348:24,1,95.9999970703126,0|4,0:0|0:3,0:0:0:0:
452,164,79884,1,0,0:0:0:0:
368,216,80056,1,8,0:0:0:0:
432,64,80227,1,0,0:0:0:0:
440,292,80399,1,4,0:3:0:0:
264,172,80570,1,0,0:0:0:0:
264,172,80656,1,0,0:0:0:0:
264,172,80742,2,0,P|204:135|133:137,1,143.999995605469,8|0,0:0|0:0,0:0:0:0:
96,164,81084,37,4,0:3:0:0:
276,72,81256,1,0,0:0:0:0:
176,228,81427,1,8,0:0:0:0:
128,48,81599,1,0,0:0:0:0:
8,208,81770,2,0,P|38:244|83:260,1,95.9999970703126,4|0,0:3|0:0,0:0:0:0:
308,328,82113,1,8,0:0:0:0:
308,328,82199,1,0,0:0:0:0:
308,328,82284,6,0,P|261:309|212:312,1,95.9999970703126,0|4,0:0|0:3,0:0:0:0:
416,268,82627,2,0,L|510:253,1,95.9999970703126,0|8,0:0|0:0,0:0:0:0:
280,232,82970,2,0,P|248:192|240:132,1,95.9999970703126,0|4,0:0|0:3,0:0:0:0:
368,32,83313,1,0,0:0:0:0:
508,152,83484,2,0,B|456:160|456:160|420:144|420:144|352:160,1,143.999995605469,8|0,0:0|0:0,0:0:0:0:
336,152,83827,6,0,P|328:96|352:52,1,95.9999970703126,4|0,0:3|0:0,0:0:0:0:
412,240,84170,2,0,L|316:249,1,95.9999970703126,8|0,0:0|0:0,0:0:0:0:
512,348,84513,2,0,L|416:338,1,95.9999970703126,4|0,0:3|0:0,0:0:0:0:
240,320,84856,1,8,0:0:0:0:
240,320,84942,1,0,0:0:0:0:
240,320,85027,54,0,P|212:272|216:216,1,95.9999970703126,0|4,0:0|0:3,0:0:0:0:
296,116,85370,1,0,0:0:0:0:
308,248,85542,1,8,0:0:0:0:
116,200,85713,2,0,P|72:192|4:208,1,95.9999970703126,0|4,0:0|0:3,0:0:0:0:
188,100,86056,1,0,0:0:0:0:
240,320,86227,2,0,P|312:344|380:312,1,143.999995605469,8|0,0:0|0:0,0:0:0:0:
404,296,86570,102,0,B|388:264|388:264|396:200,1,95.9999970703126,4|0,0:3|0:0,0:0:0:0:
464,56,86913,2,0,B|472:88|472:88|460:148,1,88.000002685547,8|0,0:0|0:0,0:0:0:0:
296,116,87256,2,0,B|324:104|324:104|373:109,1,80,4|0,0:3|0:0,0:0:0:0:
312,204,87599,1,8,0:0:0:0:
220,64,87770,1,0,0:0:0:0:
192,156,87942,6,0,P|151:144|88:152,1,80,0|0,0:0|0:0,0:0:0:0:
296,116,88284,54,0,P|332:108|368:84,1,71.9999978027344
196,264,88627,54,0,P|176:244|124:224,1,64
312,204,88970,54,0,P|338:213|365:217,1,55.9999982910157
483,323,89313,86,0,P|410:266|320:288,1,191.999994140625,4|8,0:0|0:0,0:0:0:0:
96,344,89827,1,0,0:0:0:0:
96,344,89913,1,0,0:0:0:0:
96,344,89999,2,0,P|140:336|184:296,1,95.9999970703126,4|0,0:3|0:0,0:0:0:0:
232,100,90342,2,0,L|236:200,1,95.9999970703126,8|0,0:0|0:0,0:0:0:0:
236,232,90599,1,0,0:0:0:0:
236,232,90684,6,0,P|192:216|140:224,1,95.9999970703126,4|0,0:3|0:0,0:0:0:0:
316,352,91027,2,0,B|364:360|364:360|341:318,1,95.9999970703126,8|0,0:0|0:0,0:0:0:0:
264,140,91370,2,0,B|308:157|308:157|360:148,1,95.9999970703126,4|0,0:3|0:0,0:0:0:0:
504,252,91713,2,0,B|448:216|448:216|356:236,1,143.999995605469,8|0,0:0|0:0,0:0:0:0:
328,244,92056,5,4,0:3:0:0:
424,332,92227,1,0,0:0:0:0:
456,176,92399,2,0,P|464:128|452:76,1,95.9999970703126,8|0,0:0|0:0,0:0:0:0:
264,140,92742,2,0,B|360:128,1,95.9999970703126,4|0,0:3|0:0,0:0:0:0:
68,188,93084,2,0,L|168:204,1,95.9999970703126,8|0,0:0|0:0,0:0:0:0:
200,204,93342,1,0,0:0:0:0:
200,204,93427,38,0,P|176:152|184:104,1,95.9999970703126,4|0,0:3|0:0,0:0:0:0:
296,240,93770,2,0,L|284:336,1,95.9999970703126,8|0,0:0|0:0,0:0:0:0:
264,140,94113,1,4,0:3:0:0:
388,232,94284,1,0,0:0:0:0:
188,312,94456,2,0,P|128:280|28:320,1,143.999995605469,8|0,0:0|0:0,0:0:0:0:
24,312,94799,6,0,P|39:267|37:220,1,95.9999970703126,4|0,0:3|0:0,0:0:0:0:
0,64,95142,2,0,B|41:88|41:88|95:83,1,95.9999970703126,8|0,0:0|0:0,0:0:0:0:
264,140,95484,2,0,L|152:152,1,95.9999970703126,4|0,0:3|0:0,0:0:0:0:
340,204,95827,2,0,P|360:160|356:112,1,95.9999970703126,8|0,0:0|0:0,0:0:0:0:
268,48,96170,21,4,0:3:0:0:
420,252,96342,2,0,P|468:232|512:232,1,95.9999970703126,0|8,0:0|0:0,0:0:0:0:
368,368,96684,2,0,P|332:336|268:316,1,95.9999970703126,0|4,0:0|0:3,0:0:0:0:
488,320,97027,1,0,0:0:0:0:
339,204,97199,2,0,P|274:231|205:217,1,143.999995605469,8|0,0:0|0:0,0:0:0:0:
176,204,97542,6,0,B|192:240|192:240|180:308,1,95.9999970703126,4|0,0:3|0:0,0:0:0:0:
120,116,97884,2,0,P|172:104|232:120,1,95.9999970703126,8|0,0:0|0:0,0:0:0:0:
404,92,98227,2,0,P|352:80|312:48,1,95.9999970703126,4|0,0:3|0:0,0:0:0:0:
488,32,98570,1,8,0:0:0:0:
344,180,98742,1,0,0:0:0:0:
344,180,98827,1,0,0:0:0:0:
344,180,98913,6,0,P|299:200|248:204,1,95.9999970703126,4|0,0:3|0:0,0:0:0:0:
124,304,99256,54,0,B|156:292|156:292|220:304,1,88.000002685547,8|0,0:0|0:0,0:0:0:0:
380,304,99599,54,0,L|296:288,1,80,4|0,0:3|0:0,0:0:0:0:
180,192,99942,54,0,L|250:205,1,71.9999978027344,8|0,0:0|0:0,0:0:0:0:
0,212,100284,22,0,L|96:228,1,95.9999970703126,4|0,0:1|0:0,0:0:0:0:
304,248,100627,1,8,0:0:0:0:
172,152,100799,1,0,0:0:0:0:
172,152,100884,1,0,0:0:0:0:
172,152,100970,2,0,B|214:176|264:160|264:160|312:144|358:165,1,191.999994140625,4|8,0:3|0:0,0:0:0:0:
216,68,101484,1,0,0:0:0:0:
216,68,101570,1,0,0:0:0:0:
216,68,101656,6,0,P|172:60|100:80,1,95.9999970703126,4|0,0:3|0:0,0:0:0:0:
300,111,101999,2,0,P|343:92|390:92,1,95.9999970703126,8|0,0:0|0:0,0:0:0:0:
468,280,102342,2,0,L|444:180,1,95.9999970703126,4|0,0:3|0:0,0:0:0:0:
328,304,102684,2,0,B|392:340|392:340|376:268,1,143.999995605469,8|0,0:0|0:0,0:0:0:0:
364,228,103027,5,4,0:3:0:0:
276,372,103199,1,0,0:0:0:0:
484,336,103370,2,0,L|460:242,1,95.9999970703126,8|0,0:0|0:0,0:0:0:0:
372,100,103713,1,4,0:3:0:0:
484,140,103884,1,0,0:0:0:0:
307,167,104056,2,0,P|283:127|283:79,1,95.9999970703126,8|0,0:0|0:0,0:0:0:0:
300,48,104313,1,0,0:0:0:0:
300,48,104399,38,0,B|260:64|260:64|196:60,1,95.9999970703126,4|0,0:3|0:0,0:0:0:0:
24,144,104742,2,0,P|68:124|132:132,1,95.9999970703126,8|0,0:0|0:0,0:0:0:0:
184,304,105084,2,0,L|168:200,1,95.9999970703126,4|0,0:3|0:0,0:0:0:0:
317,72,105427,2,0,L|308:168,1,95.9999970703126,8|0,0:0|0:0,0:0:0:0:
304,200,105684,1,0,0:0:0:0:
304,199,105770,6,0,P|352:172|400:172,1,95.9999970703126,4|0,0:3|0:0,0:0:0:0:
272,300,106113,1,8,0:0:0:0:
224,136,106284,1,0,0:0:0:0:
368,268,106456,1,4,0:3:0:0:
204,232,106627,1,0,0:0:0:0:
328,108,106799,2,0,P|368:96|432:112,1,95.9999970703126,8|0,0:0|0:0,0:0:0:0:
448,124,107056,1,0,0:0:0:0:
448,124,107142,22,0,B|436:88|436:88|448:20,1,95.9999970703126,4|0,0:3|0:0,0:0:0:0:
512,192,107484,1,8,0:0:0:0:
368,268,107656,1,0,0:0:0:0:
364,164,107827,1,4,0:3:0:0:
472,288,107999,1,0,0:0:0:0:
292,336,108170,2,0,P|228:296|136:324,1,143.999995605469,8|0,0:0|0:0,0:0:0:0:
124,320,108513,6,0,B|132:288|132:288|116:225,1,95.9999970703126,4|0,0:3|0:0,0:0:0:0:
208,72,108856,2,0,B|226:166,1,95.9999970703126,8|0,0:0|0:0,0:0:0:0:
292,336,109199,2,0,P|340:312|384:312,1,95.9999970703126,4|0,0:3|0:0,0:0:0:0:
512,188,109542,2,0,P|465:183|423:161,1,95.9999970703126,8|0,0:0|0:0,0:0:0:0:
256,44,109884,69,0,0:0:0:0:
256,164,110227,2,0,B|249:198|249:198|264:248|264:248|256:292,2,128,0|0|0,0:0|0:0|0:0,0:0:0:0:
256,44,111256,21,4,0:1:0:0:
88,244,122227,102,0,B|144:276|216:236|216:236|192:292|192:292|256:348|256:348|320:292|320:292|296:236|296:236|368:276|424:244,1,560
452,164,124970,102,0,B|408:152|368:172|368:172|316:144|280:152|280:152|256:96|256:96|232:152|232:152|196:144|144:172|144:172|104:152|58:163,1,480
58,163,127713,38,0,P|259:162|75:80,1,560
256,192,130456,12,0,132856,0:0:0:0:
152,204,133199,6,0,P|132:164|136:108,1,88.000002685547,4|2,0:1|0:0,0:0:0:0:
232,244,133542,1,8,0:0:0:0:
64,220,133713,1,2,0:0:0:0:
228,148,133884,2,0,P|272:156|312:188,1,88.000002685547,2|0,0:0|0:0,0:0:0:0:
152,204,134227,1,8,0:0:0:0:
200,60,134399,1,0,0:0:0:0:
328,160,134570,86,0,P|368:176|413:174,1,88.000002685547,2|2,0:0|0:0,0:0:0:0:
508,28,134913,2,0,L|500:116,1,88.000002685547,8|2,0:0|0:0,0:0:0:0:
471,299,135256,2,0,P|432:276|389:272,1,88.000002685547,2|0,0:0|0:0,0:0:0:0:
168,320,135599,2,0,B|236:328|236:328|300:272,1,132.00000402832,8|0,0:0|0:0,0:0:0:0:
304,260,135942,22,0,P|308:300|348:348,1,88.000002685547,2|2,0:0|0:0,0:0:0:0:
360,180,136284,1,8,0:0:0:0:
216,240,136456,1,2,0:0:0:0:
392,260,136627,1,2,0:0:0:0:
272,172,136799,1,0,0:0:0:0:
256,340,136970,1,8,0:0:0:0:
360,180,137142,1,0,0:0:0:0:
437,337,137313,86,0,P|394:347|352:340,1,88.000002685547,2|2,0:0|0:0,0:0:0:0:
443,193,137656,2,0,P|426:233|391:259,1,88.000002685547,8|2,0:0|0:0,0:0:0:0:
328,101,137999,2,0,P|354:136|360:180,1,88.000002685547,2|0,0:0|0:0,0:0:0:0:
152,140,138342,2,0,P|217:138|272:172,1,132.00000402832,8|0,0:0|0:0,0:0:0:0:
279,199,138684,22,0,P|236:200|198:224,1,88.000002685547,2|2,0:0|0:0,0:0:0:0:
168,328,139027,1,8,0:0:0:0:
152,140,139199,1,2,0:0:0:0:
268,288,139370,1,2,0:0:0:0:
88,264,139542,1,0,0:0:0:0:
152,140,139713,1,8,0:0:0:0:
188,240,139884,1,0,0:0:0:0:
32,148,140056,86,0,P|16:104|20:52,1,88.000002685547,2|2,0:0|0:0,0:0:0:0:
152,140,140399,2,0,L|136:236,1,88.000002685547,8|2,0:0|0:0,0:0:0:0:
276,376,140742,2,0,P|264:328|268:288,1,88.000002685547,2|0,0:0|0:0,0:0:0:0:
396,172,141084,2,0,P|332:196|256:172,1,132.00000402832,8|0,0:0|0:0,0:0:0:0:
244,160,141427,22,0,B|260:136|260:136|256:68,1,88.000002685547,2|2,0:0|0:0,0:0:0:0:
152,140,141770,1,8,0:0:0:0:
236,280,141942,1,2,0:0:0:0:
364,200,142113,2,0,L|352:68,1,132.00000402832,2|0,0:0|0:0,0:0:0:0:
352,40,142456,2,0,P|391:56|440:56,1,88.000002685547,8|0,0:0|0:0,0:0:0:0:
308,136,142799,86,0,P|268:132|212:144,1,88.000002685547,2|2,0:0|0:0,0:0:0:0:
396,92,143142,2,0,P|439:92|479:75,1,88.000002685547,8|2,0:0|0:0,0:0:0:0:
272,172,143484,2,0,P|232:176|188:200,1,88.000002685547,2|0,0:0|0:0,0:0:0:0:
104,332,143827,2,0,P|176:340|232:296,1,132.00000402832,8|0,0:0|0:0,0:0:0:0:
248,252,144170,54,0,B|224:308|224:308|304:288,1,120,4|0,0:1|0:0,0:0:0:0:
344,232,144513,2,0,P|368:272|368:320,1,95.9999970703126,8|0,0:0|0:0,0:0:0:0:
272,172,144856,2,0,P|328:184|392:148,1,120,4|0,0:3|0:0,0:0:0:0:
456,84,145199,2,0,B|464:39|464:39|416:55,1,95.9999970703126,8|0,0:0|0:0,0:0:0:0:
320,100,145542,1,4,0:3:0:0:
468,180,145713,1,0,0:0:0:0:
272,172,145884,2,0,P|241:137|231:91,1,95.9999970703126,8|0,0:0|0:0,0:0:0:0:
64,172,146227,2,0,L|144:164,1,80,4|0,0:3|0:0,0:0:0:0:
344,232,146570,2,0,B|280:268|280:268|200:247,1,143.999995605469,8|0,0:0|0:0,0:0:0:0:
176,232,146913,6,0,B|192:252|192:252|180:308,1,80,4|0,0:3|0:0,0:0:0:0:
63,171,147256,2,0,L|80:72,1,95.9999970703126,8|0,0:0|0:0,0:0:0:0:
200,68,147599,2,0,B|188:152|188:152|216:192,1,120,4|0,0:3|0:0,0:0:0:0:
288,116,147942,2,0,L|304:21,1,95.9999970703126,8|0,0:0|0:0,0:0:0:0:
208,181,148284,2,0,P|257:213|316:208,1,120,4|0,0:3|0:0,0:0:0:0:
392,124,148627,2,0,L|408:20,1,95.9999970703126,8|0,0:0|0:0,0:0:0:0:
427,226,148970,2,0,P|374:199|317:209,1,120,4|0,0:3|0:0,0:0:0:0:
285,299,149313,2,0,B|360:280|360:280|328:344,1,143.999995605469,8|0,0:0|0:0,0:0:0:0:
256,376,149656,85,4,0:3:0:0:
256,376,149827,1,0,0:0:0:0:
100,276,149999,2,0,P|89:229|101:183,1,95.9999970703126,8|0,0:2|0:0,0:0:0:0:
168,340,150342,1,4,0:3:0:0:
168,340,150513,1,0,0:0:0:0:
192,160,150684,2,0,P|224:120|270:104,1,95.9999970703126,8|0,0:2|0:0,0:0:0:0:
416,60,151027,53,4,0:3:0:0:
424,236,151199,1,0,0:0:0:0:
320,60,151370,1,8,0:2:0:0:
472,152,151542,1,0,0:0:0:0:
324,236,151713,1,4,0:3:0:0:
368,148,151884,1,0,0:0:0:0:
372,320,152056,1,8,0:2:0:0:
224,236,152227,1,0,0:0:0:0:
416,60,152399,101,2,0:0:0:0:
88,148,152742,85,2,0:0:0:0:
188,148,152913,1,0,0:0:0:0:
424,236,153084,1,2,0:0:0:0:
324,236,153256,1,0,0:0:0:0:
300,64,153427,22,0,L|300:144,1,80,2|0,0:0|0:0,0:0:0:0:
212,320,153770,2,0,L|212:240,1,80
188,148,154113,22,0,P|152:140|108:148,1,80
324,236,154456,2,0,P|368:244|403:233,1,80
256,104,154799,86,0,B|276:148|256:188|256:188|232:236|256:280,1,180.000006866455,4|0,0:0|0:0,0:0:0:0:
280,304,155142,22,0,P|316:316|360:307,1,80,4|0,0:1|0:0,0:0:0:0:
496,256,155484,2,0,L|400:248,1,80,2|0,0:0|0:0,0:0:0:0:
372,160,155827,2,0,L|451:167,1,80,2|0,0:0|0:0,0:0:0:0:
288,188,156170,1,2,0:0:0:0:
288,188,156342,6,0,P|284:148|296:108,1,80,0|2,0:0|0:0,0:0:0:0:
384,64,156684,2,0,L|468:72,1,80,0|2,0:0|0:0,0:0:0:0:
280,92,157027,2,0,L|184:80,1,80,0|2,0:0|0:0,0:0:0:0:
40,208,157370,1,0,0:0:0:0:
40,208,157542,2,0,L|164:188,1,120,2|0,0:0|0:0,0:0:0:0:
180,184,157884,6,0,P|196:220|192:272,1,80,2|0,0:0|0:0,0:0:0:0:
296,356,158227,2,0,P|280:316|288:272,1,80,2|0,0:0|0:0,0:0:0:0:
440,204,158570,2,0,L|352:216,1,80,2|0,0:0|0:0,0:0:0:0:
292,128,158913,1,2,0:0:0:0:
292,128,159084,38,0,P|312:95|320:48,1,80,0|2,0:0|0:0,0:0:0:0:
220,184,159427,2,0,P|189:151|176:112,1,80,0|2,0:0|0:0,0:0:0:0:
292,252,159770,2,0,P|324:229|345:195,1,80,0|2,0:0|0:0,0:0:0:0:
200,280,160113,1,0,0:0:0:0:
264,352,160284,2,0,P|333:334|400:360,1,120,2|0,0:0|0:0,0:0:0:0:
408,356,160627,6,0,P|420:312|411:276,1,80,2|0,0:0|0:0,0:0:0:0:
396,108,160970,2,0,L|388:192,1,80,2|0,0:0|0:0,0:0:0:0:
288,44,161313,2,0,L|300:123,1,80,2|0,0:0|0:0,0:0:0:0:
228,188,161656,1,2,0:0:0:0:
227,188,161827,22,0,P|189:196|149:189,1,80,0|2,0:0|0:0,0:0:0:0:
60,48,162170,2,0,L|69:127,1,80,0|2,0:0|0:0,0:0:0:0:
48,300,162513,2,0,L|62:221,1,80,0|2,0:0|0:0,0:0:0:0:
136,352,162856,1,0,0:0:0:0:
234,302,163027,2,0,B|214:250|214:250|228:188,1,120,2|0,0:0|0:0,0:0:0:0:
204,152,163370,6,0,L|188:236,1,80,2|0,0:0|0:0,0:0:0:0:
184,68,163713,2,0,P|228:68|264:84,1,80,2|0,0:0|0:0,0:0:0:0:
384,176,164056,2,0,P|340:176|304:164,1,80,2|0,0:0|0:0,0:0:0:0:
360,280,164399,1,2,0:0:0:0:
360,280,164570,6,0,P|404:268|448:268,1,80,0|2,0:0|0:0,0:0:0:0:
260,344,164913,2,0,P|220:324|168:316,1,80,0|2,0:0|0:0,0:0:0:0:
256,232,165256,2,0,P|292:216|319:187,1,80,0|2,0:0|0:0,0:0:0:0:
224,40,165599,1,0,0:0:0:0:
224,40,165770,2,0,L|236:128,1,80,2|0,0:0|0:0,0:0:0:0:
256,232,166113,101,4,0:1:0:0:
256,232,166456,70,0,L|324:224,1,64,2|0,0:0|0:0,0:0:0:0:
199,307,166799,2,0,P|166:254|173:192,1,128,2|0,0:0|0:0,0:0:0:0:
244,136,167313,1,0,0:0:0:0:
168,88,167484,2,0,B|132:104|132:104|40:84,2,128,2|2|2,0:0|0:0|0:0,0:0:0:0:
400,171,168513,38,0,P|434:101|415:25,1,160,2|0,0:0|0:0,0:0:0:0:
312,192,169027,69,0,0:0:0:0:
376,260,169199,2,0,L|448:252,1,64,2|0,0:0|0:0,0:0:0:0:
312,328,169542,2,0,P|268:292|192:288,1,128,2|0,0:0|0:0,0:0:0:0:
112,320,170056,1,0,0:0:0:0:
32,200,170227,2,0,P|87:230|152:216,1,128,2|0,0:0|0:0,0:0:0:0:
312,128,170742,2,0,L|184:136,1,128,2|0,0:0|0:0,0:0:0:0:
364,204,171256,38,0,P|401:135|376:62,1,160,2|0,0:0|0:0,0:0:0:0:
136,276,171942,70,0,L|208:264,1,64,2|0,0:0|0:0,0:0:0:0:
360,348,172284,2,0,P|296:364|239:335,1,128,2|0,0:0|0:0,0:0:0:0:
420,276,172799,1,0,0:0:0:0:
312,280,172970,2,0,P|276:228|288:156,1,128,2|0,0:0|0:0,0:0:0:0:
476,156,173484,2,0,B|448:192|448:192|366:202,1,128,2|0,0:0|0:0,0:0:0:0:
208,112,173999,38,0,B|284:144|284:144|342:92,1,160,2|2,0:0|0:0,0:0:0:0:
152,108,175713,70,0,B|120:84|120:84|92:120,2,80,2|2|2,0:0|0:0|0:0,0:0:0:0:
200,208,176742,2,0,L|212:264,1,40,2|0,0:0|0:0,0:0:0:0:
148,356,177084,6,0,P|221:287|320:304,1,207.999990478516,4|8,0:0|0:0,0:0:0:0:
496,280,177598,1,0,0:0:0:0:
496,280,177684,1,0,0:0:0:0:
496,280,177770,2,0,P|448:260|408:223,1,103.999995239258,4|0,0:3|0:0,0:0:0:0:
320,24,178113,2,0,L|328:136,1,103.999995239258,8|0,0:0|0:0,0:0:0:0:
328,164,178370,1,0,0:0:0:0:
328,164,178455,22,0,P|376:136|427:135,1,103.999995239258,4|0,0:3|0:0,0:0:0:0:
248,268,178798,2,0,B|200:244|200:244|144:252,1,103.999995239258,8|0,0:0|0:0,0:0:0:0:
0,92,179141,2,0,B|48:112|48:112|100:104,1,103.999995239258,4|0,0:3|0:0,0:0:0:0:
280,192,179484,2,0,B|208:164|208:164|128:176,1,155.999992858887,8|0,0:0|0:0,0:0:0:0:
92,184,179827,69,4,0:3:0:0:
176,336,179998,1,0,0:0:0:0:
336,272,180170,2,0,B|388:260|388:260|365:305,1,103.999995239258,8|0,0:0|0:0,0:0:0:0:
280,192,180513,2,0,B|384:164,1,103.999995239258,4|0,0:3|0:0,0:0:0:0:
200,256,180855,2,0,P|180:216|188:152,1,103.999995239258,8|0,0:0|0:0,0:0:0:0:
212,128,181113,1,0,0:0:0:0:
212,128,181198,6,0,B|184:144|184:144|111:127,1,103.999995239258,4|0,0:3|0:0,0:0:0:0:
344,80,181541,2,0,L|456:96,1,103.999995239258,8|0,0:0|0:0,0:0:0:0:
312,188,181884,1,4,0:3:0:0:
248,32,182055,1,0,0:0:0:0:
200,256,182227,2,0,P|152:220|48:224,1,155.999992858887,8|0,0:0|0:0,0:0:0:0:
24,248,182570,22,0,B|44:224|44:224|32:136,1,103.999995239258,4|0,0:3|0:0,0:0:0:0:
200,24,182913,2,0,B|186:127,1,103.999995239258,8|0,0:0|0:0,0:0:0:0:
152,328,183255,2,0,P|200:310|252:316,1,103.999995239258,4|0,0:3|0:0,0:0:0:0:
479,180,183598,2,0,P|436:204|384:201,1,103.999995239258,8|0,0:0|0:0,0:0:0:0:
268,160,183941,69,4,0:3:0:0:
396,332,184113,2,0,P|448:312|500:316,1,103.999995239258,0|8,0:0|0:0,0:0:0:0:
288,256,184455,2,0,P|236:252|184:220,1,103.999995239258,0|4,0:0|0:3,0:0:0:0:
388,212,184798,1,0,0:0:0:0:
212,360,184970,2,0,P|150:313|72:312,1,155.999992858887,8|0,0:0|0:0,0:0:0:0:
32,328,185313,6,0,P|52:276|44:224,1,103.999995239258,4|0,0:3|0:0,0:0:0:0:
4,84,185655,2,0,B|40:100|40:100|116:88,1,103.999995239258,8|0,0:0|0:0,0:0:0:0:
328,156,185998,2,0,L|216:172,1,103.999995239258,4|0,0:3|0:0,0:0:0:0:
416,56,186341,1,8,0:0:0:0:
416,216,186513,1,0,0:0:0:0:
416,216,186598,1,0,0:0:0:0:
416,216,186684,22,0,B|396:240|396:240|332:251,1,95.9999970703126,4|0,0:3|0:0,0:0:0:0:
168,308,187027,70,0,P|208:290|251:296,1,88.000002685547,8|0,0:0|0:0,0:0:0:0:
432,324,187370,38,0,L|352:332,1,80,4|0,0:3|0:0,0:0:0:0:
256,216,187713,70,0,P|238:180|237:146,1,71.9999978027344,8|0,0:0|0:0,0:0:0:0:
444,312,188056,6,0,L|316:320,1,103.999995239258,4|0,0:1|0:0,0:0:0:0:
152,222,188399,2,0,L|256:216,1,103.999995239258,8|0,0:0|0:0,0:0:0:0:
292,208,188656,1,0,0:0:0:0:
292,208,188742,2,0,B|268:172|268:172|272:96,1,103.999995239258,4|0,0:3|0:0,0:0:0:0:
384,256,189084,2,0,P|328:304|232:284,1,155.999992858887,8|0,0:0|0:0,0:0:0:0:
212,272,189427,22,0,P|232:324|220:376,1,103.999995239258,4|0,0:3|0:0,0:0:0:0:
60,268,189770,2,0,P|52:207|68:158,1,103.999995239258,8|0,0:0|0:0,0:0:0:0:
268,104,190113,2,0,L|160:100,1,103.999995239258,4|0,0:3|0:0,0:0:0:0:
328,191,190456,2,0,P|373:131|360:56,1,155.999992858887,8|0,0:0|0:0,0:0:0:0:
328,28,190799,69,4,0:3:0:0:
472,140,190970,1,0,0:0:0:0:
268,104,191142,1,8,0:0:0:0:
440,40,191313,1,0,0:0:0:0:
408,224,191484,2,0,P|456:244|511:238,1,103.999995239258,4|0,0:3|0:0,0:0:0:0:
372,116,191827,1,8,0:0:0:0:
344,296,191999,1,0,0:0:0:0:
344,296,192084,1,0,0:0:0:0:
344,296,192170,6,0,P|300:272|232:272,1,103.999995239258,4|0,0:3|0:0,0:0:0:0:
120,368,192513,2,0,P|144:316|132:252,1,103.999995239258,8|0,0:0|0:0,0:0:0:0:
24,144,192856,2,0,B|60:160|60:160|140:144,1,103.999995239258,4|0,0:3|0:0,0:0:0:0:
376,180,193199,2,0,B|308:220|308:220|204:196,1,155.999992858887,8|0,0:0|0:0,0:0:0:0:
200,195,193542,22,0,P|215:147|200:98,1,103.999995239258,4|0,0:3|0:0,0:0:0:0:
108,248,193884,1,8,0:0:0:0:
296,248,194056,1,0,0:0:0:0:
120,148,194227,1,4,0:3:0:0:
204,296,194399,1,0,0:0:0:0:
376,180,194570,2,0,P|396:228|384:292,1,103.999995239258,8|0,0:0|0:0,0:0:0:0:
228,160,194913,2,0,L|278:149,1,51.999997619629,4|0,0:3|0:0,0:0:0:0:
376,180,195084,70,0,L|500:152,1,103.999995239258,0|8,0:0|0:0,0:0:0:0:
295,247,195427,2,0,P|273:201|280:148,1,103.999995239258,0|4,0:0|0:3,0:0:0:0:
408,280,195770,1,0,0:0:0:0:
256,348,195942,2,0,P|192:304|96:320,1,155.999992858887,8|0,0:0|0:0,0:0:0:0:
80,336,196284,6,0,B|100:312|100:312|88:224,1,103.999995239258,4|0,0:3|0:0,0:0:0:0:
64,104,196627,1,8,0:0:0:0:
188,212,196799,1,0,0:0:0:0:
84,200,196970,1,4,0:3:0:0:
244,128,197142,1,0,0:0:0:0:
232,296,197313,1,8,0:0:0:0:
152,120,197484,1,0,0:0:0:0:
288,216,197656,22,0,P|328:168|328:96,2,128,0|0|0,0:3|0:0|0:0,0:0:0:0:
288,216,198684,2,0,L|308:280,1,64
488,104,199027,102,0,L|504:4,1,95.9999970703126,4|0,0:1|0:0,0:0:0:0:
376,204,199370,2,0,L|348:92,1,95.9999970703126,8|0,0:0|0:0,0:0:0:0:
472,320,199713,2,0,L|496:228,1,95.9999970703126,4|0,0:3|0:0,0:0:0:0:
312,360,200056,1,8,0:0:0:0:
312,360,200142,1,0,0:0:0:0:
312,360,200227,22,0,L|284:260,1,95.9999970703126,0|4,0:0|0:3,0:0:0:0:
148,180,200570,2,0,B|184:188|184:188|252:168,1,95.9999970703126,0|8,0:0|0:0,0:0:0:0:
424,72,200913,2,0,L|330:93,1,95.9999970703126,0|4,0:0|0:3,0:0:0:0:
492,156,201256,1,0,0:0:0:0:
288,176,201427,2,0,P|240:124|248:48,1,143.999995605469,8|0,0:0|0:0,0:0:0:0:
280,28,201770,38,0,B|252:40|252:40|184:30,1,95.9999970703126,4|0,0:3|0:0,0:0:0:0:
8,112,202113,2,0,P|47:94|104:100,1,95.9999970703126,8|0,0:0|0:0,0:0:0:0:
144,276,202456,2,0,L|148:180,1,95.9999970703126,4|0,0:3|0:0,0:0:0:0:
232,104,202799,1,8,0:0:0:0:
232,104,202884,1,0,0:0:0:0:
232,104,202970,1,0,0:0:0:0:
331,256,203142,38,0,P|286:268|240:255,1,95.9999970703126,4|0,0:3|0:0,0:0:0:0:
380,172,203484,1,8,0:0:0:0:
368,340,203656,1,0,0:0:0:0:
288,176,203827,1,4,0:3:0:0:
424,256,203999,1,0,0:0:0:0:
270,318,204170,2,0,P|212:278|141:276,1,143.999995605469,8|0,0:0|0:0,0:0:0:0:
96,300,204513,22,0,B|116:280|116:280|112:212,1,95.9999970703126,4|0,0:3|0:0,0:0:0:0:
20,88,204856,2,0,P|66:99|112:90,1,95.9999970703126,8|0,0:0|0:0,0:0:0:0:
288,176,205199,2,0,L|192:168,1,95.9999970703126,4|0,0:3|0:0,0:0:0:0:
316,80,205542,1,8,0:0:0:0:
360,252,205713,38,0,P|384:208|380:144,1,95.9999970703126,0|4,0:0|0:3,0:0:0:0:
300,344,206056,2,0,L|400:352,1,95.9999970703126,0|8,0:0|0:0,0:0:0:0:
132,292,206399,2,0,L|228:276,1,95.9999970703126,0|4,0:0|0:3,0:0:0:0:
324,152,206742,1,0,0:0:0:0:
168,152,206913,2,0,B|124:208|124:208|200:196,1,143.999995605469,8|0,0:0|0:0,0:0:0:0:
244,192,207256,37,4,0:3:0:0:
84,128,207427,1,0,0:0:0:0:
132,292,207599,2,0,L|236:276,1,95.9999970703126,8|0,0:0|0:0,0:0:0:0:
408,316,207942,2,0,P|364:320|316:300,1,95.9999970703126,4|0,0:3|0:0,0:0:0:0:
496,260,208284,1,8,0:0:0:0:
375,228,208456,22,0,P|340:196|324:152,1,95.9999970703126,0|4,0:0|0:3,0:0:0:0:
432,48,208799,2,0,B|396:60|396:60|320:48,1,95.9999970703126,0|8,0:0|0:0,0:0:0:0:
156,72,209142,2,0,L|252:88,1,95.9999970703126,0|4,0:0|0:3,0:0:0:0:
416,148,209484,1,0,0:0:0:0:
240,176,209656,2,0,L|212:172,7,23.9999992675781,8|0|0|0|0|0|0|0,0:0|0:0|0:0|0:0|0:0|0:0|0:0|0:0,0:0:0:0:
188,172,209999,38,0,P|172:224|191:267,1,95.9999970703126,4|0,0:0|0:0,0:0:0:0:
360,340,210342,2,0,P|320:320|256:324,1,95.9999970703126,8|0,0:0|0:0,0:0:0:0:
408,248,210684,2,0,P|460:248|508:216,1,95.9999970703126,4|0,0:3|0:0,0:0:0:0:
332,168,211027,2,8,L|284:174,1,47.9999985351563,8|0,0:0|0:0,0:0:0:0:
188,172,211199,38,0,B|156:136|156:136|152:80,1,95.9999970703126,0|4,0:0|0:3,0:0:0:0:
284,174,211542,1,0,0:0:0:0:
136,252,211713,1,8,0:0:0:0:
236,92,211884,1,0,0:0:0:0:
236,260,212056,1,4,0:3:0:0:
96,160,212227,1,0,0:0:0:0:
236,92,212399,2,0,B|300:80|300:80|336:92,1,95.9999970703126,8|0,0:0|0:0,0:0:0:0:
364,112,212656,1,0,0:0:0:0:
364,112,212742,22,0,P|344:62|360:8,1,95.9999970703126,4|0,0:3|0:0,0:0:0:0:
456,160,213084,1,8,0:0:0:0:
284,176,213256,1,0,0:0:0:0:
440,56,213427,1,4,0:3:0:0:
376,212,213599,1,0,0:0:0:0:
468,352,213770,1,8,0:0:0:0:
468,352,213856,1,0,0:0:0:0:
468,352,213942,38,0,P|484:300|464:244,1,95.9999970703126,0|4,0:0|0:3,0:0:0:0:
364,112,214284,1,0,0:0:0:0:
400,300,214456,1,8,0:0:0:0:
216,236,214627,2,0,P|196:189|204:144,1,95.9999970703126,0|4,0:0|0:3,0:0:0:0:
288,344,214970,1,0,0:0:0:0:
288,344,215056,1,0,0:0:0:0:
288,344,215142,2,0,P|212:316|132:340,1,143.999995605469,8|0,0:0|0:0,0:0:0:0:
120,356,215484,37,4,0:3:0:0:
300,248,215656,1,0,0:0:0:0:
120,220,215827,2,0,L|100:125,1,95.9999970703126,8|0,0:0|0:0,0:0:0:0:
288,24,216170,2,0,L|269:118,1,95.9999970703126,4|0,0:3|0:0,0:0:0:0:
228,280,216513,1,8,0:0:0:0:
228,280,216599,1,0,0:0:0:0:
228,280,216684,22,0,P|272:260|328:268,1,95.9999970703126,0|4,0:0|0:3,0:0:0:0:
432,336,217027,1,0,0:0:0:0:
484,184,217199,1,8,0:0:0:0:
328,224,217370,1,0,0:0:0:0:
504,268,217542,1,4,0:3:0:0:
344,312,217713,1,0,0:0:0:0:
396,164,217884,2,0,B|320:176|320:176|252:132,1,143.999995605469,8|0,0:0|0:0,0:0:0:0:
236,116,218227,38,0,B|224:144|224:144|240:200,1,88.000002685547,4|0,0:3|0:0,0:0:0:0:
204,272,218570,2,0,B|176:252|176:252|160:208,1,80,8|0,0:0|0:0,0:0:0:0:
88,176,218913,2,0,B|78:197|78:197|92:252,1,71.9999978027344,4|0,0:3|0:0,0:0:0:0:
60,320,219256,2,0,B|40:316|40:316|20:272,1,64,8|0,0:0|0:0,0:0:0:0:
88,176,219599,37,0,0:0:0:0:
424,176,220113,69,0,0:0:0:0:
256,256,220627,69,0,0:0:0:0:
256,72,220970,37,0,0:0:0:0:
