osu file format v14

[General]
AudioFilename: S3RL-I Will Pick You Up (FEAT TAMIKA).mp3
AudioLeadIn: 0
PreviewTime: 64971
Countdown: 0
SampleSet: Soft
StackLeniency: 0.7
Mode: 0
LetterboxInBreaks: 0
EpilepsyWarning: 1
WidescreenStoryboard: 0

[Editor]
Bookmarks: 19027,58456
DistanceSpacing: 1
BeatDivisor: 4
GridSize: 4
TimelineZoom: 1.3

[Metadata]
Title:I Will Pick You Up
TitleUnicode:I Will Pick You Up
Artist:S3RL feat Tamika
ArtistUnicode:S3RL feat Tamika
Creator:Ashasaki
Version:Normal
Source:
Tags:Emfa music Jole Hughes Tamika Miller Asagi Gero Trance Rave
BeatmapID:544994
BeatmapSetID:235093

[Difficulty]
HPDrainRate:4
CircleSize:3.5
OverallDifficulty:4
ApproachRate:5
SliderMultiplier:1
SliderTickRate:1

[Events]
//Background and Video events
0,0,"Inori.jpg",0,0
//Break Periods
2,111456,126513
2,155341,164913
//Storyboard Layer 0 (Background)
//Storyboard Layer 1 (Fail)
//Storyboard Layer 2 (Pass)
//Storyboard Layer 3 (Foreground)
Sprite,Foreground,Centre,"SB\Lyrics\mapped.png",320,240 S,0,1542,,0.4467096 M,0,1542,1884,204,282,204,257 F,0,1542,1885,0,1 M,0,1884,4284,204,257,185,257 F,0,1885,4285,1 M,2,4284,5656,185,257,-104,257 F,0,4285,,1 F,0,4285,5656,1,0
//Storyboard Sound Samples

[TimingPoints]
1542,342.857142857143,4,2,1,30,1,0
12856,-100,4,2,0,30,0,0
14913,-100,4,2,0,20,0,0
15256,-100,4,2,0,30,0,0
17827,-100,4,2,0,20,0,0
18170,-100,4,2,0,30,0,0
20227,-100,4,2,0,20,0,0
20742,-100,4,2,1,20,0,0
22113,-100,4,2,0,20,0,0
23484,-100,4,2,0,50,0,0
43713,-100,4,2,1,30,0,0
45427,-100,4,2,1,60,0,0
56399,-100,4,2,1,50,0,0
61884,-100,4,1,1,40,0,0
62570,-100,4,1,1,45,0,0
63256,-100,4,1,1,50,0,0
63942,-100,4,1,1,55,0,0
64627,-100,4,2,1,50,0,0
65999,-100,4,2,1,30,0,0
66256,-100,4,2,1,5,0,0
66342,-100,4,2,1,40,0,0
66599,-100,4,2,1,5,0,0
66684,-100,4,2,1,50,0,0
66942,-100,4,2,1,5,0,0
67027,-100,4,2,10,60,0,0
67113,-100,4,2,1,60,0,0
67284,-100,4,2,1,5,0,0
67370,-100,4,2,1,70,0,1
67456,-100,4,2,2,70,0,0
86913,-100,4,2,1,50,0,0
88113,-100,4,2,1,5,0,0
88284,-100,4,2,1,45,0,0
88456,-100,4,2,1,5,0,0
88627,-100,4,2,1,40,0,0
88799,-100,4,2,1,5,0,0
88970,-100,4,2,1,35,0,0
89142,-100,4,2,1,5,0,0
89313,-100,4,2,10,80,0,1
89399,-100,4,2,2,70,0,1
98913,-100,4,2,2,60,0,0
100284,-100,4,2,2,60,0,1
109884,-100,4,2,1,30,0,0
111256,-100,4,2,1,60,0,0
122227,-100,4,2,1,30,0,0
133199,-100,4,2,1,60,0,0
144170,-100,4,2,2,80,0,0
144513,-100,4,2,2,60,0,0
149313,-100,4,2,1,60,0,0
149656,-100,4,1,2,40,0,0
150342,-100,4,1,2,45,0,0
151027,-100,4,1,2,50,0,0
151713,-100,4,1,2,55,0,0
152399,-100,4,2,1,50,0,0
152742,-100,4,2,1,40,0,0
154799,-100,4,2,10,70,0,0
154884,-100,4,2,1,70,0,0
155056,-100,4,2,1,5,0,0
155142,-100,4,2,1,60,0,0
166113,-100,4,2,0,45,0,0
166456,-100,4,2,0,30,0,0
174342,-100,4,2,1,30,0,0
175713,-100,4,2,0,15,0,0
177084,-100,4,2,10,75,0,1
177170,-100,4,2,2,75,0,1
186684,-100,4,2,2,60,0,0
188056,-100,4,2,2,75,0,1
197656,-100,4,2,1,40,0,0
199027,-100,4,2,2,70,0,0
218227,-100,4,2,1,60,0,0
218913,-100,4,2,1,50,0,0
219256,-100,4,2,1,40,0,0
219599,-100,4,2,1,30,0,0

[Colours]
Combo1 : 51,255,51
Combo2 : 157,47,170
Combo3 : 170,164,159
Combo4 : 255,108,108
Combo5 : 72,225,218
Combo6 : 220,220,82
Combo7 : 41,115,169
Combo8 : 255,62,62

[HitObjects]
256,300,12513,85,2,0:0:0:0:
316,380,12856,1,2,0:0:0:0:
404,336,13199,2,0,P|436:300|432:232,1,100,2|0,0:0|0:0,0:0:0:0:
400,220,13713,1,0,0:0:0:0:
360,188,13884,2,0,P|363:138|395:102,2,100,2|2|2,0:0|0:0|0:0,0:0:0:0:
212,320,15256,54,0,P|188:328|160:332,1,50
112,332,15599,2,0,P|76:320|52:304,1,50,2|0,0:0|0:0,0:0:0:0:
44,268,15942,2,0,P|48:208|80:172,1,100,2|0,0:0|0:0,0:0:0:0:
116,152,16456,1,0,0:0:0:0:
164,144,16627,1,2,0:0:0:0:
256,188,16970,2,0,L|256:260,2,50,0|2|0,0:0|0:0|0:0,0:0:0:0:
256,88,17656,53,0,0:0:0:0:
344,140,17999,1,0,0:0:0:0:
356,232,18342,2,0,P|348:264|336:288,1,50,0|0,0:0|0:0,0:0:0:0:
316,324,18684,2,0,B|264:352|204:316,1,100,2|0,0:0|0:0,0:0:0:0:
176,300,19199,1,0,0:0:0:0:
128,296,19370,2,0,B|116:344|136:384,2,75,2|0|2,0:0|0:0|0:0,0:0:0:0:
268,240,20399,2,0,P|272:188|252:136,1,100,0|2,0:0|0:0,0:0:0:0:
256,144,22113,54,0,P|312:168|360:152,1,100,2|2,0:0|0:0,0:0:0:0:
316,64,22799,1,2,0:0:0:0:
216,48,23142,1,2,0:0:0:0:
120,80,23484,6,0,P|68:160|84:272,1,200,4|2,0:1|0:0,0:0:0:0:
136,344,24513,1,0,0:0:0:0:
236,328,24856,2,0,P|268:304|272:240,1,100,2|0,0:0|0:0,0:0:0:0:
176,248,25542,2,0,P|178:199|215:167,1,100,2|0,0:0|0:0,0:0:0:0:
316,156,26227,22,0,B|364:204|424:192|424:192|464:224|444:264,1,200,2|2,0:0|0:0,0:0:0:0:
392,348,27256,1,0,0:0:0:0:
312,292,27599,2,0,L|192:292,1,100,2|0,0:0|0:0,0:0:0:0:
132,352,28284,1,2,0:0:0:0:
60,284,28627,2,0,P|44:236|64:188,1,100,0|2,0:0|0:0,0:0:0:0:
356,144,29999,22,0,P|372:192|352:240,1,100,2|2,0:0|0:0,0:0:0:0:
316,268,30513,2,0,P|268:256|204:280,1,100,0|2,0:0|0:0,0:0:0:0:
160,352,31199,2,0,P|116:288|140:208,1,150,0|2,0:0|0:0,0:0:0:0:
372,44,32742,37,2,0:0:0:0:
468,76,33084,2,0,P|452:112|388:136,1,100,2|2,0:0|0:0,0:0:0:0:
300,116,33770,1,0,0:0:0:0:
212,72,34113,1,2,0:0:0:0:
120,112,34456,6,0,L|48:320,1,200,4|2,0:1|0:0,0:0:0:0:
136,356,35484,1,0,0:0:0:0:
208,284,35827,2,0,P|244:268|304:288,1,100,2|2,0:0|0:0,0:0:0:0:
392,328,36513,2,0,B|428:308|428:308|460:236,1,100,0|2,0:0|0:0,0:0:0:0:
464,156,37199,22,0,B|364:104|364:196|252:140,1,200,2|2,0:0|0:0,0:0:0:0:
180,108,38227,1,0,0:0:0:0:
92,156,38570,2,0,P|72:196|100:260,1,100,2|2,0:0|0:0,0:0:0:0:
180,208,39256,1,0,0:0:0:0:
180,108,39599,2,0,P|148:68|84:56,1,100,2|2,0:0|0:0,0:0:0:0:
240,320,40970,21,2,0:0:0:0:
336,300,41313,1,2,0:0:0:0:
336,300,41484,1,0,0:0:0:0:
432,328,41827,1,2,0:0:0:0:
468,236,42170,2,0,P|468:160|392:128,1,150,0|2,0:0|0:0,0:0:0:0:
192,332,43713,37,0,0:0:0:0:
124,256,44056,2,0,P|76:248|24:260,2,100,0|0|0,0:0|0:0|0:0,0:0:0:0:
224,240,45084,2,0,P|240:184|216:140,1,100,0|4,0:0|0:0,0:0:0:0:
136,100,45770,5,8,0:0:0:0:
220,48,46113,2,0,L|324:44,1,100,2|8,0:0|0:0,0:0:0:0:
368,60,46627,1,0,0:0:0:0:
408,88,46799,2,0,P|388:144|392:204,1,100,2|8,0:0|0:0,0:0:0:0:
464,252,47484,1,2,0:0:0:0:
372,288,47827,2,0,B|340:288|340:288|312:300|312:300|256:300,1,100,8|2,0:0|0:0,0:0:0:0:
184,344,48513,6,0,P|156:348|120:340,1,50,8|2,0:0|0:0,0:0:0:0:
88,332,48856,2,0,P|40:288|36:236,1,100,2|8,0:0|0:0,0:0:0:0:
52,208,49370,1,0,0:0:0:0:
96,180,49542,2,0,P|144:168|208:188,1,100,2|8,0:0|0:0,0:0:0:0:
272,240,50227,2,0,P|320:250|368:238,2,100,2|8|2,0:0|0:0|0:0,0:0:0:0:
192,180,51256,70,0,L|192:108,1,50,8|2,0:0|0:0,0:0:0:0:
224,92,51599,2,0,P|272:76|328:96,1,100,2|8,0:0|0:0,0:0:0:0:
364,112,52113,1,0,0:0:0:0:
396,152,52284,2,0,L|396:260,1,100,2|8,0:0|0:0,0:0:0:0:
312,308,52970,2,0,P|344:340|416:352,2,100,2|8|2,0:0|0:0|0:0,0:0:0:0:
256,224,53999,70,0,P|232:244|220:276,1,50,8|2,0:0|0:0,0:0:0:0:
200,308,54342,2,0,P|152:320|88:292,1,100,2|8,0:0|0:0,0:0:0:0:
40,228,55027,2,0,P|48:168|88:132,1,100,2|8,0:0|0:0,0:0:0:0:
120,120,55542,1,2,0:0:0:0:
164,140,55713,2,0,P|212:140|264:104,1,100,2|8,0:0|0:0,0:0:0:0:
328,48,56399,1,4,0:0:0:0:
416,100,56742,54,0,L|404:172,1,50,2|0,0:0|0:0,0:0:0:0:
400,200,57084,1,2,0:0:0:0:
336,280,57427,1,2,0:0:0:0:
260,212,57770,2,0,P|216:184|148:192,1,100,2|2,0:0|0:0,0:0:0:0:
96,252,58456,2,0,P|140:280|208:272,1,100,2|2,0:0|0:0,0:0:0:0:
260,212,59142,1,2,0:0:0:0:
336,280,59484,54,0,P|376:276|400:264,1,50,2|0,0:0|0:0,0:0:0:0:
432,252,59827,2,0,P|452:204|440:152,1,100,2|2,0:0|0:0,0:0:0:0:
420,112,60342,1,0,0:0:0:0:
384,76,60513,2,0,L|276:84,1,100,2|2,0:0|0:0,0:0:0:0:
188,52,61199,2,0,L|80:60,1,100,2|2,0:0|0:0,0:0:0:0:
8,116,61884,1,2,0:2:0:0:
24,216,62227,38,0,L|76:232,1,50,2|2,0:2|0:2,0:0:0:0:
96,188,62570,2,0,L|148:204,1,50,2|2,0:2|0:2,0:0:0:0:
172,160,62913,2,0,B|208:176|208:176|232:196|236:248,1,100,2|2,0:2|0:2,0:0:0:0:
256,328,63599,1,2,0:2:0:0:
340,272,63942,2,0,B|352:224|352:224|336:160,1,100,2|2,0:2|0:2,0:0:0:0:
256,116,64627,1,4,1:0:0:0:
184,184,64970,86,0,B|156:156|160:128|160:128,1,50,0|0,0:0|0:0,0:0:0:0:
160,92,65313,1,0,0:0:0:0:
184,48,65484,1,0,0:0:0:0:
228,24,65656,2,0,P|268:20|296:28,1,50,0|0,0:0|0:0,0:0:0:0:
324,44,65999,1,0,0:0:0:0:
396,116,66342,1,0,0:0:0:0:
372,212,66684,1,0,0:0:0:0:
276,236,67027,2,0,P|224:224|168:244,1,100,4|4,0:0|0:1,0:0:0:0:
136,328,67713,70,0,L|20:340,2,100,8|4|8,0:0|0:3|0:0,0:0:0:0:
184,324,68570,1,0,0:0:0:0:
284,332,68913,2,0,P|344:308|364:264,1,100,0|0,0:0|0:0,0:0:0:0:
356,180,69599,1,0,0:0:0:0:
316,148,69770,2,0,B|256:164|256:164|204:152,1,100,8|4,0:0|0:3,0:0:0:0:
152,80,70456,6,0,P|120:120|124:184,2,100,8|4|8,0:0|0:3|0:0,0:0:0:0:
196,60,71313,2,0,L|300:48,1,100,0|0,0:0|0:0,0:0:0:0:
392,80,71999,2,0,P|436:120|452:176,1,100,0|0,0:0|0:0,0:0:0:0:
428,204,72513,2,0,P|380:212|328:252,1,100,8|4,0:0|0:3,0:0:0:0:
348,340,73199,5,8,0:0:0:0:
256,300,73542,1,4,0:3:0:0:
164,340,73884,1,8,0:0:0:0:
116,324,74056,2,0,B|68:304|68:304|36:244,1,100,0|0,0:0|0:0,0:0:0:0:
116,192,74742,2,0,B|156:192|156:192|216:148,1,100,0|0,0:0|0:0,0:0:0:0:
248,180,75256,2,0,P|304:192|352:160,1,100,8|4,0:0|0:3,0:0:0:0:
388,84,75942,38,0,P|444:92|476:120,2,100,8|4|8,0:0|0:3|0:0,0:0:0:0:
336,88,76799,2,0,P|272:76|244:48,1,100,0|0,0:0|0:0,0:0:0:0:
148,48,77484,1,0,0:0:0:0:
68,108,77827,1,0,0:0:0:0:
40,148,77999,2,0,P|24:204|48:248,1,100,8|4,0:0|0:1,0:0:0:0:
96,324,78684,37,8,0:0:0:0:
196,312,79027,1,4,0:3:0:0:
296,300,79370,1,8,0:0:0:0:
344,308,79542,2,0,P|400:292|436:244,1,100,0|0,0:0|0:0,0:0:0:0:
344,208,80227,2,0,P|324:156|348:108,1,100,0|0,0:0|0:0,0:0:0:0:
356,72,80742,2,0,B|288:88|288:88|244:80,1,100,8|4,0:0|0:3,0:0:0:0:
168,56,81427,5,8,0:0:0:0:
104,132,81770,1,4,0:3:0:0:
40,208,82113,1,8,0:0:0:0:
28,256,82284,2,0,P|20:316|40:360,1,100,0|0,0:0|0:0,0:0:0:0:
136,344,82970,2,0,P|192:328|236:344,1,100,0|0,0:0|0:0,0:0:0:0:
280,348,83484,2,0,P|272:296|308:248,1,100,8|4,0:0|0:3,0:0:0:0:
384,212,84170,6,0,L|500:208,2,100,8|4|8,0:0|0:3|0:0,0:0:0:0:
332,212,85027,2,0,P|288:176|276:124,1,100,0|0,0:0|0:0,0:0:0:0:
300,40,85713,2,0,B|248:40|248:40|188:64,1,100,0|0,0:0|0:0,0:0:0:0:
172,96,86227,2,0,B|160:144|160:144|176:196,1,100,8|4,0:0|0:3,0:0:0:0:
84,236,86913,38,0,L|120:336,2,100,8|4|8,0:0|0:3|0:0,0:0:0:0:
60,148,87942,1,0,0:0:0:0:
160,148,88284,1,0,0:0:0:0:
260,148,88627,1,0,0:0:0:0:
360,148,88970,1,0,0:0:0:0:
460,148,89313,38,0,P|480:200|456:248,1,100,4|8,0:0|0:0,0:0:0:0:
388,304,89999,1,4,0:3:0:0:
308,244,90342,1,8,0:0:0:0:
228,304,90684,2,0,P|188:348|128:356,2,100,4|8|4,0:3|0:0|0:3,0:0:0:0:
140,260,91713,2,0,P|112:268|88:284,1,50,8|0,0:0|0:0,0:0:0:0:
56,316,92056,6,0,P|12:240|28:120,1,200,4|4,0:3|0:3,0:0:0:0:
104,76,93084,1,8,0:0:0:0:
156,160,93427,2,0,L|140:268,1,100,4|8,0:3|0:0,0:0:0:0:
220,324,94113,2,0,L|232:256,1,50,4|0,0:3|0:0,0:0:0:0:
256,232,94456,2,0,L|268:164,1,50,8|0,0:0|0:0,0:0:0:0:
288,132,94799,5,4,0:3:0:0:
372,76,95142,1,8,0:0:0:0:
448,140,95484,1,4,0:3:0:0:
416,236,95827,1,8,0:0:0:0:
416,236,95999,2,0,P|356:232|320:268,1,100,0|0,0:0|0:0,0:0:0:0:
256,324,96684,1,0,0:0:0:0:
184,256,97027,1,0,0:0:0:0:
184,256,97199,2,0,B|116:260|116:260|76:236,1,100,8|4,0:0|0:3,0:0:0:0:
92,144,97884,37,8,0:0:0:0:
176,88,98227,1,4,0:3:0:0:
256,152,98570,1,8,0:0:0:0:
256,252,98913,2,0,P|320:228|344:196,1,100,4|8,0:3|0:0,0:0:0:0:
368,108,99599,1,4,0:3:0:0:
276,64,99942,1,8,0:0:0:0:
176,88,100284,38,0,L|80:272,1,200,4|4,0:1|0:3,0:0:0:0:
96,364,101313,1,8,0:0:0:0:
188,320,101656,2,0,P|236:308|296:324,1,100,4|8,0:3|0:0,0:0:0:0:
380,344,102342,2,0,P|384:288|356:248,1,100,4|8,0:3|0:0,0:0:0:0:
312,236,102856,1,0,0:0:0:0:
264,220,103027,6,0,P|272:128|356:160,1,200,4|4,0:3|0:3,0:0:0:0:
360,252,104056,1,8,0:0:0:0:
284,320,104399,2,0,L|176:324,1,100,4|8,0:3|0:0,0:0:0:0:
84,340,105084,2,0,P|60:320|44:292,1,50,4|0,0:3|0:0,0:0:0:0:
24,260,105427,2,0,P|16:228|16:200,1,50,8|0,0:0|0:0,0:0:0:0:
32,164,105770,5,4,0:3:0:0:
88,80,106113,1,8,0:0:0:0:
184,112,106456,1,4,0:3:0:0:
188,212,106799,1,8,0:0:0:0:
192,260,106970,2,0,P|208:288|236:312,1,50,0|4,0:0|0:3,0:0:0:0:
268,316,107313,2,0,P|320:312|372:336,1,100,0|0,0:0|0:0,0:0:0:0:
452,344,107999,1,0,0:0:0:0:
452,344,108170,2,0,P|472:288|464:240,1,100,8|4,0:0|0:3,0:0:0:0:
384,192,108856,38,0,L|280:236,2,100,8|4|8,0:0|0:3|0:0,0:0:0:0:
476,156,109884,1,0,0:0:0:0:
396,96,110227,1,0,0:0:0:0:
304,132,110570,1,0,0:0:0:0:
292,232,110913,1,0,0:0:0:0:
372,292,111256,5,4,0:1:0:0:
256,192,127713,12,4,131827,0:1:0:0:
260,264,133199,54,0,P|249:312|269:357,1,100,4|8,0:1|0:0,0:0:0:0:
368,356,133884,2,0,P|388:300|376:260,1,100,2|8,0:0|0:0,0:0:0:0:
356,216,134399,1,0,0:0:0:0:
320,180,134570,2,0,L|204:188,2,100,2|8|2,0:0|0:0|0:0,0:0:0:0:
416,148,135599,2,0,P|396:112|344:84,1,100,8|2,0:0|0:0,0:0:0:0:
244,96,136284,85,8,0:0:0:0:
144,84,136627,2,0,P|92:108|64:156,1,100,2|8,0:0|0:0,0:0:0:0:
52,192,137142,1,0,0:0:0:0:
68,244,137313,2,0,P|97:283|144:304,1,100,2|8,0:0|0:0,0:0:0:0:
160,204,137999,2,0,B|264:164|264:248|364:200,1,200,2|2,0:0|0:0,0:0:0:0:
404,116,139027,22,0,P|440:152|456:216,2,100,8|2|8,0:0|0:0|0:0,0:0:0:0:
364,84,139884,1,0,0:0:0:0:
316,68,140056,1,2,0:0:0:0:
256,148,140399,1,8,0:0:0:0:
196,68,140742,2,0,P|164:104|224:240,1,200,2|2,0:0|0:0,0:0:0:0:
256,148,141770,86,0,L|312:180,1,50,8|2,0:0|0:0,0:0:0:0:
336,204,142113,2,0,P|340:240|336:260,1,50,2|0,0:0|0:0,0:0:0:0:
308,296,142456,1,8,0:0:0:0:
208,296,142799,2,0,B|160:312|160:312|108:292,1,100,2|8,0:0|0:0,0:0:0:0:
68,272,143313,1,2,0:0:0:0:
32,236,143484,2,0,P|16:184|36:132,1,100,2|8,0:0|0:0,0:0:0:0:
84,56,144170,53,4,0:1:0:0:
172,108,144513,2,0,L|228:80,2,50,8|0|4,0:0|0:0|0:3,0:0:0:0:
216,200,145199,2,0,L|280:196,2,50,8|0|4,0:0|0:0|0:3,0:0:0:0:
136,260,145884,1,8,0:0:0:0:
212,324,146227,2,0,B|256:344|256:344|316:320,1,100,4|8,0:3|0:0,0:0:0:0:
396,288,146913,5,4,0:3:0:0:
460,212,147256,2,0,P|444:184|420:164,1,50,8|0,0:0|0:0,0:0:0:0:
388,140,147599,2,0,B|340:120|340:120|292:140,1,100,4|8,0:3|0:0,0:0:0:0:
256,168,148113,1,0,0:0:0:0:
212,196,148284,1,4,0:3:0:0:
124,148,148627,2,0,L|93:52,2,100,8|4|8,0:0|0:3|0:0,0:0:0:0:
36,196,149656,86,0,L|68:296,1,100,4|8,0:3|0:2,0:0:0:0:
108,320,150170,1,0,0:0:0:0:
156,340,150342,2,0,P|188:344|224:336,1,50,4|0,0:3|0:0,0:0:0:0:
256,332,150684,1,8,0:2:0:0:
348,288,151027,2,0,L|464:304,2,100,4|8|4,0:3|0:2|0:3,0:0:0:0:
292,204,152056,2,0,P|276:156|284:108,1,100,8|2,0:2|0:0,0:0:0:0:
200,52,152742,38,0,L|152:72,1,50,2|0,0:0|0:0,0:0:0:0:
120,108,153084,1,2,0:0:0:0:
104,156,153256,1,0,0:0:0:0:
120,204,153427,2,0,P|136:224|160:240,1,50,2|0,0:0|0:0,0:0:0:0:
204,248,153770,1,0,0:0:0:0:
304,248,154113,1,0,0:0:0:0:
368,172,154456,1,0,0:0:0:0:
304,96,154799,22,0,P|257:81|210:97,1,100,4|4,0:0|0:1,0:0:0:0:
256,232,166113,5,4,0:1:0:0:
208,320,166456,1,2,0:0:0:0:
308,320,166799,2,0,P|348:292|356:232,1,100,2|0,0:0|0:0,0:0:0:0:
352,196,167313,1,0,0:0:0:0:
324,152,167484,2,0,L|376:52,2,100,2|2|2,0:0|0:0|0:0,0:0:0:0:
224,156,168513,2,0,P|176:144|124:100,1,100,2|0,0:0|0:0,0:0:0:0:
68,40,169199,69,2,0:0:0:0:
36,136,169542,2,0,L|24:248,1,100,2|0,0:0|0:0,0:0:0:0:
40,284,170056,1,0,0:0:0:0:
76,320,170227,2,0,P|128:336|176:328,1,100,2|0,0:0|0:0,0:0:0:0:
220,308,170742,1,2,0:0:0:0:
284,172,171256,2,0,L|324:64,1,100,2|0,0:0|0:0,0:0:0:0:
416,52,171942,37,2,0:0:0:0:
440,96,172113,1,0,0:0:0:0:
456,144,172284,2,0,P|472:192|448:252,1,100,2|0,0:0|0:0,0:0:0:0:
420,268,172799,1,0,0:0:0:0:
376,292,172970,2,0,B|340:304|340:304|292:288,2,75,2|0|2,0:0|0:0|0:0,0:0:0:0:
256,200,173999,2,0,L|256:84,1,100,2|2,0:0|0:0,0:0:0:0:
212,56,175713,69,2,0:0:0:0:
304,100,176056,1,2,0:0:0:0:
212,144,176399,1,2,0:0:0:0:
304,188,176742,1,2,0:0:0:0:
216,236,177084,6,0,P|116:292|32:248,1,200,4|4,0:0|0:3,0:0:0:0:
16,164,178113,1,8,0:0:0:0:
76,84,178456,2,0,B|124:68|124:68|184:88,1,100,4|8,0:3|0:0,0:0:0:0:
252,144,179142,1,4,0:3:0:0:
216,236,179484,2,0,P|200:260|192:292,1,50,8|0,0:0|0:0,0:0:0:0:
196,332,179827,22,0,B|248:356|248:356|288:344|288:344|332:376|388:356,1,200,4|4,0:3|0:3,0:0:0:0:
436,272,180856,1,8,0:0:0:0:
480,184,181199,2,0,B|492:132|492:132|476:72,1,100,4|8,0:3|0:0,0:0:0:0:
388,44,181884,2,0,L|332:72,1,50,4|0,0:3|0:0,0:0:0:0:
296,48,182227,2,0,L|240:76,1,50,8|0,0:0|0:0,0:0:0:0:
204,52,182570,69,4,0:3:0:0:
108,80,182913,1,8,0:0:0:0:
56,164,183256,1,4,0:3:0:0:
72,264,183599,2,0,P|92:288|120:304,1,50,8|0,0:0|0:3,0:0:0:0:
208,308,184113,2,0,B|272:308|272:308|304:328,1,100,0|0,0:0|0:0,0:0:0:0:
396,364,184799,1,0,0:0:0:0:
444,344,184970,2,0,P|464:292|440:240,1,100,8|4,0:0|0:3,0:0:0:0:
404,156,185656,6,0,P|472:148|516:168,2,100,8|4|8,0:0|0:3|0:0,0:0:0:0:
340,232,186684,2,0,P|288:248|232:220,1,100,4|8,0:3|0:0,0:0:0:0:
176,164,187370,1,4,0:3:0:0:
180,64,187713,1,8,0:0:0:0:
264,120,188056,22,0,P|268:200|168:256,1,200,4|4,0:1|0:3,0:0:0:0:
76,240,189084,1,8,0:0:0:0:
116,332,189427,2,0,P|160:360|216:368,1,100,4|8,0:3|0:0,0:0:0:0:
308,368,190113,2,0,P|356:358|398:331,1,100,4|8,0:3|0:0,0:0:0:0:
338,251,190799,70,0,P|250:203|166:267,1,200,4|4,0:3|0:3,0:0:0:0:
116,332,191827,1,8,0:0:0:0:
36,272,192170,2,0,P|24:228|40:168,1,100,4|8,0:3|0:0,0:0:0:0:
124,132,192856,2,0,P|126:107|121:78,1,50,4|0,0:3|0:0,0:0:0:0:
87,47,193199,2,0,P|57:44|19:55,1,50,8|0,0:0|0:0,0:0:0:0:
0,82,193542,5,4,0:3:0:0:
36,176,193884,1,8,0:0:0:0:
124,220,194227,1,4,0:3:0:0:
212,184,194570,1,8,0:0:0:0:
260,164,194742,2,0,B|304:144|304:144|360:168,1,100,0|0,0:0|0:0,0:0:0:0:
420,240,195427,2,0,P|376:276|328:288,1,100,0|0,0:0|0:0,0:0:0:0:
288,272,195942,2,0,P|236:280|180:320,1,100,8|4,0:0|0:3,0:0:0:0:
116,368,196627,21,8,0:0:0:0:
40,304,196970,1,4,0:3:0:0:
120,240,197313,1,8,0:0:0:0:
196,304,197656,2,0,P|248:328|292:316,2,100,0|0|0,0:3|0:0|0:0,0:0:0:0:
256,224,198684,1,0,0:0:0:0:
256,124,199027,101,4,0:1:0:0:
344,72,199370,1,8,0:0:0:0:
428,124,199713,2,0,B|440:176|440:176|420:240,1,100,4|8,0:3|0:0,0:0:0:0:
404,264,200227,1,0,0:0:0:0:
368,300,200399,2,0,P|324:324|272:320,1,100,4|8,0:3|0:0,0:0:0:0:
228,308,200913,1,0,0:0:0:0:
128,308,201256,1,0,0:0:0:0:
80,316,201427,2,0,B|36:288|36:288|24:236,1,100,8|4,0:0|0:3,0:0:0:0:
28,140,202113,21,8,0:0:0:0:
128,156,202456,1,4,0:3:0:0:
200,88,202799,2,0,P|232:80|268:84,1,50,8|0,0:0|0:0,0:0:0:0:
300,88,203142,1,4,0:3:0:0:
396,120,203484,1,8,0:0:0:0:
440,148,203656,2,0,P|456:200|440:264,1,100,0|0,0:0|0:0,0:0:0:0:
432,292,204170,1,8,0:0:0:0:
348,348,204513,37,4,0:3:0:0:
256,304,204856,1,8,0:0:0:0:
164,348,205199,2,0,B|112:348|112:348|52:320,2,100,4|8|4,0:3|0:0|0:3,0:0:0:0:
256,304,206227,2,0,L|256:248,1,50,8|0,0:0|0:0,0:0:0:0:
156,248,206742,2,0,L|156:192,1,50,0|8,0:0|0:0,0:0:0:0:
56,188,207256,6,0,L|56:84,1,100,4|8,0:3|0:0,0:0:0:0:
156,72,207942,2,0,P|184:120|240:140,1,100,4|8,0:3|0:0,0:0:0:0:
272,140,208456,1,0,0:0:0:0:
320,128,208627,1,4,0:3:0:0:
420,140,208970,2,0,P|440:164|448:184,1,50,8|0,0:0|0:0,0:0:0:0:
432,280,209484,2,0,P|416:300|384:316,1,50,0|8,0:0|0:0,0:0:0:0:
352,216,209999,22,0,P|312:248|292:304,1,100,4|8,0:0|0:0,0:0:0:0:
216,356,210684,2,0,P|199:309|160:279,1,100,4|8,0:3|0:0,0:0:0:0:
112,268,211199,1,0,0:0:0:0:
64,256,211370,2,0,B|44:208|44:208|68:156,1,100,4|8,0:3|0:0,0:0:0:0:
100,132,211884,2,0,P|136:148|208:120,1,100,0|0,0:0|0:0,0:0:0:0:
232,104,212399,2,0,B|276:80|276:80|328:104,1,100,8|4,0:0|0:3,0:0:0:0:
412,144,213084,21,8,0:0:0:0:
328,200,213427,1,4,0:3:0:0:
416,244,213770,1,8,0:0:0:0:
332,300,214113,2,0,B|308:328|308:328|236:348,1,100,4|8,0:3|0:0,0:0:0:0:
196,352,214627,2,0,B|156:320|156:320|92:320,1,100,0|0,0:0|0:0,0:0:0:0:
72,284,215142,2,0,P|28:240|24:184,1,100,8|4,0:0|0:3,0:0:0:0:
64,116,215827,37,8,0:0:0:0:
140,184,216170,2,0,L|244:184,1,100,4|8,0:3|0:0,0:0:0:0:
212,88,216856,2,0,L|320:88,1,100,4|8,0:3|0:0,0:0:0:0:
364,88,217370,1,0,0:0:0:0:
432,160,217713,1,0,0:0:0:0:
432,208,217884,2,0,P|408:256|360:288,1,100,8|4,0:0|0:3,0:0:0:0:
308,364,218570,5,8,0:0:0:0:
208,364,218913,1,4,0:3:0:0:
144,284,219256,1,8,0:0:0:0:
212,212,219599,21,0,0:0:0:0:
256,68,220113,1,0,0:0:0:0:
304,212,220627,2,0,B|256:232|256:232|200:208,1,100,0|0,0:0|0:0,0:0:0:0:
