osu file format v14

[General]
AudioFilename: S3RL-I Will Pick You Up (FEAT TAMIKA).mp3
AudioLeadIn: 0
PreviewTime: 64971
Countdown: 0
SampleSet: Soft
StackLeniency: 0.7
Mode: 0
LetterboxInBreaks: 0
EpilepsyWarning: 1
WidescreenStoryboard: 0

[Editor]
Bookmarks: 19027,58456
DistanceSpacing: 1
BeatDivisor: 2
GridSize: 4
TimelineZoom: 0.7999998

[Metadata]
Title:I Will Pick You Up
TitleUnicode:I Will Pick You Up
Artist:S3RL feat Tamika
ArtistUnicode:S3RL feat Tamika
Creator:Ashasaki
Version:Easy
Source:
Tags:Emfa music Jole Hughes Tamika Miller Asagi Gero Trance Rave
BeatmapID:545651
BeatmapSetID:235093

[Difficulty]
HPDrainRate:2
CircleSize:3
OverallDifficulty:2
ApproachRate:3
SliderMultiplier:0.8
SliderTickRate:1

[Events]
//Background and Video events
0,0,"Inori.jpg",0,0
//Break Periods
2,111456,126273
2,155341,164673
//Storyboard Layer 0 (Background)
//Storyboard Layer 1 (Fail)
//Storyboard Layer 2 (Pass)
//Storyboard Layer 3 (Foreground)
Sprite,Foreground,Centre,"SB\Lyrics\mapped.png",320,240 S,0,1542,,0.4467096 M,0,1542,1884,204,282,204,257 F,0,1542,1885,0,1 M,0,1884,4284,204,257,185,257 F,0,1885,4285,1 M,2,4284,5656,185,257,-104,257 F,0,4285,,1 F,0,4285,5656,1,0
//Storyboard Sound Samples

[TimingPoints]
1542,342.857142857143,4,2,1,30,1,0
13884,-100,4,2,0,30,0,0
17827,-100,4,2,0,20,0,0
18170,-100,4,2,0,30,0,0
20227,-100,4,2,0,20,0,0
20742,-100,4,2,1,20,0,0
22113,-100,4,2,0,20,0,0
23484,-100,4,2,0,50,0,0
43713,-100,4,2,1,50,0,0
45427,-100,4,2,1,60,0,0
56399,-100,4,2,1,50,0,0
61884,-100,4,1,1,40,0,0
62570,-100,4,1,1,45,0,0
63256,-100,4,1,1,50,0,0
63942,-100,4,1,1,55,0,0
64627,-100,4,2,1,50,0,0
65999,-100,4,2,1,30,0,0
66342,-100,4,2,1,40,0,0
66684,-100,4,2,1,50,0,0
67027,-100,4,2,10,60,0,0
67113,-100,4,2,1,60,0,0
67370,-100,4,2,1,70,0,1
67456,-100,4,2,2,70,0,0
86913,-100,4,2,1,50,0,0
87942,-100,4,2,1,50,0,0
88113,-100,4,2,1,5,0,0
88284,-100,4,2,1,40,0,0
88456,-100,4,2,1,5,0,0
88627,-100,4,2,1,30,0,0
88799,-100,4,2,1,5,0,0
88970,-100,4,2,1,20,0,0
89313,-100,4,2,10,80,0,1
89399,-100,4,2,2,70,0,1
98913,-100,4,2,2,60,0,0
100284,-100,4,2,2,60,0,1
109884,-100,4,2,1,30,0,0
111256,-100,4,2,1,60,0,0
144170,-100,4,2,2,80,0,0
144513,-100,4,2,2,60,0,0
149313,-100,4,2,1,60,0,0
149656,-100,4,1,2,40,0,0
150342,-100,4,1,2,45,0,0
151027,-100,4,1,2,50,0,0
151713,-100,4,1,2,55,0,0
152399,-100,4,2,1,50,0,0
152742,-100,4,2,1,40,0,0
154799,-100,4,2,10,70,0,0
154884,-100,4,2,1,70,0,0
155142,-100,4,2,1,60,0,0
166113,-100,4,2,0,50,0,0
168513,-100,4,2,0,30,0,0
174342,-100,4,2,1,30,0,0
175713,-100,4,2,0,15,0,0
177084,-100,4,2,10,75,0,1
177170,-100,4,2,2,75,0,1
186684,-100,4,2,2,60,0,0
188056,-100,4,2,2,75,0,1
197656,-100,4,2,1,40,0,0
199027,-100,4,2,2,70,0,0
218227,-100,4,2,1,60,0,0
218913,-100,4,2,1,50,0,0
219256,-100,4,2,1,40,0,0
219599,-100,4,2,1,30,0,0

[Colours]
Combo1 : 51,255,51
Combo2 : 157,47,170
Combo3 : 170,164,159
Combo4 : 255,108,108
Combo5 : 72,225,218
Combo6 : 220,220,82
Combo7 : 41,115,169
Combo8 : 255,62,62

[HitObjects]
8,204,12513,86,0,P|-12:300|172:344,1,320,2|2,0:0|0:0,0:0:0:0:
216,292,14227,2,0,P|264:272|304:280,1,80,2|2,0:0|0:0,0:0:0:0:
436,340,15256,54,0,B|464:288|464:288|424:240|448:180,1,160,2|2,0:0|0:0,0:0:0:0:
466,116,16284,1,0,0:0:0:0:
392,84,16627,2,0,B|344:72|328:40|328:40|316:72|240:92,1,160,2|0,0:0|0:0,0:0:0:0:
132,172,17999,54,0,P|76:168|32:80,1,160,0|2,0:0|0:0,0:0:0:0:
112,92,19027,1,0,0:0:0:0:
192,108,19370,2,0,P|216:156|204:220,2,120,2|2|0,0:0|0:0|0:0,0:0:0:0:
132,172,20742,1,2,0:0:0:0:
196,232,22113,54,0,P|272:208|288:132,1,160,2|2,0:0|0:0,0:0:0:0:
208,148,23142,1,2,0:0:0:0:
132,172,23484,6,0,P|108:220|176:316,1,160,4|2,0:1|0:0,0:0:0:0:
220,356,24513,1,0,0:0:0:0:
292,316,24856,22,0,P|336:300|380:280,1,80,2|0,0:0|0:0,0:0:0:0:
376,208,25542,2,0,P|368:152|392:112,1,80,2|0,0:0|0:0,0:0:0:0:
448,168,26227,2,0,P|476:244|352:368,1,240,2|0,0:0|0:0,0:0:0:0:
308,364,27599,22,0,B|264:348|256:308|256:308|244:348|196:368,1,160,2|2,0:0|0:0,0:0:0:0:
124,364,28627,2,0,P|92:340|68:268,1,80,0|2,0:0|0:0,0:0:0:0:
292,208,29999,21,2,0:0:0:0:
368,180,30342,2,0,P|360:248|320:284,2,120,2|2|0,0:0|0:0|0:0,0:0:0:0:
304,128,31713,1,2,0:0:0:0:
188,340,32742,5,2,0:0:0:0:
128,288,33084,2,0,P|80:212|132:72,1,240,2|2,0:0|0:0,0:0:0:0:
184,132,34456,6,0,P|160:176|276:156,1,240,4|0,0:1|0:0,0:0:0:0:
312,112,35827,2,0,P|344:88|396:80,1,80,2|2,0:0|0:0,0:0:0:0:
444,128,36513,2,0,P|452:168|436:224,1,80,0|2,0:0|0:0,0:0:0:0:
388,260,37199,2,0,B|264:324|264:208|144:284,1,240,2|0,0:0|0:0,0:0:0:0:
144,356,38570,22,0,P|88:316|104:216,1,160,2|0,0:0|0:0,0:0:0:0:
160,188,39599,2,0,P|184:148|184:92,1,80,2|2,0:0|0:0,0:0:0:0:
424,64,40970,21,2,0:0:0:0:
460,136,41313,2,0,B|480:192|480:192|456:260,2,120,2|2|0,0:0|0:0|0:0,0:0:0:0:
380,136,42684,37,2,0:0:0:0:
256,344,43713,1,0,0:0:0:0:
216,272,44056,2,0,P|184:300|180:364,2,80,0|0|0,0:0|0:0|0:0,0:0:0:0:
296,272,45084,1,0,0:0:0:0:
340,340,45427,6,0,L|444:368,1,80,4|8,0:0|0:0,0:0:0:0:
460,296,46113,2,0,P|472:256|464:200,1,80,2|8,0:0|0:0,0:0:0:0:
448,140,46799,2,0,B|408:128|408:128|348:168|288:116,1,160,2|2,0:0|0:0,0:0:0:0:
244,64,47827,2,0,P|196:92|164:92,1,80,8|2,0:0|0:0,0:0:0:0:
96,64,48513,6,0,L|8:24,2,80,8|2|8,0:0|0:0|0:0,0:0:0:0:
172,92,49542,1,2,0:0:0:0:
204,164,49884,1,8,0:0:0:0:
196,244,50227,2,0,P|264:288|316:239,1,160,2|2,0:0|0:0,0:0:0:0:
308,164,51256,69,8,0:0:0:0:
340,92,51599,2,0,B|380:92|380:92|420:124,1,80,2|8,0:0|0:0,0:0:0:0:
460,180,52284,2,0,P|460:284|316:292,1,240,2|8,0:0|0:0,0:0:0:0:
280,268,53656,1,2,0:0:0:0:
256,192,53999,69,8,0:0:0:0:
220,120,54342,2,0,B|256:104|256:104|296:120,1,80,2|8,0:0|0:0,0:0:0:0:
336,188,55027,2,0,B|340:224|332:252|332:252|284:252|256:300|256:300|228:252|180:252|180:252|168:224|176:180,1,320,2|4,0:0|0:0,0:0:0:0:
140,116,56742,54,0,L|36:96,2,80,2|2|2,0:0|0:0|0:0,0:0:0:0:
176,188,57770,2,0,L|140:276,2,80,2|2|2,0:0|0:0|0:0,0:0:0:0:
220,120,58799,2,0,P|257:108|297:122,1,80,2|2,0:0|0:0,0:0:0:0:
336,188,59484,54,0,L|366:262,2,80,2|2|2,0:0|0:0|0:0,0:0:0:0:
372,116,60513,2,0,L|450:100,2,80,2|2|2,0:0|0:0|0:0,0:0:0:0:
294,120,61542,2,0,P|257:108|220:120,1,80,2|2,0:0|0:2,0:0:0:0:
144,140,62227,38,0,L|112:236,1,80,2|2,0:2|0:2,0:0:0:0:
120,296,62913,1,2,0:2:0:0:
188,336,63256,2,0,P|316:328|292:228,1,240,2|2,0:2|0:2,0:0:0:0:
256,188,64627,1,4,1:0:0:0:
220,116,64970,86,0,L|128:116,2,80,0|0|0,0:0|0:0|0:0,0:0:0:0:
288,72,65999,2,0,L|400:72,2,80,0|0|0,0:0|0:0|0:0,0:0:0:0:
256,148,67027,1,4,0:0:0:0:
256,228,67370,70,0,L|296:304,1,80,4|8,0:1|0:0,0:0:0:0:
356,348,68056,2,0,P|408:352|448:340,1,80,4|8,0:3|0:0,0:0:0:0:
464,272,68742,2,0,P|484:188|444:92,1,160,4|4,0:3|0:3,0:0:0:0:
400,72,69770,2,0,P|364:56|308:60,1,80,8|4,0:0|0:3,0:0:0:0:
256,100,70456,5,8,0:0:0:0:
180,76,70799,1,4,0:3:0:0:
128,136,71142,2,0,B|116:176|116:176|136:232,1,80,8|4,0:0|0:3,0:0:0:0:
172,276,71827,2,0,P|200:320|248:336,1,80,8|4,0:0|0:3,0:0:0:0:
300,348,72513,1,8,0:0:0:0:
376,328,72856,6,0,P|396:304|392:224,1,80,4|8,0:3|0:0,0:0:0:0:
360,188,73542,1,4,0:3:0:0:
280,192,73884,1,8,0:0:0:0:
240,260,74227,2,0,B|188:260|188:260|148:288|148:288|84:288,2,160,4|4|4,0:3|0:3|0:3,0:0:0:0:
304,212,75942,38,0,B|320:172|296:120,1,80,8|4,0:0|0:3,0:0:0:0:
236,88,76627,1,8,0:0:0:0:
200,160,76970,2,0,P|116:188|64:124,1,160,4|4,0:3|0:3,0:0:0:0:
140,108,77999,2,0,L|180:16,1,80,8|4,0:0|0:1,0:0:0:0:
236,88,78684,38,0,L|324:80,2,80,8|4|8,0:0|0:3|0:0,0:0:0:0:
200,160,79713,2,0,L|212:268,1,80,4|8,0:3|0:0,0:0:0:0:
128,232,80399,2,0,L|140:340,1,80,4|8,0:3|0:0,0:0:0:0:
56,304,81084,5,4,0:3:0:0:
24,232,81427,2,0,P|16:180|32:120,1,80,8|4,0:0|0:3,0:0:0:0:
76,96,82113,1,8,0:0:0:0:
140,144,82456,2,0,B|220:180|220:100|316:156,2,160,4|4|4,0:3|0:3|0:3,0:0:0:0:
180,72,84170,5,8,0:0:0:0:
256,52,84513,1,4,0:3:0:0:
332,76,84856,2,0,P|368:116|368:164,1,80,8|4,0:0|0:3,0:0:0:0:
336,212,85542,2,0,B|324:252|324:252|344:304,1,80,8|4,0:0|0:3,0:0:0:0:
408,252,86227,1,8,0:0:0:0:
484,224,86570,38,0,P|480:292|384:332,1,160,4|4,0:3|0:3,0:0:0:0:
328,340,87599,1,8,0:0:0:0:
256,304,87942,2,0,B|128:208|136:360|16:296,1,240,0|0,0:0|0:0,0:0:0:0:
72,232,89313,38,0,P|192:192|300:240,1,240,4|8,0:0|0:0,0:0:0:0:
340,300,90684,2,0,P|388:320|428:308,1,80,4|8,0:3|0:0,0:0:0:0:
472,260,91370,2,0,P|464:212|480:160,1,80,4|8,0:3|0:0,0:0:0:0:
428,112,92056,6,0,B|360:104|320:60|320:60|280:104|200:116,1,240,4|8,0:3|0:0,0:0:0:0:
136,108,93427,2,0,P|152:160|184:188,2,80,4|8|4,0:3|0:0|0:3,0:0:0:0:
68,68,94456,2,0,P|32:96|16:136,1,80,8|4,0:0|0:3,0:0:0:0:
20,208,95142,2,0,P|38:243|70:266,1,80,8|4,0:0|0:3,0:0:0:0:
140,228,95827,5,8,0:0:0:0:
204,276,96170,2,0,P|240:312|328:296,2,120,4|0|8,0:3|0:0|0:0,0:0:0:0:
275,238,97542,1,4,0:3:0:0:
356,236,97884,2,0,B|396:232|396:232|428:180,1,80,8|4,0:0|0:3,0:0:0:0:
440,120,98570,37,8,0:0:0:0:
480,48,98913,2,0,B|400:20|364:92|364:92|252:92,1,240,4|8,0:3|0:0,0:0:0:0:
184,108,100284,38,0,P|112:148|140:296,1,240,4|8,0:1|0:0,0:0:0:0:
200,248,101656,2,0,P|212:296|180:352,2,80,4|8|4,0:3|0:0|0:3,0:0:0:0:
256,188,102684,1,8,0:0:0:0:
312,244,103027,6,0,P|304:308|448:324,1,240,4|8,0:3|0:0,0:0:0:0:
380,284,104399,1,4,0:3:0:0:
452,252,104742,2,0,B|484:228|484:228|500:168,2,80,8|4|8,0:0|0:3|0:0,0:0:0:0:
416,180,105770,1,4,0:3:0:0:
388,104,106113,2,0,P|356:72|296:56,1,80,8|4,0:0|0:3,0:0:0:0:
256,104,106799,5,8,0:0:0:0:
188,60,107142,2,0,P|108:136|116:212,1,160,4|4,0:3|0:3,0:0:0:0:
108,260,108170,2,0,P|60:276|36:312,1,80,8|4,0:0|0:3,0:0:0:0:
112,340,108856,2,0,P|160:324|184:288,1,80,8|4,0:0|0:3,0:0:0:0:
180,224,109542,37,8,0:0:0:0:
256,192,109884,12,4,111256,0:0:0:0:
256,192,127713,12,0,131827,0:0:0:0:
100,192,133199,69,4,0:1:0:0:
140,264,133542,1,8,0:0:0:0:
220,248,133884,2,0,P|260:236|304:256,1,80,2|8,0:0|0:0,0:0:0:0:
332,320,134570,86,0,P|292:332|248:312,2,80,2|8|2,0:0|0:0|0:0,0:0:0:0:
396,272,135599,2,0,L|408:168,1,80,8|2,0:0|0:0,0:0:0:0:
416,112,136284,1,8,0:0:0:0:
344,76,136627,2,0,B|284:76|284:76|256:92,1,80,2|8,0:0|0:0,0:0:0:0:
256,164,137313,2,0,L|256:260,1,80,2|8,0:0|0:0,0:0:0:0:
324,288,137999,2,0,P|256:324|188:288,1,160,2|2,0:0|0:0,0:0:0:0:
144,224,139027,21,8,0:0:0:0:
184,156,139370,1,2,0:0:0:0:
264,160,139713,1,8,0:0:0:0:
296,232,140056,2,0,P|336:240|376:228,2,80,2|8|2,0:0|0:0|0:0,0:0:0:0:
216,228,141084,2,0,P|208:272|236:332,1,80,8|2,0:0|0:0,0:0:0:0:
288,344,141770,85,8,0:0:0:0:
368,336,142113,2,0,L|428:268,1,80,2|8,0:0|0:0,0:0:0:0:
460,204,142799,2,0,P|476:88|368:56,1,240,2|8,0:0|0:0,0:0:0:0:
312,100,144170,1,4,0:1:0:0:
280,172,144513,53,8,0:0:0:0:
258,249,144856,2,0,P|234:289|174:305,1,80,4|8,0:3|0:0,0:0:0:0:
180,228,145542,2,0,L|80:228,1,80,4|8,0:3|0:0,0:0:0:0:
116,148,146227,2,0,L|32:148,1,80,4|8,0:3|0:0,0:0:0:0:
52,68,146913,5,4,0:3:0:0:
132,60,147256,1,8,0:0:0:0:
196,108,147599,2,0,P|204:160|180:208,1,80,4|8,0:3|0:0,0:0:0:0:
132,232,148284,2,0,P|124:292|224:348,2,160,4|4|4,0:3|0:3|0:3,0:0:0:0:
200,188,149999,85,8,0:2:0:0:
208,268,150342,2,0,L|308:284,1,80,4|8,0:3|0:2,0:0:0:0:
280,200,151027,2,0,L|372:192,1,80,4|8,0:3|0:2,0:0:0:0:
336,116,151713,2,0,L|436:88,2,80,4|8|2,0:3|0:2|0:0,0:0:0:0:
256,100,152742,37,2,0:0:0:0:
188,140,153084,1,2,0:0:0:0:
192,220,153427,1,2,0:0:0:0:
256,268,153770,2,0,P|292:296|336:296,2,80,0|0|0,0:0|0:0|0:0,0:0:0:0:
268,188,154799,22,0,P|320:180|360:196,1,80,4|4,0:0|0:1,0:0:0:0:
256,244,166113,6,0,P|304:332|416:260,1,240,4|0,0:1|0:0,0:0:0:0:
336,256,167484,2,0,P|296:172|208:176,1,160,2|2,0:0|0:0,0:0:0:0:
184,316,168856,70,0,B|144:328|116:356|116:356|84:324|72:252,1,160,0|2,0:0|0:0,0:0:0:0:
60,204,169884,1,0,0:0:0:0:
72,124,170227,2,0,P|120:56|260:112,1,240,2|2,0:0|0:0,0:0:0:0:
296,164,171599,38,0,P|332:104|316:44,2,120,0|0|0,0:0|0:0|0:0,0:0:0:0:
216,168,172970,2,0,P|180:228|196:288,2,120,2|2|2,0:0|0:0|0:0,0:0:0:0:
260,236,174342,1,2,0:0:0:0:
260,236,175713,70,0,L|356:248,2,80,2|2|2,0:0|0:0|0:0,0:0:0:0:
200,180,176742,1,2,0:0:0:0:
140,128,177084,6,0,P|80:216|172:300,1,240,4|8,0:0|0:0,0:0:0:0:
236,276,178456,2,0,P|280:284|324:328,1,80,4|8,0:3|0:0,0:0:0:0:
372,356,179142,2,0,P|396:308|436:284,1,80,4|8,0:3|0:0,0:0:0:0:
496,276,179827,2,0,B|476:208|408:192|360:232|360:232|324:208|272:192,1,240,4|8,0:3|0:0,0:0:0:0:
220,192,181199,22,0,P|180:212|156:264,2,80,4|8|4,0:3|0:0|0:3,0:0:0:0:
300,176,182227,2,0,P|280:136|236:112,1,80,8|4,0:0|0:3,0:0:0:0:
172,124,182913,2,0,L|72:164,1,80,8|4,0:0|0:3,0:0:0:0:
36,208,183599,69,8,0:0:0:0:
84,272,183942,2,0,P|116:316|208:304,2,120,4|0|8,0:3|0:0|0:0,0:0:0:0:
160,244,185313,1,4,0:3:0:0:
224,196,185656,2,0,L|316:172,1,80,8|4,0:0|0:3,0:0:0:0:
380,196,186342,5,8,0:0:0:0:
396,276,186684,2,0,P|340:268|316:240,1,80,4|8,0:3|0:0,0:0:0:0:
300,176,187370,2,0,P|332:128|376:116,1,80,4|8,0:3|0:0,0:0:0:0:
352,40,188056,22,0,P|260:88|226:230,1,240,4|8,0:1|0:0,0:0:0:0:
256,288,189427,2,0,P|204:296|172:272,2,80,4|8|4,0:3|0:0|0:3,0:0:0:0:
304,224,190456,1,8,0:0:0:0:
336,300,190799,2,0,P|376:348|464:236,1,240,4|8,0:3|0:0,0:0:0:0:
412,200,192170,70,0,P|376:176|360:124,1,80,4|8,0:3|0:0,0:0:0:0:
308,84,192856,2,0,P|344:64|388:68,1,80,4|8,0:3|0:0,0:0:0:0:
440,124,193542,5,4,0:3:0:0:
492,184,193884,2,0,P|484:240|464:264,1,80,8|4,0:0|0:3,0:0:0:0:
416,316,194570,1,8,0:0:0:0:
340,340,194913,2,0,B|264:364|264:364|212:348,2,120,4|0|8,0:3|0:0|0:0,0:0:0:0:
352,260,196284,1,4,0:3:0:0:
324,184,196627,2,0,B|308:144|308:144|308:96,1,80,8|4,0:0|0:3,0:0:0:0:
256,44,197313,21,8,0:0:0:0:
204,107,197656,2,0,B|204:144|204:144|188:184,1,80
184,264,198342,2,0,P|220:304|268:308,1,80,0|0,0:0|0:0,0:0:0:0:
256,232,199027,101,4,0:1:0:0:
184,88,199713,1,4,0:3:0:0:
88,216,200399,2,0,P|80:304|232:328,1,240,4|8,0:3|0:0,0:0:0:0:
256,288,201770,21,4,0:3:0:0:
404,348,202456,1,4,0:3:0:0:
480,208,203142,2,0,B|360:128|360:264|232:172,1,240,4|8,0:3|0:0,0:0:0:0:
192,136,204513,37,4,0:3:0:0:
332,60,205199,1,4,0:3:0:0:
448,172,205884,2,0,B|436:244|364:244|364:244|364:316|284:332,1,240,4|8,0:3|0:0,0:0:0:0:
284,248,207256,37,4,0:3:0:0:
152,340,207942,1,4,0:3:0:0:
56,212,208627,2,0,B|88:152|68:92|68:92|116:124|192:96,1,240,4|8,0:3|0:0,0:0:0:0:
256,80,209999,21,4,0:1:0:0:
368,196,210684,1,4,0:3:0:0:
256,312,211370,2,0,L|124:332,2,120,4|0|8,0:3|0:0|0:0,0:0:0:0:
332,344,212742,38,0,P|332:280|252:228,1,160,4|4,0:3|0:3,0:0:0:0:
104,268,214113,2,0,B|32:240|32:240|0:176,2,120,4|0|8,0:3|0:0|0:0,0:0:0:0:
172,224,215484,37,4,0:3:0:0:
256,88,216170,1,4,0:3:0:0:
344,220,216856,2,0,P|388:248|480:232,2,120,4|0|8,0:3|0:0|0:0,0:0:0:0:
408,168,218227,22,0,P|460:160|496:132,2,80,4|8|4,0:3|0:0|0:3,0:0:0:0:
336,136,219256,1,8,0:0:0:0:
256,120,219599,2,0,P|184:160|176:208,2,120,0|0|0,0:0|0:0|0:0,0:0:0:0:
256,200,220970,37,0,0:0:0:0:
