osu file format v14

[General]
AudioFilename: R4V3-B0Y-S3RL-feat-Krystal.mp3.mp3
AudioLeadIn: 0
PreviewTime: -1
Countdown: 1
SampleSet: None
StackLeniency: 0.7
Mode: 0
LetterboxInBreaks: 1
WidescreenStoryboard: 1

[Editor]
Bookmarks: 3439,163896
DistanceSpacing: 1
BeatDivisor: 4
GridSize: 4
TimelineZoom: 2.2

[Metadata]
Title:R4V3 B0Y S3RL feat. Krystal
TitleUnicode:R4V3 B0Y S3RL feat. Krystal
Artist:S3RL
ArtistUnicode:S3RL
Creator:swash984
Version:UltimateBusch´s Normal
Source:
Tags:R4V3 B0Y S3RL feat. Krystal techno sexy (;
BeatmapID:661593
BeatmapSetID:290754

[Difficulty]
HPDrainRate:4
CircleSize:4
OverallDifficulty:3
ApproachRate:6
SliderMultiplier:1.4
SliderTickRate:1

[Events]
//Background and Video events
0,0,"10967896_1041024659244965_2010902991_n.jpg",0,0
//Break Periods
2,6724,11303
2,50609,55189
2,89182,99074
2,111124,121017
//Storyboard Layer 0 (Background)
//Storyboard Layer 1 (Fail)
//Storyboard Layer 2 (Pass)
//Storyboard Layer 3 (Foreground)
//Storyboard Sound Samples

[TimingPoints]
1382,342.857142857143,4,1,0,100,1,0
12524,-100,4,1,0,50,0,0
22639,-76.9230769230769,4,1,0,100,0,0
33610,-74.0740740740741,4,1,0,100,0,1
43896,-111.111111111111,4,1,0,40,0,0
55896,-100,4,1,0,55,0,0
61039,-133.333333333333,4,1,0,30,0,0
61724,-100,4,1,0,55,0,0
65839,-83.3333333333333,4,1,0,40,0,0
83667,-76.9230769230769,4,2,0,100,0,0
100124,-133.333333333333,4,2,0,100,0,0
111129,-111.111111111111,4,1,0,40,0,0
113839,-105.263157894737,4,1,0,40,0,0
116582,-100,4,1,0,50,0,0
132696,-76.9230769230769,4,1,0,100,0,0
142639,-133.333333333333,4,1,0,40,0,0
144010,-74.0740740740741,4,1,0,100,0,1
153610,-80,4,1,0,80,0,0

[HitObjects]
92,60,1382,6,0,L|252:60,1,140
308,60,1896,1,0,0:0:0:0:
392,60,2067,6,0,L|392:200,1,140
392,272,2753,2,0,L|244:272,1,140
176,272,3267,1,0,0:0:0:0:
80,272,3439,6,0,L|80:128,1,140
156,132,4124,6,0,B|212:132|212:132|212:72|212:72|264:72,1,140
300,72,4810,6,0,B|300:128|300:128|360:128|360:128|360:180,1,140
364,224,5496,6,0,P|440:284|416:328,1,140
352,308,6182,6,0,B|264:276|264:276|196:308,1,140
84,152,12353,6,0,B|152:100|152:100|196:176,1,140
256,192,12867,1,0,0:0:0:0:
336,192,13039,2,0,B|336:96|336:96|400:96,1,140
448,96,13724,6,0,L|448:240,1,140
452,308,14410,6,0,B|372:308|372:308|372:244,1,140
292,244,15096,6,0,B|232:244|232:244|232:212|232:212|172:212,1,140
108,216,15782,6,0,B|108:156|108:156|140:156|140:156|140:96,1,140
224,108,16467,5,0,0:0:0:0:
224,108,16810,1,0,0:0:0:0:
224,108,17153,1,0,0:0:0:0:
304,112,17839,6,0,B|364:112|364:112|364:84|364:84|424:84,1,140
420,152,18524,6,0,B|420:212|420:212|448:212|448:212|448:272,1,140
444,328,19210,6,0,B|392:328|392:328|392:356|392:356|332:356,1,140
324,288,19896,6,0,B|324:236|324:236|296:236|296:236|296:176,1,140
296,100,20582,6,0,B|248:48|248:48|180:112,1,140
188,168,21267,6,0,B|236:220|236:220|304:156,1,140
256,192,21953,12,0,23153,0:0:0:0:
72,48,23324,6,0,L|188:48,1,90.9999958343508
232,48,23667,2,0,L|232:156,1,90.9999958343508
304,136,24010,2,0,L|408:136,1,90.9999958343508
468,136,24353,2,0,L|468:252,1,90.9999958343508
468,296,24696,6,0,L|268:296,1,181.999991668702
224,296,25382,2,0,L|32:296,1,181.999991668702
48,224,26067,6,0,L|48:124,1,90.9999958343508
120,132,26410,2,0,L|224:132,1,90.9999958343508
280,132,26753,2,0,L|280:32,1,90.9999958343508
352,40,27096,2,0,L|448:40,1,90.9999958343508
444,116,27439,5,0,0:0:0:0:
444,192,27782,1,0,0:0:0:0:
444,264,28124,1,0,0:0:0:0:
444,336,28467,2,0,L|380:336,3,45.4999979171754
328,336,28810,6,0,L|328:232,2,90.9999958343508
256,245,29496,6,0,L|256:336,2,90.9999958343508
176,240,30182,6,0,P|108:256|148:176,1,181.999991668702
188,168,30867,6,0,P|256:152|216:232,1,181.999991668702
256,192,31553,12,0,34124,0:0:0:0:
40,344,34296,6,0,L|40:240,1,94.5000003604889
112,248,34639,6,0,L|228:248,1,94.5000003604889
276,248,34982,6,0,L|276:148,1,94.5000003604889
344,156,35324,6,0,L|448:156,1,94.5000003604889
440,84,35667,5,0,0:0:0:0:
440,84,35839,1,0,0:0:0:0:
440,84,36010,2,0,L|248:84,2,189.000000720978
440,160,37039,6,0,L|440:300,1,94.5000003604889
368,256,37382,2,0,L|236:256,1,94.5000003604889
208,256,37724,2,0,L|88:256,1,94.5000003604889
40,256,38067,2,0,L|40:144,1,94.5000003604889
116,160,38410,5,0,0:0:0:0:
116,160,38582,1,0,0:0:0:0:
116,160,38753,2,0,L|312:160,2,189.000000720978
116,80,39782,6,0,B|156:44|156:44|204:44,2,94.5000003604889
184,120,40467,6,0,B|144:156|144:156|96:156,2,94.5000003604889
224,60,41153,6,0,B|260:100|260:100|260:148,2,94.5000003604889
152,60,41667,1,0,0:0:0:0:
76,60,41839,6,0,P|32:140|120:192,1,189.000000720978
172,192,42524,6,0,L|296:192,1,94.5000003604889
336,192,42867,6,0,L|460:192,1,94.5000003604889
434,120,43210,6,0,L|340:120,1,94.5000003604889
268,120,43553,6,0,L|173:120,1,94.5000003604889
72,44,45267,6,0,L|216:44,1,125.999996154785
268,44,45953,1,0,0:0:0:0:
408,44,46296,1,0,0:0:0:0:
408,124,46639,6,0,B|408:200|408:200|336:200,1,125.999996154785
288,200,47324,6,0,B|288:124|288:124|360:124,1,125.999996154785
408,124,48010,6,0,B|408:168|408:168|432:188|432:188|432:260,1,125.999996154785
364,240,48696,6,0,B|313:240|313:240|293:264|293:264|249:264,1,125.999996154785
176,264,49210,1,0,0:0:0:0:
104,258,49382,6,0,B|104:214|104:214|80:194|80:194|80:144,1,125.999996154785
164,144,49896,1,0,0:0:0:0:
244,144,50067,6,0,B|288:144|288:144|308:120|308:120|358:120,1,125.999996154785
48,44,56239,6,0,B|104:92|104:92|196:92,1,140
176,160,56924,6,0,B|232:208|232:208|324:208,1,140
300,276,57610,6,0,B|356:324|356:324|448:324,1,140
424,252,58296,6,0,B|424:164|424:164|344:164,1,140
300,164,58982,6,0,L|144:164,1,140
92,160,59667,6,0,B|92:72|92:72|176:72,1,140
228,72,60353,1,0,0:0:0:0:
304,72,60696,1,0,0:0:0:0:
380,72,61039,6,0,L|444:72,1,52.5000020027161
436,144,61382,2,0,L|436:200,1,52.5000020027161
432,272,61724,6,0,B|396:272|396:272|396:312|396:312|332:312,1,140
256,312,62410,1,0,0:0:0:0:
184,312,62753,1,0,0:0:0:0:
188,248,63096,6,0,B|188:212|188:212|148:212|148:212|148:148,1,140
220,148,63782,6,0,L|368:148,1,140
432,148,64467,6,0,L|432:288,1,140
352,292,65153,1,0,0:0:0:0:
280,292,65496,1,0,0:0:0:0:
256,192,65839,12,0,67039,0:0:0:0:
56,44,67210,6,0,L|160:44,1,83.9999974365235
212,44,67553,2,0,L|212:136,1,83.9999974365235
288,128,67896,2,0,L|384:128,1,83.9999974365235
380,200,68239,2,0,L|276:200,1,83.9999974365235
224,200,68582,5,0,0:0:0:0:
224,200,68753,1,0,0:0:0:0:
152,200,68924,5,0,0:0:0:0:
152,200,69096,1,0,0:0:0:0:
80,200,69267,5,0,0:0:0:0:
80,200,69439,1,0,0:0:0:0:
80,128,69610,5,0,0:0:0:0:
80,128,69782,1,0,0:0:0:0:
152,128,69953,6,0,L|240:128,1,83.9999974365235
308,128,70296,2,0,L|308:216,1,83.9999974365235
380,212,70639,6,0,L|480:212,1,83.9999974365235
468,284,70982,2,0,L|468:368,1,83.9999974365235
400,368,71324,6,0,L|300:368,1,83.9999974365235
256,368,71667,6,0,L|256:272,1,83.9999974365235
256,196,72010,5,0,0:0:0:0:
256,196,72353,1,0,0:0:0:0:
140,72,72696,6,0,B|188:72|188:72|188:124|188:124|260:124,1,167.999994873047
348,128,73382,6,0,B|348:176|348:176|296:176|296:176|296:248,1,167.999994873047
296,316,74067,5,0,0:0:0:0:
296,316,74410,1,0,0:0:0:0:
224,316,74753,1,0,0:0:0:0:
224,316,75096,1,0,0:0:0:0:
152,316,75439,6,0,B|152:252|152:252|48:252,1,167.999994873047
156,176,76124,6,0,B|52:176|52:176|52:112,1,167.999994873047
256,192,76810,12,0,78010,0:0:0:0:
52,192,78182,6,0,B|124:192|124:192|124:228|124:228|208:228,1,167.999994873047
184,160,78867,6,0,B|256:160|256:160|256:196|256:196|340:196,1,167.999994873047
320,124,79553,6,0,B|416:124|416:124|416:216,1,167.999994873047
416,264,80239,5,0,0:0:0:0:
416,264,80582,1,0,0:0:0:0:
328,264,80924,6,0,B|284:264|284:264|340:196|340:196|280:196,1,167.999994873047
232,196,81610,6,0,B|188:196|188:196|244:128|244:128|184:128,1,167.999994873047
136,128,82296,5,0,0:0:0:0:
136,128,82639,1,0,0:0:0:0:
136,128,82982,1,0,0:0:0:0:
132,208,83667,6,0,B|192:280|192:280|256:196,1,181.999991668702
256,132,84353,1,0,0:0:0:0:
256,132,84696,1,0,0:0:0:0:
256,132,85039,1,0,0:0:0:0:
332,132,85724,5,0,0:0:0:0:
332,132,86067,1,0,0:0:0:0:
256,192,86410,12,0,88982,0:0:0:0:
68,52,100124,6,0,L|184:52,1,105.000004005432
256,52,100639,1,0,0:0:0:0:
336,52,100810,6,0,L|448:52,1,105.000004005432
448,128,101324,1,0,0:0:0:0:
448,204,101496,6,0,L|448:316,1,105.000004005432
372,308,102010,1,0,0:0:0:0:
296,308,102182,6,0,L|168:308,1,105.000004005432
188,232,102696,1,0,0:0:0:0:
188,152,102867,6,0,L|300:152,1,105.000004005432
296,80,103382,1,0,0:0:0:0:
216,80,103553,6,0,B|176:80|176:80|176:56|176:56|120:56,1,105.000004005432
60,56,104239,1,0,0:0:0:0:
60,132,104582,6,0,P|32:200|48:208,1,105.000004005432
116,204,105267,1,0,0:0:0:0:
184,204,105610,6,0,L|296:204,1,105.000004005432
368,204,106296,1,0,0:0:0:0:
392,120,106639,6,0,P|352:124|344:56,1,105.000004005432
252,68,107324,1,0,0:0:0:0:
164,76,107667,2,0,P|168:116|100:124,1,105.000004005432
48,176,108353,6,0,L|132:272,1,105.000004005432
200,252,109039,5,0,0:0:0:0:
200,252,109382,1,0,0:0:0:0:
256,192,109724,12,0,110924,0:0:0:0:
44,48,122067,6,0,L|192:48,1,140
260,48,122753,2,0,L|260:188,1,140
332,188,123439,2,0,L|488:188,1,140
472,256,124124,2,0,L|328:256,1,140
252,192,124810,5,0,0:0:0:0:
252,192,125153,1,0,0:0:0:0:
176,192,125496,5,0,0:0:0:0:
176,192,125839,1,0,0:0:0:0:
104,192,126182,5,0,0:0:0:0:
104,192,126524,1,0,0:0:0:0:
32,192,126867,6,0,L|32:336,1,140
104,332,127553,6,0,L|200:332,1,70
240,328,127896,2,0,L|240:252,1,70
308,260,128239,2,0,L|384:260,1,70
384,188,128582,2,0,L|384:104,1,70
380,48,128924,6,0,L|300:48,1,70
240,48,129267,2,0,L|240:120,1,70
168,116,129610,2,0,L|72:116,1,70
96,188,129953,2,0,L|96:280,1,70
256,192,130296,12,0,132524,0:0:0:0:
436,304,133039,6,0,L|336:304,1,90.9999958343508
276,304,133382,2,0,L|276:200,1,90.9999958343508
204,212,133724,2,0,L|108:212,1,90.9999958343508
112,140,134067,2,0,L|112:40,1,90.9999958343508
188,48,134410,5,0,0:0:0:0:
188,48,134753,1,0,0:0:0:0:
260,48,135096,5,0,0:0:0:0:
260,48,135439,1,0,0:0:0:0:
336,48,135782,6,0,L|428:48,1,90.9999958343508
432,120,136124,2,0,L|432:212,1,90.9999958343508
360,212,136467,6,0,L|264:212,1,90.9999958343508
264,144,136810,2,0,L|144:144,1,90.9999958343508
172,216,137153,5,0,0:0:0:0:
172,216,137496,1,0,0:0:0:0:
172,216,137839,1,0,0:0:0:0:
104,216,138182,2,0,L|56:216,4,45.4999979171754
108,140,138867,5,0,0:0:0:0:
104,64,139210,1,0,0:0:0:0:
176,64,139553,1,0,0:0:0:0:
180,140,139896,1,0,0:0:0:0:
252,140,140239,1,0,0:0:0:0:
252,64,140582,1,0,0:0:0:0:
328,64,140924,1,0,0:0:0:0:
328,140,141267,1,0,0:0:0:0:
404,140,141610,1,0,0:0:0:0:
408,64,141953,1,0,0:0:0:0:
484,64,142296,1,0,0:0:0:0:
484,136,142639,6,0,B|484:264|484:264|276:264,1,315.000012016297
292,188,144010,6,0,L|100:188,1,189.000000720978
100,116,144696,2,0,L|292:116,1,189.000000720978
368,116,145382,5,0,0:0:0:0:
368,116,145724,1,0,0:0:0:0:
440,116,146067,1,0,0:0:0:0:
440,116,146410,1,0,0:0:0:0:
440,188,146753,6,0,B|440:292|440:292|348:292,1,189.000000720978
369,188,147439,6,0,B|284:188|284:188|284:292,1,189.000000720978
208,292,148124,5,0,0:0:0:0:
208,292,148467,1,0,0:0:0:0:
208,292,148810,1,0,0:0:0:0:
136,296,149496,6,0,B|136:192|136:192|236:192,1,189.000000720978
300,192,150182,1,0,0:0:0:0:
300,192,150524,1,0,0:0:0:0:
376,192,150867,6,0,B|376:76|376:76|280:76,1,189.000000720978
228,76,151553,1,0,0:0:0:0:
228,76,151896,1,0,0:0:0:0:
152,76,152239,6,0,L|152:184,1,94.5000003604889
224,168,152582,2,0,L|336:168,1,94.5000003604889
388,168,152924,2,0,L|388:268,1,94.5000003604889
316,264,153267,2,0,L|220:264,1,94.5000003604889
152,264,153610,5,0,0:0:0:0:
152,264,153953,1,0,0:0:0:0:
80,264,154296,5,0,0:0:0:0:
80,264,154639,1,0,0:0:0:0:
80,116,154982,6,0,B|152:116|152:116|152:156|152:156|252:156,1,175
284,156,155667,6,0,B|284:228|284:228|244:228|244:228|244:328,1,175
176,292,156353,6,0,B|104:292|104:292|104:252|104:252|4:252,1,175
44,184,157039,5,0,0:0:0:0:
44,184,157382,1,0,0:0:0:0:
44,112,157724,6,0,B|44:20|44:20|152:20,1,175
196,20,158410,6,0,B|288:20|288:20|288:128,1,175
288,172,159096,6,0,B|288:255|288:255|380:255,1,175
460,256,159782,5,0,0:0:0:0:
460,256,160124,1,0,0:0:0:0:
460,336,160467,5,0,0:0:0:0:
388,336,160810,1,0,0:0:0:0:
312,336,161153,5,0,0:0:0:0:
244,336,161496,1,0,0:0:0:0:
240,264,161839,6,0,L|240:88,1,175
320,88,162524,6,0,B|408:88|408:88|408:180,1,175
408,248,163210,5,0,0:0:0:0:
408,248,163553,1,0,0:0:0:0:
408,320,163896,5,0,0:0:0:0:
408,320,164239,1,0,0:0:0:0:
332,320,164582,6,0,L|332:136,1,175
332,76,165267,2,0,L|152:76,1,175
40,192,165953,5,0,0:0:0:0:
112,192,166296,1,0,0:0:0:0:
184,192,166639,5,0,0:0:0:0:
252,192,166982,1,0,0:0:0:0:
328,192,167324,5,0,0:0:0:0:
400,192,167667,1,0,0:0:0:0:
476,192,168010,5,0,0:0:0:0:
472,116,168353,6,0,L|296:116,1,175
224,116,169039,5,0,0:0:0:0:
224,188,169382,1,0,0:0:0:0:
224,260,169724,5,0,0:0:0:0:
224,332,170067,1,0,0:0:0:0:
148,332,170410,5,0,0:0:0:0:
76,332,170753,1,0,0:0:0:0:
76,256,171096,6,0,L|76:72,1,175
156,80,171782,5,0,0:0:0:0:
156,156,172124,1,0,0:0:0:0:
228,156,172467,1,0,0:0:0:0:
228,80,172810,1,0,0:0:0:0:
304,80,173153,6,0,L|484:80,1,175
480,152,173839,6,0,L|480:328,1,175
408,328,174524,6,0,L|232:328,1,175
232,248,175210,5,0,0:0:0:0:
256,192,175553,12,0,176924,0:0:0:0:
