osu file format v14

[General]
AudioFilename: R4V3-B0Y-S3RL-feat-Krystal.mp3.mp3
AudioLeadIn: 0
PreviewTime: -1
Countdown: 1
SampleSet: Normal
StackLeniency: 0.7
Mode: 0
LetterboxInBreaks: 1
WidescreenStoryboard: 1

[Editor]
Bookmarks: 3439,163896
DistanceSpacing: 1.5
BeatDivisor: 4
GridSize: 4
TimelineZoom: 2.6

[Metadata]
Title:R4V3 B0Y S3RL feat. Krystal
TitleUnicode:R4V3 B0Y S3RL feat. Krystal
Artist:S3RL
ArtistUnicode:S3RL
Creator:swash984
Version:Insane
Source:
Tags:R4V3 B0Y S3RL feat. Krystal techno sexy (;
BeatmapID:659136
BeatmapSetID:290754

[Difficulty]
HPDrainRate:7
CircleSize:4
OverallDifficulty:7
ApproachRate:9.2
SliderMultiplier:2
SliderTickRate:1

[Events]
//Background and Video events
0,0,"10967896_1041024659244965_2010902991_n.jpg",0,0
//Break Periods
2,6724,11783
//Storyboard Layer 0 (Background)
//Storyboard Layer 1 (Fail)
//Storyboard Layer 2 (Pass)
//Storyboard Layer 3 (Foreground)
//Storyboard Sound Samples

[TimingPoints]
1382,342.857142857143,4,1,0,100,1,0
1482,-125,4,1,0,100,0,0
12353,-100,4,1,0,90,0,0
23324,-83.3333333333333,4,1,0,100,0,0
34124,-80,4,1,0,100,0,1
43896,-100,4,2,0,5,0,0
45267,-111.111111111111,4,1,0,55,0,0
60953,-133.333333333333,4,1,0,5,0,0
61724,-111.111111111111,4,1,0,55,0,0
65839,-133.333333333333,4,2,0,5,0,0
67210,-133.333333333333,4,3,0,75,0,0
72696,-111.111111111111,4,1,0,55,0,0

[HitObjects]
48,144,1382,5,8,0:0:0:0:
268,96,1724,1,8,0:0:0:0:
208,312,2067,2,8,P|286:311|342:257,1,160
424,48,2753,5,8,0:0:0:0:
212,124,3096,1,8,0:0:0:0:
72,300,3439,2,8,P|180:320|252:284,1,160
344,112,4124,5,8,0:0:0:0:
268,324,4467,1,8,0:0:0:0:
80,200,4810,2,8,B|125:167|122:98|167:65,1,160
128,76,5496,5,8,0:0:0:0:
348,120,5839,1,8,0:0:0:0:
144,216,6182,2,8,B|170:264|239:270|266:318,1,160
376,224,12353,6,0,P|416:188|444:144,1,100
392,52,12696,2,0,P|352:88|324:132,1,100
260,212,13039,1,0,0:0:0:0:
156,180,13210,5,0,0:0:0:0:
192,140,13296,1,0,0:0:0:0:
240,112,13382,2,0,P|308:88|348:96,1,100
436,168,13724,6,0,P|460:232|456:272,1,100
348,244,14067,2,0,P|284:268|244:264,1,100
264,156,14410,1,0,0:0:0:0:
164,200,14582,1,0,0:0:0:0:
116,300,14753,2,0,P|68:248|88:112,1,200
172,184,15267,5,0,0:0:0:0:
264,124,15439,2,0,P|312:96|456:112,1,200
312,180,15953,1,0,0:0:0:0:
296,232,16039,1,0,0:0:0:0:
268,276,16124,2,0,B|228:312|228:312|164:320,1,100
84,264,16467,6,0,P|104:208|132:172,1,100
204,256,16810,2,0,P|242:210|280:184,1,100
320,288,17153,2,0,P|369:255|412:252,1,100
476,164,17496,5,0,0:0:0:0:
452,128,17581,1,0,0:0:0:0:
418,102,17667,1,0,0:0:0:0:
377,88,17753,1,0,0:0:0:0:
324,88,17839,2,0,P|264:96|216:120,1,100
124,72,18182,2,0,P|132:132|156:180,1,100
172,276,18524,5,0,0:0:0:0:
284,284,18696,1,0,0:0:0:0:
336,264,18782,1,0,0:0:0:0:
380,232,18867,2,0,P|416:176|408:136,1,100
328,76,19210,6,0,P|256:136|264:160,1,100
316,216,19553,2,0,P|291:257|243:265,1,100
196,168,19896,1,0,0:0:0:0:
264,84,20067,1,0,0:0:0:0:
372,104,20239,2,0,P|424:132|448:172,1,100
388,260,20582,5,0,0:0:0:0:
280,260,20753,1,0,0:0:0:0:
204,184,20924,1,0,0:0:0:0:
204,76,21095,1,0,0:0:0:0:
300,128,21267,1,0,0:0:0:0:
408,128,21438,1,0,0:0:0:0:
360,224,21610,1,0,0:0:0:0:
360,332,21781,1,0,0:0:0:0:
256,192,21953,12,0,22982,2:0:0:0:
304,244,23324,6,0,P|376:240|412:208,1,119.999996337891
440,80,23667,2,0,P|368:84|332:116,1,119.999996337891
232,200,24010,1,0,0:0:0:0:
116,260,24182,1,0,0:0:0:0:
152,300,24267,1,0,0:0:0:0:
196,328,24353,2,0,P|256:336|316:316,1,119.999996337891
368,200,24696,6,0,P|300:112|168:108,2,239.999992675781
236,224,25553,1,0,0:0:0:0:
104,224,25724,1,0,0:0:0:0:
168,340,25896,1,0,0:0:0:0:
300,332,26067,5,0,0:0:0:0:
424,216,26239,1,0,0:0:0:0:
428,48,26410,2,0,P|360:32|184:52,1,239.999992675781
280,112,26924,1,0,0:0:0:0:
312,156,27010,1,0,0:0:0:0:
320,216,27096,2,0,P|304:296|280:324,1,119.999996337891
176,300,27439,6,0,P|132:256|136:180,1,119.999996337891
236,204,27782,2,0,P|280:160|356:164,1,119.999996337891
324,264,28124,2,0,P|354:313|410:331,1,119.999996337891
416,224,28467,1,0,0:0:0:0:
410,172,28552,1,0,0:0:0:0:
389,125,28638,1,0,0:0:0:0:
355,87,28724,1,0,0:0:0:0:
312,56,28810,6,0,P|244:36|180:60,1,119.999996337891
248,144,29153,2,0,P|221:209|163:245,1,119.999996337891
144,140,29496,1,0,0:0:0:0:
248,112,29667,1,0,0:0:0:0:
296,136,29753,1,0,0:0:0:0:
336,172,29839,2,0,P|376:228|380:288,1,119.999996337891
488,288,30182,2,0,P|420:336|248:332,2,239.999992675781
384,256,31039,5,0,0:0:0:0:
276,252,31210,2,0,B|232:200|232:200|192:256|76:156,1,239.999992675781
244,112,31724,5,0,0:0:0:0:
412,108,31896,1,0,0:0:0:0:
332,256,32067,1,0,0:0:0:0:
168,212,32239,1,0,0:0:0:0:
336,212,32410,1,0,0:0:0:0:
248,68,32582,1,0,0:0:0:0:
256,236,32753,1,0,0:0:0:0:
256,192,32924,12,0,33953,2:0:0:0:
297,323,34296,5,0,0:0:0:0:
118,203,34467,1,0,0:0:0:0:
275,55,34639,1,0,0:0:0:0:
385,241,34810,1,0,0:0:0:0:
178,306,34982,1,0,0:0:0:0:
161,91,35153,1,0,0:0:0:0:
212,76,35239,1,0,0:0:0:0:
264,72,35324,2,0,P|336:84|408:120,1,119.999996337891
292,180,35667,6,0,P|248:232|244:296,1,125
352,264,36010,2,0,P|427:266|476:189,1,125
384,156,36353,1,0,0:0:0:0:
226,53,36524,1,0,0:0:0:0:
123,211,36696,1,0,0:0:0:0:
281,313,36867,1,0,0:0:0:0:
412,264,37039,6,0,P|444:200|440:128,1,125
336,180,37382,2,0,P|220:140|128:212,1,250
240,236,37896,1,0,0:0:0:0:
276,276,37982,1,0,0:0:0:0:
332,288,38067,2,0,P|408:284|428:244,1,125
364,68,38410,5,0,0:0:0:0:
176,68,38582,1,0,0:0:0:0:
264,232,38753,1,0,0:0:0:0:
76,232,38924,1,0,0:0:0:0:
176,72,39096,1,0,0:0:0:0:
364,68,39267,1,0,0:0:0:0:
424,164,39439,5,0,0:0:0:0:
454,202,39524,1,0,0:0:0:0:
458,252,39610,1,0,0:0:0:0:
434,295,39696,1,0,0:0:0:0:
388,316,39782,2,0,P|308:316|256:268,1,125
272,104,40124,5,0,0:0:0:0:
108,288,40467,1,0,0:0:0:0:
296,268,40639,1,0,0:0:0:0:
340,236,40724,1,0,0:0:0:0:
376,192,40810,2,0,P|408:132|404:72,1,125
216,76,41153,5,0,0:0:0:0:
28,76,41324,1,0,0:0:0:0:
28,264,41496,1,0,0:0:0:0:
216,264,41667,1,0,0:0:0:0:
404,260,41839,1,0,0:0:0:0:
404,72,42010,1,0,0:0:0:0:
216,76,42182,2,0,B|216:140|204:160|204:160|224:200|224:200|196:256|224:316,1,250
336,164,42696,5,0,0:0:0:0:
216,343,42867,1,0,0:0:0:0:
68,186,43039,1,0,0:0:0:0:
254,76,43210,1,0,0:0:0:0:
319,283,43382,1,0,0:0:0:0:
264,296,43467,1,0,0:0:0:0:
208,288,43553,2,0,P|136:256|104:216,1,125
256,192,43896,12,0,44924,2:0:0:0:
176,152,45267,6,0,P|204:112|248:100,1,89.9999972534181,0|0,2:0|2:0,2:0:0:0:
256,216,45610,2,0,P|252:264|272:300,1,89.9999972534181,0|0,2:0|2:0,2:0:0:0:
376,244,45953,2,0,P|424:248|460:228,1,89.9999972534181,0|0,2:0|2:0,2:0:0:0:
400,128,46296,2,0,P|352:124|316:144,1,89.9999972534181,0|0,2:0|2:0,2:0:0:0:
264,248,46639,5,0,2:0:0:0:
148,224,46810,1,0,2:0:0:0:
92,120,46982,2,0,P|152:64|184:56,1,89.9999972534181,0|0,2:0|2:0,2:0:0:0:
264,112,47324,1,0,2:0:0:0:
380,136,47495,1,0,2:0:0:0:
436,240,47667,2,0,P|376:296|344:304,1,89.9999972534181,0|0,2:0|2:0,2:0:0:0:
332,188,48010,6,0,P|309:149|273:122,1,89.9999972534181,0|0,2:0|2:0,2:0:0:0:
232,232,48353,1,0,2:0:0:0:
116,244,48524,1,0,2:0:0:0:
112,128,48695,2,0,P|134:166|170:193,1,89.9999972534181,0|0,2:0|2:0,2:0:0:0:
212,84,49037,1,0,2:0:0:0:
328,72,49209,1,0,2:0:0:0:
324,188,49381,6,0,P|284:208|240:203,1,89.9999972534181,0|0,2:0|2:0,2:0:0:0:
180,103,49724,2,0,P|219:82|263:87,1,89.9999972534181,0|0,2:0|2:0,2:0:0:0:
368,32,50067,2,0,P|388:71|383:115,1,89.9999972534181,0|0,2:0|2:0,2:0:0:0:
398,231,50411,2,0,P|439:215|463:178,1,89.9999972534181,0|0,2:0|2:0,2:0:0:0:
376,104,50753,5,0,0:0:0:0:
264,76,50924,1,0,0:0:0:0:
148,60,51096,2,0,P|100:56|44:80,2,89.9999972534181
248,120,51610,1,0,0:0:0:0:
340,192,51782,1,0,0:0:0:0:
380,300,51953,1,0,0:0:0:0:
448,244,52124,5,0,0:0:0:0:
360,164,52296,1,0,0:0:0:0:
256,112,52467,1,0,0:0:0:0:
360,164,52639,1,0,0:0:0:0:
420,264,52810,1,0,0:0:0:0:
328,204,52982,1,0,0:0:0:0:
348,292,53153,1,0,0:0:0:0:
260,280,53324,1,0,0:0:0:0:
160,216,53496,5,0,0:0:0:0:
360,96,53839,1,0,0:0:0:0:
484,292,54182,2,0,P|452:336|360:352,1,134.999995880127
204,332,54696,1,0,0:0:0:0:
120,287,54867,1,0,0:0:0:0:
100,195,55038,1,0,0:0:0:0:
156,119,55210,1,0,0:0:0:0:
250,112,55381,1,0,0:0:0:0:
336,144,55553,1,0,0:0:0:0:
367,174,55638,1,0,0:0:0:0:
367,218,55724,1,0,0:0:0:0:
336,249,55810,1,0,0:0:0:0:
292,252,55896,2,0,L|256:252,8,22.4999993133545
108,56,56411,5,0,0:0:0:0:
204,148,56582,1,0,0:0:0:0:
108,244,56753,1,0,0:0:0:0:
200,340,56925,1,0,0:0:0:0:
292,244,57096,1,0,0:0:0:0:
204,148,57268,1,0,0:0:0:0:
300,56,57439,1,0,0:0:0:0:
300,192,57610,5,0,0:0:0:0:
300,328,57782,5,0,0:0:0:0:
204,236,57953,1,0,0:0:0:0:
300,140,58124,1,0,0:0:0:0:
208,44,58296,1,0,0:0:0:0:
116,140,58467,1,0,0:0:0:0:
204,236,58639,1,0,0:0:0:0:
108,328,58810,1,0,0:0:0:0:
236,288,58982,6,0,P|248:244|216:204,1,89.9999972534181
344,272,59324,1,0,0:0:0:0:
372,140,59496,1,0,0:0:0:0:
244,176,59667,1,0,0:0:0:0:
356,252,59839,1,0,0:0:0:0:
340,120,60010,1,0,0:0:0:0:
228,192,60182,1,0,0:0:0:0:
148,84,60353,5,0,0:0:0:0:
284,84,60524,1,0,0:0:0:0:
356,196,60696,1,0,0:0:0:0:
356,332,60867,1,0,0:0:0:0:
244,340,61039,6,0,P|172:332|144:316,1,75.0000028610231,0|0,2:0|2:0,2:0:0:0:
188,220,61382,2,0,P|144:200|124:172,1,75.0000028610231,0|0,2:0|2:0,2:0:0:0:
256,140,61724,6,0,P|296:120|356:128,1,89.9999972534181
348,256,62067,1,0,0:0:0:0:
212,252,62239,1,0,0:0:0:0:
348,256,62410,1,0,0:0:0:0:
348,120,62582,1,0,0:0:0:0:
348,256,62753,1,0,0:0:0:0:
212,252,62924,1,0,0:0:0:0:
76,252,63096,5,0,0:0:0:0:
228,252,63267,1,0,0:0:0:0:
228,72,63439,1,0,0:0:0:0:
292,240,63610,1,0,0:0:0:0:
172,108,63782,1,0,0:0:0:0:
332,188,63953,1,0,0:0:0:0:
152,172,64124,1,0,0:0:0:0:
324,120,64296,1,0,0:0:0:0:
212,192,64467,6,0,P|180:236|148:252,1,89.9999972534181
148,116,64810,1,0,0:0:0:0:
284,116,64982,1,0,0:0:0:0:
420,116,65153,1,0,0:0:0:0:
352,232,65324,1,0,0:0:0:0:
216,232,65496,1,0,0:0:0:0:
288,348,65667,1,0,0:0:0:0:
180,316,65839,6,0,P|112:280|104:260,1,75.0000028610231
116,172,66182,2,0,P|184:208|192:228,1,75.0000028610231
260,280,66524,2,0,B|284:232|284:232|308:280|324:252|324:252|368:252|424:176|368:104,1,300.000011444092
376,272,67467,5,0,0:0:0:0:
376,216,67553,1,0,0:0:0:0:
260,96,67810,1,0,0:0:0:0:
204,96,67896,1,0,0:0:0:0:
80,212,68153,1,0,0:0:0:0:
80,268,68239,1,0,0:0:0:0:
248,244,68496,2,0,L|288:244,1,37.5000014305115
372,100,68839,5,0,0:0:0:0:
372,100,68924,1,0,0:0:0:0:
216,164,69182,1,0,0:0:0:0:
216,164,69267,1,0,0:0:0:0:
348,268,69524,1,0,0:0:0:0:
348,268,69610,1,0,0:0:0:0:
196,344,69867,2,0,P|168:340|140:324,1,37.5000014305115
136,112,70211,5,0,0:0:0:0:
136,168,70297,1,0,0:0:0:0:
252,288,70554,1,0,0:0:0:0:
308,288,70640,1,0,0:0:0:0:
432,172,70897,1,0,0:0:0:0:
432,116,70983,1,0,0:0:0:0:
264,140,71240,2,0,L|224:140,1,37.5000014305115
140,284,71583,5,0,0:0:0:0:
140,284,71668,1,0,0:0:0:0:
296,220,71925,1,0,0:0:0:0:
296,220,72010,2,0,P|264:176|224:164,1,75.0000028610231
136,156,72353,2,0,P|168:200|208:212,1,75.0000028610231
256,244,72696,6,0,P|216:264|156:256,1,89.9999972534181
164,128,73039,1,0,0:0:0:0:
300,132,73211,1,0,0:0:0:0:
164,128,73383,1,0,0:0:0:0:
164,264,73554,1,0,0:0:0:0:
164,128,73725,1,0,0:0:0:0:
300,132,73897,1,0,0:0:0:0:
436,132,74069,5,0,0:0:0:0:
284,132,74240,1,0,0:0:0:0:
284,312,74412,1,0,0:0:0:0:
220,144,74583,1,0,0:0:0:0:
340,276,74755,1,0,0:0:0:0:
180,196,74926,1,0,0:0:0:0:
360,212,75097,1,0,0:0:0:0:
188,264,75269,1,0,0:0:0:0:
268,184,75439,6,0,P|256:228|288:268,1,89.9999972534181
160,200,75781,1,0,0:0:0:0:
132,332,75953,1,0,0:0:0:0:
260,296,76124,1,0,0:0:0:0:
148,220,76296,1,0,0:0:0:0:
164,352,76467,1,0,0:0:0:0:
276,280,76639,1,0,0:0:0:0:
328,180,76810,6,0,P|292:120|264:108,1,75.0000028610231,0|0,2:0|2:0,2:0:0:0:
200,184,77153,2,0,P|143:142|112:142,1,75.0000028610231,0|2,2:0|2:0,2:0:0:0:
