osu file format v14

[General]
AudioFilename: Old-Stuff-S3RL-feat-Minto.mp3 (1).mp3
AudioLeadIn: 0
PreviewTime: -1
Countdown: 3
SampleSet: None
StackLeniency: 0.7
Mode: 0
LetterboxInBreaks: 1
WidescreenStoryboard: 0

[Editor]
DistanceSpacing: 1.2
BeatDivisor: 4
GridSize: 4
TimelineZoom: 2.4

[Metadata]
Title:Old Stuff S3RL Feat. Minto
TitleUnicode:Old Stuff S3RL Feat. Minto
Artist:S3RL
ArtistUnicode:S3RL
Creator:swash984
Version:Hard
Source:
Tags:Old Stuff s3rl feat. Minto swash984
BeatmapID:671979
BeatmapSetID:299530

[Difficulty]
HPDrainRate:6
CircleSize:4
OverallDifficulty:5.5
ApproachRate:8.2
SliderMultiplier:1.4
SliderTickRate:1

[Events]
//Background and Video events
//Break Periods
2,26600,36994
2,125342,135737
//Storyboard Layer 0 (Background)
//Storyboard Layer 1 (Fail)
//Storyboard Layer 2 (Pass)
//Storyboard Layer 3 (Foreground)
//Storyboard Sound Samples

[TimingPoints]
686,342.857142857143,4,1,0,35,1,0
786,-100,4,1,0,75,0,0
4800,-100,4,1,0,80,0,1
14400,-111.111111111111,4,1,0,50,0,0
15771,-100,4,1,0,80,0,0
21257,-100,4,1,0,100,0,0
37714,-200,4,2,0,15,0,0
48686,-111.111111111111,4,3,0,55,0,0
70628,-100,4,1,0,80,0,1
81600,-100,4,1,0,80,0,0
92571,-100,4,1,0,80,0,1
103543,-100,4,1,0,80,0,0
114514,-111.111111111111,4,3,0,60,0,0
147428,-100,4,1,0,100,0,0
185828,-100,4,2,0,5,0,0
190971,-200,4,2,0,5,0,0

[HitObjects]
84,248,685,6,0,B|128:192|200:176|200:176|216:92|288:52,1,280
384,168,1714,2,0,B|340:224|268:240|268:240|252:324|180:364,1,280
256,192,2571,12,0,4457,0:0:0:0:
80,188,4800,6,0,P|108:144|152:120,1,70
168,204,5143,1,0,0:0:0:0:
252,204,5314,1,0,0:0:0:0:
333,220,5486,2,0,P|317:251|292:276,2,70
320,136,6000,1,0,0:0:0:0:
248,92,6171,6,0,P|264:44|260:12,1,70
184,56,6514,2,0,L|193:23,2,35
149,79,6771,1,0,0:0:0:0:
105,95,6857,2,0,P|113:143|173:219,1,140
232,180,7371,5,0,0:0:0:0:
316,200,7543,2,0,P|364:184|392:144,1,70
380,256,7886,2,0,P|396:304|436:332,1,70
468,260,8228,1,0,0:0:0:0:
452,176,8400,1,0,0:0:0:0:
368,168,8571,2,0,P|316:156|296:136,1,70
232,188,8914,6,0,P|236:228|224:272,1,70
148,252,9257,2,0,P|160:308|180:332,2,70
112,228,9686,1,0,0:0:0:0:
84,196,9771,2,0,P|72:140|52:116,1,70
144,100,10114,5,0,0:0:0:0:
216,56,10286,2,0,P|272:52|288:56,1,70
248,132,10628,1,0,0:0:0:0:
356,164,10800,1,0,0:0:0:0:
440,180,10971,2,0,P|464:154|479:123,2,70
380,240,11486,1,0,0:0:0:0:
348,316,11657,6,0,P|316:292|276:280,1,70
204,272,12000,2,0,L|172:296,2,35
192,232,12257,1,0,0:0:0:0:
152,220,12343,2,0,P|156:152|212:108,1,140
292,92,12857,5,0,0:0:0:0:
364,136,13028,2,0,P|380:184|420:212,1,70
316,236,13371,2,0,P|268:252|240:292,1,70
216,188,13714,5,0,0:0:0:0:
168,116,13886,2,0,P|132:140|120:164,1,70
44,128,14228,1,0,0:0:0:0:
40,204,14400,6,0,P|72:248|88:256,1,62.9999980773926
152,264,14743,1,0,0:0:0:0:
200,324,14914,1,0,0:0:0:0:
264,284,15086,2,0,L|276:248,2,31.4999990386963
328,328,15428,1,0,0:0:0:0:
372,268,15600,1,0,0:0:0:0:
340,192,15771,6,0,L|280:148,1,70
220,204,16114,2,0,L|160:160,1,70
176,80,16457,2,0,L|236:124,1,70
296,68,16800,2,0,L|356:112,1,70
436,104,17143,6,0,P|424:160|416:176,1,70
356,228,17486,2,0,L|384:256,2,35
320,248,17743,1,0,0:0:0:0:
296,280,17828,2,0,P|260:296|156:272,1,140
216,212,18343,1,0,0:0:0:0:
152,160,18514,6,0,P|128:192|128:240,1,70
56,268,18857,2,0,P|86:285|120:291,1,70
272,316,19200,5,0,0:0:0:0:
340,268,19371,1,0,0:0:0:0:
388,200,19543,2,0,P|422:199|455:187,2,70
304,184,20057,1,0,0:0:0:0:
264,112,20228,5,0,0:0:0:0:
184,92,20400,2,0,P|150:148|155:171,1,70
186,168,20657,1,0,0:0:0:0:
220,190,20743,2,0,P|210:223|185:247,1,70
100,244,21086,1,0,0:0:0:0:
124,316,21257,6,0,P|168:308|196:280,1,70
216,212,21600,1,0,0:0:0:0:
276,272,21771,1,0,0:0:0:0:
360,280,21943,2,0,P|348:313|325:339,2,70
364,196,22457,1,0,0:0:0:0:
352,112,22628,6,0,P|288:128|260:128,1,70
204,108,22971,2,0,L|228:72,2,35
164,116,23228,1,0,0:0:0:0:
120,120,23314,2,0,P|96:172|144:240,1,140
216,204,23828,5,0,0:0:0:0:
288,152,24000,2,0,P|276:108|300:76,1,70
364,120,24343,2,0,P|398:120|423:143,1,70
380,216,24686,1,0,0:0:0:0:
316,272,24857,2,0,P|280:244|264:212,2,70
256,192,25371,12,0,26400,0:0:0:0:
132,92,37714,6,0,B|148:128|148:128|196:112|244:128|244:128|292:96|292:96|340:128,1,245
332,196,39086,2,0,B|290:223|290:223|242:191|242:191|194:207|146:191|146:191|130:227,1,245
64,256,40457,2,0,P|160:292|176:180,1,245
124,228,41828,2,0,P|135:121|237:153,1,245
200,216,43200,6,0,B|224:272|224:272|280:244|336:272|336:272|372:212,1,245
368,144,44571,2,0,B|344:88|344:88|288:116|232:88|232:88|196:148,1,245
256,192,45943,12,0,47143,0:0:0:0:
256,192,47314,12,0,48343,0:0:0:0:
72,240,48686,5,0,0:0:0:0:
224,240,49028,1,0,0:0:0:0:
368,188,49371,2,0,L|416:140,2,62.9999980773926
352,264,49886,1,0,0:0:0:0:
280,244,50057,6,0,L|256:208,1,31.4999990386963
152,244,50400,2,0,L|128:208,1,31.4999990386963
56,136,50743,2,0,L|56:96,4,31.4999990386963
208,136,51428,5,0,0:0:0:0:
280,160,51600,1,0,0:0:0:0:
348,196,51771,1,0,0:0:0:0:
416,232,51943,2,0,L|448:216,2,31.4999990386963
380,296,52286,2,0,L|304:276,2,62.9999980773926
436,348,52800,6,0,L|468:304,1,31.4999990386963
344,344,53143,2,0,L|376:300,1,31.4999990386963
248,332,53486,2,0,P|208:312|144:240,1,125.999996154785
92,116,54171,5,0,0:0:0:0:
244,116,54514,1,0,0:0:0:0:
392,152,54857,2,0,L|352:208,1,62.9999980773926
292,340,55371,1,0,0:0:0:0:
224,308,55543,2,0,L|192:244,1,62.9999980773926
124,272,55886,2,0,L|92:208,1,62.9999980773926
108,140,56228,2,0,L|68:116,4,31.4999990386963
420,268,56914,5,0,0:0:0:0:
268,268,57257,1,0,0:0:0:0:
120,232,57600,2,0,L|160:176,1,62.9999980773926
220,44,58114,1,0,0:0:0:0:
288,76,58286,2,0,L|320:140,1,62.9999980773926
388,112,58629,2,0,L|420:176,1,62.9999980773926
404,244,58971,2,0,L|444:268,4,31.4999990386963
256,192,59657,12,0,69257,0:0:0:0:
432,196,70628,6,0,P|404:240|360:264,1,70
328,192,70971,1,0,0:0:0:0:
248,172,71142,1,0,0:0:0:0:
172,132,71314,2,0,P|188:101|213:76,2,70
184,216,71828,1,0,0:0:0:0:
248,272,71999,6,0,P|232:320|236:352,1,70
316,320,72342,2,0,L|307:353,2,35
352,300,72599,1,0,0:0:0:0:
376,264,72685,2,0,P|364:192|328:132,1,140
248,128,73199,5,0,0:0:0:0:
192,192,73371,2,0,P|144:208|116:248,1,70
132,136,73714,2,0,P|116:88|76:60,1,70
48,136,74057,1,0,0:0:0:0:
56,220,74229,1,0,0:0:0:0:
140,228,74400,2,0,P|192:240|212:260,1,70
280,196,74743,6,0,P|276:156|288:112,1,70
348,76,75086,2,0,P|336:20|316:-4,2,70
376,108,75515,1,0,0:0:0:0:
404,140,75601,2,0,P|416:196|436:220,1,70
368,284,75944,5,0,0:0:0:0:
296,328,76116,2,0,P|240:332|224:328,1,70
264,252,76458,1,0,0:0:0:0:
156,220,76630,1,0,0:0:0:0:
72,204,76801,2,0,P|48:230|33:261,2,70
132,144,77316,1,0,0:0:0:0:
164,68,77487,6,0,P|196:92|236:104,1,70
304,72,77830,2,0,L|336:48,2,35
312,112,78087,1,0,0:0:0:0:
336,148,78173,2,0,P|332:216|292:276,1,140
216,240,78687,5,0,0:0:0:0:
160,176,78858,2,0,P|144:128|104:100,1,70
216,116,79201,2,0,P|264:100|292:60,1,70
296,196,79543,5,0,0:0:0:0:
344,268,79714,2,0,P|380:244|392:220,1,70
468,256,80056,1,0,0:0:0:0:
472,180,80228,6,0,P|440:136|424:128,1,62.9999980773926
360,120,80571,1,0,0:0:0:0:
312,60,80742,1,0,0:0:0:0:
248,100,80914,2,0,L|236:136,2,31.4999990386963
184,56,81256,1,0,0:0:0:0:
140,116,81428,1,0,0:0:0:0:
80,176,81600,6,0,P|104:212|200:236,1,140
248,176,82114,1,0,0:0:0:0:
296,104,82286,2,0,L|356:56,2,70
132,76,82971,2,0,P|80:116|72:208,1,140
72,228,83400,2,0,L|16:268,2,35
100,260,83657,2,0,P|140:312|232:320,1,140
220,244,84171,5,0,0:0:0:0:
200,164,84343,2,0,P|168:132|132:120,1,70
216,76,84686,2,0,P|248:44|284:32,1,70
336,84,85028,1,0,0:0:0:0:
360,164,85200,2,0,L|456:128,2,70
276,172,85714,6,0,P|312:224|340:248,1,70
400,236,86057,1,0,0:0:0:0:
444,308,86228,1,0,0:0:0:0:
368,348,86400,1,0,0:0:0:0:
368,348,86486,1,0,0:0:0:0:
368,348,86571,2,0,L|304:320,1,70
256,252,86914,5,0,0:0:0:0:
188,200,87086,2,0,P|152:128|136:120,1,70
244,120,87428,2,0,P|280:48|296:40,1,70
348,84,87771,1,0,0:0:0:0:
416,132,87943,1,0,0:0:0:0:
348,180,88114,2,0,P|328:212|300:232,1,70
244,172,88457,6,0,P|188:124|116:108,1,140
124,108,88886,1,0,0:0:0:0:
124,108,88971,1,0,0:0:0:0:
140,192,89143,2,0,P|196:240|268:256,1,140
312,192,89657,1,0,0:0:0:0:
352,120,89828,2,0,P|392:92|412:64,1,70
424,160,90171,2,0,P|444:192|452:244,1,70
376,260,90514,5,0,0:0:0:0:
308,212,90686,1,0,0:0:0:0:
240,260,90857,1,0,0:0:0:0:
172,212,91028,1,0,0:0:0:0:
252,368,92571,6,0,P|208:340|184:296,1,70
256,264,92914,1,0,0:0:0:0:
276,184,93085,1,0,0:0:0:0:
316,108,93257,2,0,P|347:124|372:149,2,70
232,120,93771,1,0,0:0:0:0:
176,184,93942,6,0,P|128:168|96:172,1,70
128,252,94285,2,0,L|95:243,2,35
148,288,94542,1,0,0:0:0:0:
184,312,94628,2,0,P|256:300|316:264,1,140
320,184,95142,5,0,0:0:0:0:
244,152,95314,2,0,P|228:104|188:76,1,70
304,104,95657,2,0,P|352:88|380:48,1,70
308,16,95999,1,0,0:0:0:0:
224,28,96171,1,0,0:0:0:0:
172,92,96342,2,0,P|160:144|140:164,1,70
252,216,96685,6,0,P|292:212|336:224,1,70
372,284,97028,2,0,P|428:272|452:252,2,70
340,312,97457,1,0,0:0:0:0:
308,340,97542,2,0,P|252:352|228:372,1,70
164,304,97885,5,0,0:0:0:0:
120,232,98057,2,0,P|116:176|120:160,1,70
196,200,98399,1,0,0:0:0:0:
240,128,98571,1,0,0:0:0:0:
300,72,98742,2,0,P|274:48|243:33,2,70
348,144,99257,1,0,0:0:0:0:
420,100,99428,6,0,P|396:132|384:172,1,70
376,240,99771,2,0,L|400:272,2,35
336,248,100028,1,0,0:0:0:0:
300,272,100114,2,0,P|232:268|172:228,1,140
200,148,100628,5,0,0:0:0:0:
280,120,100800,2,0,P|296:72|320:48,1,70
372,112,101143,2,0,P|388:64|412:40,1,70
464,104,101486,5,0,0:0:0:0:
444,184,101657,1,0,0:0:0:0:
396,252,101828,1,0,0:0:0:0:
316,280,102000,1,0,0:0:0:0:
256,192,102171,12,0,103200,0:0:0:0:
432,208,103543,6,0,P|408:172|312:148,1,140
264,208,104057,1,0,0:0:0:0:
216,280,104229,2,0,L|156:328,2,70
380,308,104914,2,0,P|432:268|440:176,1,140
440,156,105343,2,0,L|496:116,2,35
412,124,105600,2,0,P|372:72|280:64,1,140
292,140,106114,5,0,0:0:0:0:
312,220,106286,2,0,P|344:252|380:264,1,70
296,308,106629,2,0,P|264:340|228:352,1,70
176,300,106971,1,0,0:0:0:0:
152,220,107143,2,0,L|56:256,2,70
236,212,107657,6,0,P|200:160|172:136,1,70
112,148,108000,1,0,0:0:0:0:
68,76,108171,1,0,0:0:0:0:
144,36,108343,1,0,0:0:0:0:
144,36,108429,1,0,0:0:0:0:
144,36,108514,2,0,L|208:64,1,70
256,132,108857,5,0,0:0:0:0:
324,184,109029,2,0,P|360:256|376:264,1,70
268,264,109371,2,0,P|232:336|216:344,1,70
164,300,109714,1,0,0:0:0:0:
96,252,109886,1,0,0:0:0:0:
164,204,110057,2,0,P|184:172|212:152,1,70
268,212,110400,6,0,P|324:260|396:276,1,140
387,275,110829,1,0,0:0:0:0:
387,275,110914,1,0,0:0:0:0:
372,192,111086,2,0,P|316:144|244:128,1,140
200,192,111600,1,0,0:0:0:0:
160,264,111771,2,0,P|120:292|100:320,1,70
88,224,112114,2,0,P|68:192|60:140,1,70
136,124,112457,5,0,0:0:0:0:
204,172,112629,1,0,0:0:0:0:
272,124,112800,1,0,0:0:0:0:
340,172,112971,1,0,0:0:0:0:
256,192,113143,12,0,114171,2:0:0:0:
104,216,114514,6,0,P|132:180|160:168,1,62.9999980773926
220,184,114857,2,0,P|248:148|276:136,1,62.9999980773926
320,188,115200,1,0,0:0:0:0:
368,248,115371,2,0,P|400:284|428:296,1,62.9999980773926
464,232,115714,5,0,0:0:0:0:
404,184,115886,2,0,P|376:164|336:144,1,62.9999980773926
304,208,116228,2,0,P|276:188|236:168,1,62.9999980773926
184,212,116571,2,0,L|184:180,4,31.4999990386963
136,272,117086,5,0,0:0:0:0:
208,292,117257,2,0,P|248:300|276:320,1,62.9999980773926
280,236,117600,2,0,P|288:196|308:168,1,62.9999980773926
372,200,117943,1,0,0:0:0:0:
444,176,118114,1,0,0:0:0:0:
308,112,118457,5,0,0:0:0:0:
236,128,118628,2,0,P|204:140|184:164,1,62.9999980773926
224,224,118971,2,0,P|212:256|218:286,1,62.9999980773926
292,288,119314,2,0,L|320:320,4,31.4999990386963
320,216,119828,5,0,0:0:0:0:
368,156,120000,2,0,P|400:128|440:120,1,62.9999980773926
364,72,120343,2,0,P|351:43|329:21,1,62.9999980773926
272,72,120686,1,0,0:0:0:0:
208,108,120857,2,0,P|172:112|140:96,1,62.9999980773926
132,176,121200,1,0,0:0:0:0:
80,232,121371,6,0,L|152:264,1,62.9999980773926
196,308,121714,2,0,L|124:340,1,62.9999980773926
64,356,122057,2,0,L|20:356,4,31.4999990386963
216,352,122743,6,0,L|292:324,1,62.9999980773926
352,332,123086,2,0,L|324:256,1,62.9999980773926
260,248,123428,1,0,0:0:0:0:
184,244,123600,2,0,L|224:168,1,62.9999980773926
284,156,123943,1,0,0:0:0:0:
356,180,124114,6,0,P|376:208|400:228,1,62.9999980773926
332,260,124457,2,0,P|314:285|290:306,1,62.9999980773926
208,244,124800,2,0,L|208:284,4,31.4999990386963
160,176,136457,5,0,0:0:0:0:
288,96,136800,1,0,0:0:0:0:
416,176,137143,1,0,0:0:0:0:
288,256,137486,1,0,0:0:0:0:
136,256,137828,5,0,0:0:0:0:
136,104,138171,1,0,0:0:0:0:
268,32,138514,1,0,0:0:0:0:
264,184,138857,1,0,0:0:0:0:
352,304,139200,6,0,L|388:304,2,31.4999990386963
304,248,139543,2,0,L|304:212,2,31.4999990386963
252,304,139886,1,0,0:0:0:0:
184,272,140057,1,0,0:0:0:0:
136,216,140228,1,0,0:0:0:0:
108,148,140400,1,0,0:0:0:0:
40,116,140571,2,0,P|88:76|152:56,1,125.999996154785
208,104,141086,5,0,0:0:0:0:
272,144,141257,2,0,L|316:132,2,31.4999990386963
264,180,141514,1,0,0:0:0:0:
292,208,141600,2,0,P|340:244|352:272,1,62.9999980773926
264,316,141943,5,0,0:0:0:0:
188,316,142115,1,0,0:0:0:0:
132,264,142286,2,0,L|80:312,2,62.9999980773926
188,212,142800,5,0,0:0:0:0:
264,212,142972,1,0,0:0:0:0:
320,264,143143,2,0,L|372:216,2,62.9999980773926
256,192,143657,12,0,144343,0:0:0:0:
256,192,145200,12,0,147086,0:0:0:0:
260,16,147428,6,0,P|304:44|328:88,1,70
256,120,147771,1,0,0:0:0:0:
236,200,147942,1,0,0:0:0:0:
196,276,148114,2,0,P|165:260|140:235,2,70
280,264,148628,1,0,0:0:0:0:
336,200,148799,6,0,P|384:216|416:212,1,70
384,132,149142,2,0,L|417:141,2,35
364,96,149399,1,0,0:0:0:0:
328,72,149485,2,0,P|256:84|196:120,1,140
192,200,149999,5,0,0:0:0:0:
256,256,150171,2,0,P|272:304|312:332,1,70
228,280,150514,2,0,P|180:296|152:336,1,70
220,352,150857,1,0,0:0:0:0:
296,352,151029,1,0,0:0:0:0:
312,276,151200,2,0,P|324:224|344:204,1,70
260,168,151543,6,0,P|220:172|176:160,1,70
140,100,151886,2,0,P|84:112|60:132,2,70
172,72,152315,1,0,0:0:0:0:
204,44,152401,2,0,P|260:32|284:12,1,70
348,80,152744,5,0,0:0:0:0:
392,152,152916,2,0,P|396:208|392:224,1,70
316,184,153258,1,0,0:0:0:0:
284,292,153430,1,0,0:0:0:0:
356,308,153601,2,0,P|382:332|413:347,2,70
208,316,154116,1,0,0:0:0:0:
132,284,154287,6,0,P|156:252|168:212,1,70
136,144,154630,2,0,L|112:112,2,35
176,136,154887,1,0,0:0:0:0:
212,112,154973,2,0,P|280:116|340:156,1,140
304,232,155487,5,0,0:0:0:0:
240,288,155658,2,0,P|192:304|164:344,1,70
180,232,156001,2,0,P|164:184|124:156,1,70
260,152,156343,5,0,0:0:0:0:
332,104,156514,2,0,P|308:68|284:56,1,70
208,24,156856,1,0,0:0:0:0:
124,32,157028,6,0,P|80:64|72:80,1,62.9999980773926
164,100,157371,1,0,0:0:0:0:
96,148,157542,1,0,0:0:0:0:
172,180,157714,2,0,L|208:192,2,31.4999990386963
148,268,158056,1,0,0:0:0:0:
212,324,158228,1,0,0:0:0:0:
296,312,158400,6,0,P|332:288|356:192,1,140
264,208,158914,1,0,0:0:0:0:
216,280,159086,2,0,L|156:328,2,70
380,308,159771,2,0,P|432:268|440:176,1,140
440,156,160200,2,0,L|496:116,2,35
412,124,160457,2,0,P|372:72|280:64,1,140
292,140,160971,5,0,0:0:0:0:
312,220,161143,2,0,P|344:252|380:264,1,70
296,308,161486,2,0,P|264:340|228:352,1,70
176,300,161828,1,0,0:0:0:0:
152,220,162000,2,0,L|56:256,2,70
236,212,162514,6,0,P|200:160|172:136,1,70
112,148,162857,1,0,0:0:0:0:
68,76,163028,1,0,0:0:0:0:
144,36,163200,1,0,0:0:0:0:
144,36,163286,1,0,0:0:0:0:
144,36,163371,2,0,L|208:64,1,70
256,132,163714,5,0,0:0:0:0:
324,184,163886,2,0,P|360:256|376:264,1,70
268,264,164228,2,0,P|232:336|216:344,1,70
164,300,164571,1,0,0:0:0:0:
96,252,164743,1,0,0:0:0:0:
164,204,164914,2,0,P|184:172|212:152,1,70
268,212,165257,6,0,P|324:260|396:276,1,140
372,192,165943,2,0,P|316:144|244:128,1,140
200,192,166457,1,0,0:0:0:0:
160,264,166628,2,0,P|120:292|100:320,1,70
88,224,166971,2,0,P|68:192|60:140,1,70
136,124,167314,5,0,0:0:0:0:
204,172,167486,1,0,0:0:0:0:
272,124,167657,1,0,0:0:0:0:
340,172,167828,1,0,0:0:0:0:
404,120,168000,2,0,P|432:172|424:200,1,70,0|0,2:0|2:0,2:0:0:0:
112,92,169370,6,0,P|192:92|208:100,1,70
212,168,169713,1,0,0:0:0:0:
284,212,169885,1,0,0:0:0:0:
344,268,170056,2,0,P|375:252|399:227,2,70
260,284,170570,5,0,0:0:0:0:
176,276,170742,2,0,L|108:252,1,70
132,172,171085,2,0,L|99:181,2,35
152,136,171342,1,0,0:0:0:0:
188,112,171428,2,0,P|260:124|320:160,1,140
264,224,171943,1,0,0:0:0:0:
256,308,172114,6,0,L|336:280,1,70
380,224,172457,2,0,L|300:196,1,70
232,176,172800,1,0,0:0:0:0:
308,140,172971,1,0,0:0:0:0:
392,160,173143,1,0,0:0:0:0:
452,216,173314,1,0,0:0:0:0:
456,300,173486,2,0,P|424:360|336:336,1,140
280,328,174000,5,0,0:0:0:0:
208,284,174171,2,0,L|168:312,2,35
216,244,174428,1,0,0:0:0:0:
212,204,174513,2,0,P|200:168|208:108,1,70
280,112,174857,6,0,P|360:112|376:120,1,70
300,216,175200,1,0,0:0:0:0:
228,172,175372,1,0,0:0:0:0:
168,116,175543,2,0,P|136:131|112:156,2,70
252,100,176057,5,0,0:0:0:0:
336,108,176229,2,0,L|404:132,1,70
380,212,176572,2,0,L|413:203,2,35
360,248,176829,1,0,0:0:0:0:
324,272,176915,2,0,P|252:260|192:224,1,140
248,160,177430,1,0,0:0:0:0:
256,76,177601,6,0,L|176:104,1,70
132,160,177944,2,0,L|212:188,1,70
280,208,178287,1,0,0:0:0:0:
204,244,178458,1,0,0:0:0:0:
120,224,178630,1,0,0:0:0:0:
60,168,178801,1,0,0:0:0:0:
56,84,178973,2,0,P|88:24|176:48,1,140
232,56,179487,5,0,0:0:0:0:
304,100,179658,2,0,L|344:72,2,35
296,140,179915,1,0,0:0:0:0:
300,180,180000,2,0,P|312:216|304:276,1,70
72,240,180343,5,0,0:0:0:0:
224,240,180685,1,0,0:0:0:0:
368,188,181028,2,0,L|416:140,2,62.9999980773926
352,264,181543,1,0,0:0:0:0:
280,244,181714,6,0,L|256:208,1,31.4999990386963
152,244,182057,2,0,L|128:208,1,31.4999990386963
56,136,182400,2,0,L|56:96,4,31.4999990386963
208,136,183085,5,0,0:0:0:0:
280,160,183257,1,0,0:0:0:0:
348,196,183428,1,0,0:0:0:0:
416,232,183600,2,0,L|448:216,2,31.4999990386963
380,296,183943,2,0,L|304:276,2,62.9999980773926
436,348,184457,6,0,L|468:304,1,31.4999990386963
344,344,184800,2,0,L|376:300,1,31.4999990386963
248,332,185143,2,0,P|208:312|144:240,1,125.999996154785
256,192,185828,12,0,187028,0:0:0:0:
256,192,187200,12,0,188400,0:0:0:0:
256,192,188571,12,0,189771,0:0:0:0:
256,192,189943,12,0,190628,0:0:0:0:
168,92,190971,6,0,L|236:120,1,70
300,168,191486,2,0,L|232:196,1,70
172,252,192000,2,0,L|240:280,1,70
