osu file format v14

[General]
AudioFilename: S3RL - MTC (Different Heaven Remix).mp3
AudioLeadIn: 0
PreviewTime: 66042
Countdown: 1
SampleSet: Soft
StackLeniency: 0.7
Mode: 0
LetterboxInBreaks: 1
WidescreenStoryboard: 0

[Editor]
Bookmarks: 45557,67500,140185
DistanceSpacing: 0.8
BeatDivisor: 4
GridSize: 8
TimelineZoom: 3.099999

[Metadata]
Title:MTC (Different Heaven Remix)
TitleUnicode:MTC (Different Heaven Remix)
Artist:S3RL
ArtistUnicode:S3RL
Creator:Maakkeli
Version:MKL
Source:
Tags:
BeatmapID:727432
BeatmapSetID:327814

[Difficulty]
HPDrainRate:5
CircleSize:4
OverallDifficulty:6
ApproachRate:9
SliderMultiplier:1.9
SliderTickRate:1

[Events]
//Background and Video events
0,0,"okeiokeiokei.png",0,0
//Break Periods
2,45757,55928
2,111242,115928
//Storyboard Layer 0 (Background)
//Storyboard Layer 1 (Fail)
//Storyboard Layer 2 (Pass)
//Storyboard Layer 3 (Foreground)
//Storyboard Sound Samples

[TimingPoints]
300,342.857142857143,4,2,0,40,1,0
300,-100,4,2,0,10,0,0
642,-100,4,2,0,20,0,0
985,-100,4,2,0,30,0,0
1328,-100,4,2,0,40,0,0
15728,-58.8235294117647,4,2,0,40,0,0
16071,-100,4,2,0,40,0,0
25842,-100,4,2,0,40,0,0
26185,-100,4,2,0,40,0,1
45557,-100,4,2,0,40,0,0
56528,-100,4,2,0,40,0,0
67500,-100,4,2,0,40,0,1
80185,-100,4,2,0,40,0,0
80871,-100,4,2,0,40,0,1
89271,-100,4,2,0,40,0,0
107271,-100,4,2,0,30,0,0
108642,-100,4,2,0,20,0,0
110014,-100,4,2,0,10,0,0
116528,-100,4,2,0,40,0,0
140185,-100,4,2,0,40,0,1
152871,-100,4,2,0,40,0,0
153557,-100,4,2,0,40,0,1
160757,-100,4,2,0,40,0,0
177557,-66.6666666666667,4,2,0,40,0,0
177900,-100,4,2,0,40,0,0

[HitObjects]
40,80,300,6,0,P|112:48|186:89,1,142.5
176,128,642,2,0,P|248:152|322:118,1,142.5
352,144,985,2,0,P|414:187|432:266,1,142.5
400,272,1328,2,0,P|312:263|228:320,1,190
129,221,1842,5,0,0:0:0:0:
48,126,2014,1,0,0:0:0:0:
140,44,2185,1,0,0:0:0:0:
225,133,2357,2,0,P|264:170|311:192,2,95
305,38,2871,1,0,0:0:0:0:
365,185,3042,1,0,0:0:0:0:
433,38,3214,1,0,0:0:0:0:
430,285,3557,6,0,P|435:348|426:383,2,95
366,178,4071,1,0,0:0:0:0:
244,160,4242,2,0,P|196:185|161:232,1,95
185,338,4585,1,0,0:0:0:0:
461,180,5100,6,0,L|405:93,1,95
298,46,5442,1,0,0:0:0:0:
179,11,5614,1,0,0:0:0:0:
80,85,5785,1,0,0:0:0:0:
197,347,6300,6,0,P|257:328|287:307,1,95
213,208,6642,1,0,0:0:0:0:
141,309,6814,1,0,0:0:0:0:
88,197,6985,2,0,P|69:132|64:88,2,95
197,221,7842,5,0,0:0:0:0:
272,123,8013,1,0,0:0:0:0:
349,219,8185,1,0,0:0:0:0:
264,309,8357,1,0,0:0:0:0:
229,188,8528,2,0,P|163:153|134:130,1,95
472,230,9214,6,0,P|406:267|359:274,1,95
264,309,9557,1,0,0:0:0:0:
148,276,9728,1,0,0:0:0:0:
49,200,9900,1,0,0:0:0:0:
354,47,10414,5,0,0:0:0:0:
426,146,10585,1,0,0:0:0:0:
306,114,10757,1,0,0:0:0:0:
422,74,10928,1,0,0:0:0:0:
350,175,11100,2,0,P|316:236|294:262,1,95
117,230,11785,5,0,0:0:0:0:
113,353,11956,1,0,0:0:0:0:
178,247,12128,1,0,0:0:0:0:
73,312,12299,1,0,0:0:0:0:
196,302,12471,1,0,0:0:0:0:
79,261,12642,1,0,0:0:0:0:
276,123,13157,6,0,P|317:161|336:198,1,95
215,163,13500,1,0,0:0:0:0:
303,248,13671,1,0,0:0:0:0:
181,225,13842,2,0,P|130:190|100:157,1,95
72,40,14528,5,0,0:0:0:0:
200,40,14700,1,0,0:0:0:0:
240,160,14871,1,0,0:0:0:0:
136,224,15042,1,0,0:0:0:0:
32,160,15214,1,0,0:0:0:0:
136,120,15385,1,0,0:0:0:0:
304,80,15728,6,0,P|376:72|280:128,1,323.000006160736
194,83,16242,1,0,0:0:0:0:
100,1,16414,1,0,0:0:0:0:
47,112,16585,1,0,0:0:0:0:
144,188,16757,2,0,P|165:245|228:308,1,142.5
255,300,17100,2,0,P|305:250|332:185,1,142.5
322,154,17442,2,0,P|254:133|138:154,1,190
256,0,18128,5,8,3:0:0:0:
64,336,18471,1,8,3:0:0:0:
448,336,18814,1,8,3:0:0:0:
32,96,19157,1,8,3:0:0:0:
496,96,19500,1,8,3:0:0:0:
256,384,19842,1,8,3:0:0:0:
256,0,20185,1,8,3:0:0:0:
176,352,20528,1,8,3:0:0:0:
336,32,20871,1,8,3:0:0:0:
168,128,21214,5,8,0:0:0:0:
328,248,21385,1,8,0:0:0:0:
328,128,21557,1,8,0:0:0:0:
168,248,21728,1,8,0:0:0:0:
142,109,21900,5,8,0:0:0:0:
348,264,22071,1,8,0:0:0:0:
348,109,22243,1,8,0:0:0:0:
142,264,22414,1,8,0:0:0:0:
107,278,22500,1,0,0:0:0:0:
69,281,22585,1,8,0:0:0:0:
39,305,22671,1,0,0:0:0:0:
39,343,22757,1,8,0:0:0:0:
71,361,22842,1,0,0:0:0:0:
109,362,22928,1,8,0:0:0:0:
139,339,23014,1,0,0:0:0:0:
156,304,23100,1,8,0:0:0:0:
142,264,23185,1,0,0:0:0:0:
126,229,23271,1,8,0:0:0:0:
106,196,23357,1,0,0:0:0:0:
112,158,23442,1,0,0:0:0:0:
135,128,23528,2,0,L|211:58,1,95
390,57,23957,5,0,0:0:0:0:
198,201,24129,1,0,0:0:0:0:
381,323,24471,5,0,0:0:0:0:
265,97,24814,1,0,0:0:0:0:
116,221,24986,1,0,0:0:0:0:
326,205,25328,1,0,0:0:0:0:
194,341,25500,1,0,0:0:0:0:
106,88,25842,5,0,0:0:0:0:
121,245,26013,1,0,0:0:0:0:
203,46,26185,5,8,0:0:0:0:
218,203,26356,1,0,0:0:0:0:
326,26,26528,1,0,0:0:0:0:
78,192,26700,1,8,0:0:0:0:
429,295,26871,2,0,P|450:238|455:197,1,95
264,58,27214,5,0,0:0:0:0:
167,229,27385,1,8,0:0:0:0:
383,115,27557,1,0,0:0:0:0:
101,59,27728,1,0,0:0:0:0:
295,318,27900,1,0,0:0:0:0:
72,151,28071,1,8,0:0:0:0:
110,169,28157,1,0,0:0:0:0:
139,138,28242,1,0,0:0:0:0:
181,144,28328,1,0,0:0:0:0:
210,113,28414,1,0,0:0:0:0:
336,53,28585,6,0,P|391:50|436:62,1,95,0|8,0:0|0:0,0:0:0:0:
452,253,28928,1,0,0:0:0:0:
260,89,29100,1,0,0:0:0:0:
497,23,29271,1,0,0:0:0:0:
284,258,29442,1,8,0:0:0:0:
371,32,29614,1,0,0:0:0:0:
423,341,29785,2,0,L|327:318,1,95
274,197,30128,5,8,0:0:0:0:
142,58,30300,1,0,0:0:0:0:
197,319,30471,1,0,0:0:0:0:
235,41,30642,2,0,L|131:59,1,95,0|8,0:0|0:0,0:0:0:0:
64,279,30985,1,0,0:0:0:0:
283,118,31157,1,0,0:0:0:0:
42,73,31328,1,0,0:0:0:0:
121,211,31500,6,0,L|223:187,1,95,8|0,0:0|0:0,0:0:0:0:
301,43,31842,1,0,0:0:0:0:
511,171,32014,1,0,0:0:0:0:
265,277,32185,1,8,0:0:0:0:
236,244,32271,1,0,0:0:0:0:
193,251,32357,1,0,0:0:0:0:
168,216,32442,1,0,0:0:0:0:
126,225,32528,1,0,0:0:0:0:
26,33,32700,1,0,0:0:0:0:
242,96,32871,1,8,0:0:0:0:
142,353,33042,1,0,0:0:0:0:
165,51,33214,1,0,0:0:0:0:
165,51,33385,1,0,0:0:0:0:
316,54,33557,6,0,P|350:92|364:136,1,95,8|0,0:0|0:0,0:0:0:0:
273,332,33900,1,0,0:0:0:0:
231,37,34071,1,0,0:0:0:0:
48,178,34242,1,8,0:0:0:0:
387,286,34414,1,0,0:0:0:0:
228,113,34585,1,0,0:0:0:0:
138,358,34757,1,0,0:0:0:0:
376,126,34928,1,8,0:0:0:0:
201,71,35100,6,0,P|254:50|294:45,1,95
389,197,35442,1,0,0:0:0:0:
185,165,35614,1,8,0:0:0:0:
384,29,35785,1,0,0:0:0:0:
274,261,35957,1,0,0:0:0:0:
88,45,36128,1,0,0:0:0:0:
333,157,36300,1,8,0:0:0:0:
41,143,36471,2,0,L|40:253,1,95
164,324,36814,5,0,0:0:0:0:
270,198,36985,1,8,0:0:0:0:
69,215,37157,1,0,0:0:0:0:
256,347,37328,1,0,0:0:0:0:
176,90,37500,1,0,0:0:0:0:
380,286,37671,1,8,0:0:0:0:
257,40,37842,2,0,L|166:95,1,95
111,255,38185,5,0,0:0:0:0:
296,117,38357,1,8,0:0:0:0:
222,341,38528,1,0,0:0:0:0:
162,97,38700,1,0,0:0:0:0:
202,109,38785,1,0,0:0:0:0:
235,136,38871,1,0,0:0:0:0:
254,174,38957,1,0,0:0:0:0:
282,204,39042,1,8,0:0:0:0:
317,228,39128,1,0,0:0:0:0:
356,243,39214,1,0,0:0:0:0:
397,252,39300,2,0,P|465:217|498:160,1,142.5
368,38,39728,5,8,0:0:0:0:
351,210,39900,1,0,0:0:0:0:
302,0,40071,1,0,0:0:0:0:
285,172,40243,1,0,0:0:0:0:
446,56,40414,2,0,L|327:76,1,95,8|0,0:0|0:0,0:0:0:0:
254,268,40757,1,0,0:0:0:0:
146,41,40928,1,0,0:0:0:0:
402,163,41100,1,8,0:0:0:0:
106,262,41271,1,0,0:0:0:0:
171,115,41442,6,0,P|241:100|269:106,1,95
349,275,41785,1,8,0:0:0:0:
402,62,41957,1,0,0:0:0:0:
171,284,42128,1,0,0:0:0:0:
366,132,42300,1,0,0:0:0:0:
58,52,42471,1,8,0:0:0:0:
282,328,42642,1,0,0:0:0:0:
239,34,42814,1,0,0:0:0:0:
84,139,42985,6,0,L|60:230,1,95,0|8,0:0|0:0,0:0:0:0:
233,335,43328,1,0,0:0:0:0:
103,106,43500,1,0,0:0:0:0:
395,188,43671,1,0,0:0:0:0:
86,290,43842,1,8,0:0:0:0:
235,94,44014,1,0,0:0:0:0:
415,341,44185,1,0,0:0:0:0:
151,188,44357,1,0,0:0:0:0:
319,112,44528,6,0,L|421:93,1,95,8|0,0:0|0:0,0:0:0:0:
473,326,44871,1,0,0:0:0:0:
375,165,45042,1,0,0:0:0:0:
377,373,45214,1,8,0:0:0:0:
489,131,45385,1,0,0:0:0:0:
233,331,45557,1,0,0:0:0:0:
88,168,56528,6,0,L|79:219,3,47.5
98,242,56871,1,0,0:0:0:0:
119,267,56957,1,0,0:0:0:0:
148,280,57042,1,0,0:0:0:0:
181,276,57128,1,0,0:0:0:0:
207,255,57214,1,0,0:0:0:0:
224,226,57300,1,0,0:0:0:0:
253,210,57385,1,0,0:0:0:0:
286,209,57471,1,0,0:0:0:0:
316,222,57557,1,0,0:0:0:0:
338,246,57642,1,0,0:0:0:0:
266,343,57900,5,0,0:0:0:0:
232,339,57986,1,0,0:0:0:0:
203,322,58071,1,0,0:0:0:0:
181,296,58157,1,0,0:0:0:0:
171,263,58243,1,0,0:0:0:0:
180,231,58328,1,0,0:0:0:0:
201,205,58414,1,0,0:0:0:0:
207,172,58500,1,0,0:0:0:0:
196,140,58586,1,0,0:0:0:0:
172,116,58671,1,0,0:0:0:0:
160,84,58757,1,0,0:0:0:0:
168,51,58843,1,0,0:0:0:0:
193,30,58928,1,0,0:0:0:0:
357,62,59271,5,0,0:0:0:0:
357,62,59357,1,0,0:0:0:0:
357,62,59443,2,0,L|366:119,1,47.5
434,190,59614,1,0,0:0:0:0:
434,190,59700,1,0,0:0:0:0:
434,190,59786,2,0,L|440:247,1,47.5
368,330,59957,1,0,0:0:0:0:
338,344,60043,1,0,0:0:0:0:
305,349,60128,1,0,0:0:0:0:
273,336,60214,1,0,0:0:0:0:
248,313,60300,1,0,0:0:0:0:
94,167,60642,5,0,0:0:0:0:
94,167,60728,1,0,0:0:0:0:
94,167,60814,1,0,0:0:0:0:
127,167,60900,1,0,0:0:0:0:
158,158,60985,1,0,0:0:0:0:
187,143,61071,1,0,0:0:0:0:
219,134,61157,1,0,0:0:0:0:
251,139,61242,1,0,0:0:0:0:
280,154,61328,1,0,0:0:0:0:
308,171,61414,1,0,0:0:0:0:
341,174,61500,1,0,0:0:0:0:
371,162,61585,1,0,0:0:0:0:
397,141,61671,1,0,0:0:0:0:
89,150,62014,5,0,0:0:0:0:
83,327,62185,1,0,0:0:0:0:
156,98,62357,1,0,0:0:0:0:
150,275,62528,1,0,0:0:0:0:
226,47,62700,1,0,0:0:0:0:
220,224,62871,1,0,0:0:0:0:
297,6,63042,1,0,0:0:0:0:
291,183,63213,1,0,0:0:0:0:
420,54,63385,6,0,B|408:104|408:104|370:153,1,95
280,280,63728,2,0,B|292:230|292:230|318:195,1,95
448,77,64071,2,0,B|423:122|423:122|373:159,1,95
251,256,64414,2,0,B|276:211|276:211|312:185,1,95
469,108,64757,2,0,B|432:144|432:144|374:165,1,95
230,225,65100,2,0,B|267:189|267:189|308:174,1,95
430,179,65442,1,0,0:0:0:0:
440,210,65528,1,0,0:0:0:0:
447,242,65614,1,0,0:0:0:0:
444,275,65700,1,0,0:0:0:0:
426,302,65785,1,0,0:0:0:0:
399,321,65871,1,0,0:0:0:0:
366,326,65957,1,0,0:0:0:0:
336,311,66042,1,0,0:0:0:0:
306,295,66128,1,0,0:0:0:0:
273,300,66214,1,0,0:0:0:0:
244,317,66300,1,0,0:0:0:0:
213,329,66385,1,0,0:0:0:0:
180,321,66471,1,0,0:0:0:0:
79,93,66814,5,8,0:0:0:0:
206,203,66986,1,0,0:0:0:0:
150,57,67157,1,0,0:0:0:0:
277,167,67329,1,0,0:0:0:0:
121,192,67500,6,0,P|157:130|181:107,1,95,8|0,0:0|0:0,0:0:0:0:
300,48,67842,1,0,0:0:0:0:
371,202,68014,1,0,0:0:0:0:
156,155,68185,1,8,0:0:0:0:
401,65,68357,1,0,0:0:0:0:
242,319,68528,1,0,0:0:0:0:
209,40,68700,1,0,0:0:0:0:
345,302,68871,6,0,P|404:270|432:245,1,95,8|0,0:0|0:0,0:0:0:0:
368,109,69214,1,0,0:0:0:0:
217,249,69385,1,0,0:0:0:0:
261,29,69557,1,8,0:0:0:0:
397,276,69728,1,0,0:0:0:0:
100,145,69900,1,0,0:0:0:0:
231,91,70071,6,0,P|283:130|323:147,1,95,0|8,0:0|0:0,0:0:0:0:
438,37,70414,1,0,0:0:0:0:
401,223,70585,1,0,0:0:0:0:
504,28,70757,1,0,0:0:0:0:
273,206,70928,1,8,0:0:0:0:
365,36,71100,1,0,0:0:0:0:
335,339,71271,1,0,0:0:0:0:
144,119,71442,1,0,0:0:0:0:
359,146,71614,6,0,P|335:222|318:249,1,95,8|0,0:0|0:0,0:0:0:0:
167,220,71957,1,0,0:0:0:0:
225,59,72128,1,0,0:0:0:0:
291,285,72300,1,8,0:0:0:0:
131,76,72471,1,0,0:0:0:0:
434,234,72642,1,0,0:0:0:0:
240,167,72814,1,0,0:0:0:0:
380,47,72985,6,0,P|409:109|416:137,1,95,8|0,0:0|0:0,0:0:0:0:
338,300,73328,1,0,0:0:0:0:
281,111,73500,1,0,0:0:0:0:
495,279,73671,1,8,0:0:0:0:
213,238,73842,1,0,0:0:0:0:
404,38,74014,1,0,0:0:0:0:
338,300,74185,1,0,0:0:0:0:
240,167,74357,6,0,P|156:182|134:190,1,95,8|0,0:0|0:0,0:0:0:0:
72,355,74700,1,0,0:0:0:0:
49,141,74871,1,0,0:0:0:0:
255,319,75042,1,8,0:0:0:0:
1,253,75214,1,0,0:0:0:0:
214,46,75385,1,0,0:0:0:0:
161,326,75557,1,0,0:0:0:0:
126,172,75728,6,0,P|187:138|219:125,1,95,8|0,0:0|0:0,0:0:0:0:
342,240,76071,1,0,0:0:0:0:
276,64,76242,1,0,0:0:0:0:
499,132,76414,1,8,0:0:0:0:
235,225,76585,1,0,0:0:0:0:
383,29,76757,1,0,0:0:0:0:
444,331,76928,1,0,0:0:0:0:
357,182,77100,6,0,P|286:164|255:159,1,95,8|0,0:0|0:0,0:0:0:0:
276,327,77442,1,0,0:0:0:0:
334,83,77614,1,0,0:0:0:0:
105,268,77785,1,8,0:0:0:0:
395,174,77957,1,0,0:0:0:0:
205,34,78128,1,0,0:0:0:0:
311,267,78300,1,0,0:0:0:0:
162,180,78471,6,0,P|222:142|251:138,1,95,8|0,0:0|0:0,0:0:0:0:
362,252,78814,1,0,0:0:0:0:
291,75,78985,1,0,0:0:0:0:
209,318,79157,1,8,0:0:0:0:
417,93,79328,1,0,0:0:0:0:
130,128,79500,1,0,0:0:0:0:
301,334,79671,1,0,0:0:0:0:
224,88,79842,1,8,0:0:0:0:
209,318,80014,1,0,0:0:0:0:
209,318,80185,1,0,0:0:0:0:
328,105,80871,6,0,L|314:203,1,95
161,277,81214,1,8,0:0:0:0:
224,88,81385,1,0,0:0:0:0:
307,319,81557,1,0,0:0:0:0:
107,153,81728,1,0,0:0:0:0:
409,236,81900,1,8,0:0:0:0:
173,218,82071,1,0,0:0:0:0:
365,139,82242,6,0,P|337:98|301:63,1,95
128,37,82585,1,8,0:0:0:0:
251,211,82757,1,0,0:0:0:0:
226,7,82928,1,0,0:0:0:0:
110,233,83100,1,0,0:0:0:0:
381,78,83271,1,8,0:0:0:0:
62,73,83442,1,0,0:0:0:0:
232,188,83614,6,0,P|287:163|325:154,1,95
374,327,83957,1,8,0:0:0:0:
437,148,84128,1,0,0:0:0:0:
222,317,84300,1,0,0:0:0:0:
498,226,84471,1,0,0:0:0:0:
195,83,84642,1,8,0:0:0:0:
407,353,84814,1,0,0:0:0:0:
339,162,84985,6,0,P|258:143|235:145,1,95
141,290,85328,1,8,0:0:0:0:
77,108,85500,1,0,0:0:0:0:
271,263,85671,1,0,0:0:0:0:
5,193,85842,1,0,0:0:0:0:
277,30,86014,1,8,0:0:0:0:
186,339,86185,1,0,0:0:0:0:
150,166,86357,6,0,P|225:183|257:182,1,95
347,323,86700,1,8,0:0:0:0:
418,141,86871,1,0,0:0:0:0:
216,232,87042,1,0,0:0:0:0:
493,270,87214,1,0,0:0:0:0:
232,47,87385,1,8,0:0:0:0:
300,357,87557,1,0,0:0:0:0:
327,175,87728,6,0,P|272:152|223:154,1,95
156,313,88071,1,8,0:0:0:0:
98,122,88242,1,0,0:0:0:0:
279,273,88414,1,0,0:0:0:0:
68,223,88585,1,0,0:0:0:0:
202,97,88757,1,8,0:0:0:0:
208,303,88928,1,0,0:0:0:0:
276,53,89100,1,0,0:0:0:0:
103,299,89271,1,0,0:0:0:0:
214,172,89442,6,0,L|217:225,3,47.5
238,244,89785,1,0,0:0:0:0:
265,262,89871,1,0,0:0:0:0:
296,270,89956,1,0,0:0:0:0:
329,270,90042,1,0,0:0:0:0:
359,255,90128,1,0,0:0:0:0:
391,247,90214,1,0,0:0:0:0:
423,254,90300,1,0,0:0:0:0:
448,274,90385,1,0,0:0:0:0:
471,297,90471,2,0,B|476:347|432:368|381:351|376:345,1,95
249,49,90814,5,0,0:0:0:0:
249,49,90900,1,0,0:0:0:0:
249,49,90986,2,0,L|240:102,1,47.5
157,133,91157,1,0,0:0:0:0:
157,133,91243,1,0,0:0:0:0:
157,133,91329,2,0,L|148:186,1,47.5
150,276,91500,1,0,0:0:0:0:
170,301,91585,1,0,0:0:0:0:
197,320,91671,1,0,0:0:0:0:
230,323,91757,1,0,0:0:0:0:
261,314,91842,2,0,P|318:263|336:225,1,95
349,66,92185,5,0,0:0:0:0:
349,66,92271,1,0,0:0:0:0:
349,66,92357,1,0,0:0:0:0:
365,94,92442,1,0,0:0:0:0:
379,123,92528,1,0,0:0:0:0:
381,156,92614,1,0,0:0:0:0:
366,185,92700,1,0,0:0:0:0:
344,210,92785,1,0,0:0:0:0:
333,241,92871,1,0,0:0:0:0:
340,273,92957,1,0,0:0:0:0:
357,301,93042,1,0,0:0:0:0:
385,318,93128,1,0,0:0:0:0:
418,322,93214,2,0,P|469:308|501:264,1,95
466,137,93557,5,0,0:0:0:0:
441,114,93642,1,0,0:0:0:0:
411,98,93728,1,0,0:0:0:0:
379,87,93814,1,0,0:0:0:0:
346,93,93900,1,0,0:0:0:0:
318,110,93985,1,0,0:0:0:0:
291,130,94071,1,0,0:0:0:0:
263,148,94157,1,0,0:0:0:0:
230,150,94242,1,0,0:0:0:0:
197,141,94328,1,0,0:0:0:0:
170,120,94414,1,0,0:0:0:0:
143,99,94500,1,0,0:0:0:0:
111,88,94585,2,0,P|39:93|19:110,1,95
75,228,94928,5,0,0:0:0:0:
75,228,95014,1,0,0:0:0:0:
75,228,95100,2,0,L|108:277,1,47.5
198,285,95271,1,0,0:0:0:0:
198,285,95357,1,0,0:0:0:0:
198,285,95442,2,0,L|248:303,3,47.5
275,303,95785,1,0,0:0:0:0:
305,289,95871,1,0,0:0:0:0:
338,291,95957,2,0,P|394:313|446:302,1,95
418,65,96300,6,0,L|400:131,1,47.5
262,180,96471,2,0,L|235:137,1,47.5
121,40,96642,1,0,0:0:0:0:
121,40,96728,1,0,0:0:0:0:
121,40,96814,2,0,L|98:97,1,47.5
61,167,96985,1,0,0:0:0:0:
52,199,97071,1,0,0:0:0:0:
50,232,97157,1,0,0:0:0:0:
69,258,97242,1,0,0:0:0:0:
92,281,97328,2,0,P|148:311|187:312,1,95
178,52,97671,6,0,L|205:102,1,47.5
381,104,97842,2,0,L|361:158,1,47.5
193,176,98014,2,0,L|222:224,1,47.5
385,256,98185,2,0,L|363:304,1,47.5
280,336,98357,1,0,0:0:0:0:
280,304,98442,1,0,0:0:0:0:
280,272,98528,1,0,0:0:0:0:
280,240,98614,1,0,0:0:0:0:
280,208,98700,2,0,P|280:152|304:112,1,95
426,50,99042,5,0,0:0:0:0:
442,78,99128,1,0,0:0:0:0:
450,110,99214,1,0,0:0:0:0:
445,143,99300,1,0,0:0:0:0:
429,172,99385,1,0,0:0:0:0:
406,196,99471,1,0,0:0:0:0:
393,226,99557,1,0,0:0:0:0:
394,258,99642,1,0,0:0:0:0:
410,286,99728,1,0,0:0:0:0:
424,315,99814,2,0,L|382:358,2,47.5
342,338,100071,2,0,L|243:298,1,95
136,169,100414,5,0,0:0:0:0:
104,157,100500,1,0,0:0:0:0:
85,129,100585,1,0,0:0:0:0:
79,96,100671,1,0,0:0:0:0:
91,64,100757,1,0,0:0:0:0:
116,43,100842,1,0,0:0:0:0:
148,35,100928,1,0,0:0:0:0:
180,40,101014,1,0,0:0:0:0:
206,59,101100,1,0,0:0:0:0:
220,88,101185,1,0,0:0:0:0:
220,121,101271,1,0,0:0:0:0:
221,154,101357,1,0,0:0:0:0:
221,186,101442,2,0,P|229:246|295:302,1,142.5
320,304,101785,5,0,0:0:0:0:
320,304,101871,1,0,0:0:0:0:
320,304,101957,2,0,L|358:262,1,47.5
325,181,102128,1,0,0:0:0:0:
325,181,102214,1,0,0:0:0:0:
325,181,102300,2,0,L|364:141,1,47.5
383,73,102471,1,0,0:0:0:0:
357,51,102557,1,0,0:0:0:0:
326,39,102642,1,0,0:0:0:0:
292,36,102728,1,0,0:0:0:0:
258,39,102814,2,0,P|184:44|114:80,1,142.5
107,102,103157,5,0,0:0:0:0:
107,102,103242,1,0,0:0:0:0:
107,102,103328,2,0,L|90:161,1,47.5
186,188,103500,2,0,L|169:247,1,47.5
79,229,103671,2,0,L|62:288,1,47.5
146,328,103842,1,0,0:0:0:0:
177,339,103928,1,0,0:0:0:0:
210,343,104014,1,0,0:0:0:0:
243,340,104100,1,0,0:0:0:0:
274,328,104185,2,0,L|406:253,1,142.5
421,234,104528,5,0,0:0:0:0:
427,201,104614,1,0,0:0:0:0:
414,170,104700,1,0,0:0:0:0:
386,151,104785,1,0,0:0:0:0:
353,142,104871,1,0,0:0:0:0:
319,145,104957,1,0,0:0:0:0:
290,161,105042,1,0,0:0:0:0:
262,180,105128,1,0,0:0:0:0:
228,177,105214,1,0,0:0:0:0:
200,158,105300,1,0,0:0:0:0:
180,131,105385,1,0,0:0:0:0:
172,98,105471,1,0,0:0:0:0:
181,65,105557,1,0,0:0:0:0:
91,159,105900,6,0,L|81:208,12,47.5
185,253,107271,6,0,L|175:302,12,47.5
299,185,108642,6,0,L|289:234,12,47.5
411,257,110014,6,0,L|401:306,12,47.5
445,184,116528,5,0,0:0:0:0:
391,278,116871,1,0,0:0:0:0:
284,89,117385,1,0,0:0:0:0:
107,283,117900,5,0,0:0:0:0:
81,160,118242,1,0,0:0:0:0:
265,305,118757,1,0,0:0:0:0:
211,49,119271,5,0,0:0:0:0:
275,163,119614,1,0,0:0:0:0:
31,39,120128,1,0,0:0:0:0:
116,310,120642,5,0,0:0:0:0:
112,168,120985,1,0,0:0:0:0:
240,104,121328,1,0,0:0:0:0:
272,88,121414,1,0,0:0:0:0:
304,72,121500,1,0,0:0:0:0:
336,56,121585,1,0,0:0:0:0:
368,40,121671,2,0,L|464:-8,1,95
466,128,122014,5,0,0:0:0:0:
429,254,122357,1,0,0:0:0:0:
304,72,122871,1,0,0:0:0:0:
146,178,123385,5,0,0:0:0:0:
43,111,123728,1,0,0:0:0:0:
47,337,124242,1,0,0:0:0:0:
281,310,124757,5,0,0:0:0:0:
374,232,125100,1,0,0:0:0:0:
192,98,125614,1,0,0:0:0:0:
56,272,126128,5,0,0:0:0:0:
160,344,126471,1,0,0:0:0:0:
160,240,126814,1,0,0:0:0:0:
160,208,126900,1,0,0:0:0:0:
160,176,126985,1,0,0:0:0:0:
160,144,127071,1,0,0:0:0:0:
160,112,127157,2,0,L|160:16,1,95
280,46,127500,5,0,0:0:0:0:
381,135,127842,1,0,0:0:0:0:
131,60,128357,1,0,0:0:0:0:
358,283,128871,5,0,0:0:0:0:
225,282,129214,1,0,0:0:0:0:
431,77,129728,1,0,0:0:0:0:
196,50,130242,5,0,0:0:0:0:
289,141,130585,1,0,0:0:0:0:
39,40,131100,1,0,0:0:0:0:
83,266,131614,5,0,0:0:0:0:
37,149,131957,1,0,0:0:0:0:
144,192,132300,1,0,0:0:0:0:
168,208,132385,1,0,0:0:0:0:
192,224,132471,1,0,0:0:0:0:
216,240,132557,1,0,0:0:0:0:
240,256,132642,2,0,L|320:312,1,95
386,234,132985,5,0,0:0:0:0:
409,107,133328,1,0,0:0:0:0:
232,297,133842,1,0,0:0:0:0:
176,66,134357,5,0,0:0:0:0:
76,152,134700,1,0,0:0:0:0:
322,122,135214,1,0,0:0:0:0:
111,281,135728,5,0,0:0:0:0:
238,326,136071,1,0,0:0:0:0:
184,155,136414,5,0,0:0:0:0:
286,57,136585,1,0,0:0:0:0:
326,186,136757,1,0,0:0:0:0:
180,131,136928,1,0,0:0:0:0:
306,65,137099,1,0,0:0:0:0:
308,200,137271,1,0,0:0:0:0:
234,302,137442,1,0,0:0:0:0:
196,293,137528,1,0,0:0:0:0:
163,273,137614,1,0,0:0:0:0:
145,239,137700,1,0,0:0:0:0:
149,201,137785,1,0,0:0:0:0:
148,162,137871,1,0,0:0:0:0:
133,126,137957,1,0,0:0:0:0:
108,97,138014,2,0,L|80:75,6,31.6666666666667
139,71,138414,2,0,L|112:49,6,31.6666666666667
320,144,139157,6,0,B|320:96|320:96|312:49,2,95
320,240,139671,2,0,B|320:288|320:288|327:334,2,95
193,154,140185,6,0,P|116:129|91:126,1,95
71,286,140528,1,8,0:0:0:0:
151,122,140700,1,0,0:0:0:0:
200,342,140871,1,0,0:0:0:0:
45,95,141042,1,0,0:0:0:0:
315,249,141214,1,8,0:0:0:0:
32,209,141385,1,0,0:0:0:0:
221,103,141557,6,0,P|270:134|303:164,1,95
421,351,141900,1,8,0:0:0:0:
462,154,142071,1,0,0:0:0:0:
308,364,142242,1,0,0:0:0:0:
252,33,142414,1,0,0:0:0:0:
458,273,142585,1,8,0:0:0:0:
174,237,142757,1,0,0:0:0:0:
346,108,142928,6,0,P|398:152|413:178,1,95
304,320,143271,1,8,0:0:0:0:
187,130,143442,1,0,0:0:0:0:
417,252,143614,1,0,0:0:0:0:
227,27,143785,1,0,0:0:0:0:
199,342,143957,1,8,0:0:0:0:
346,108,144128,1,0,0:0:0:0:
181,252,144300,6,0,P|137:217|112:181,1,95
170,36,144642,1,8,0:0:0:0:
287,226,144814,1,0,0:0:0:0:
58,119,144985,1,0,0:0:0:0:
156,355,145157,1,0,0:0:0:0:
229,95,145328,1,8,0:0:0:0:
46,312,145500,1,0,0:0:0:0:
224,172,145671,6,0,L|307:122,1,95
420,247,146014,1,8,0:0:0:0:
461,43,146185,1,0,0:0:0:0:
261,303,146357,1,0,0:0:0:0:
499,150,146528,1,0,0:0:0:0:
229,95,146700,1,8,0:0:0:0:
427,349,146871,1,0,0:0:0:0:
358,89,147042,6,0,P|293:68|260:61,1,95
106,152,147385,1,8,0:0:0:0:
261,303,147557,1,0,0:0:0:0:
225,62,147728,1,0,0:0:0:0:
106,321,147900,1,0,0:0:0:0:
346,165,148071,1,8,0:0:0:0:
50,114,148242,1,0,0:0:0:0:
274,249,148414,6,0,L|375:297,1,95
490,153,148757,1,8,0:0:0:0:
252,121,148928,1,0,0:0:0:0:
444,346,149100,1,0,0:0:0:0:
379,57,149271,1,0,0:0:0:0:
184,345,149442,1,8,0:0:0:0:
232,34,149614,1,0,0:0:0:0:
309,242,149785,6,0,L|203:257,1,95
180,75,150128,1,8,0:0:0:0:
113,317,150300,1,0,0:0:0:0:
316,113,150471,1,0,0:0:0:0:
3,241,150642,1,0,0:0:0:0:
351,321,150814,1,8,0:0:0:0:
90,88,150985,1,0,0:0:0:0:
305,192,151157,6,0,P|370:196|409:188,1,95
410,34,151500,1,8,0:0:0:0:
351,235,151671,1,0,0:0:0:0:
300,50,151842,1,0,0:0:0:0:
470,204,152014,1,0,0:0:0:0:
217,231,152185,1,8,0:0:0:0:
328,83,152357,1,0,0:0:0:0:
364,331,152528,1,0,0:0:0:0:
216,87,152700,1,0,0:0:0:0:
216,87,152871,1,8,0:0:0:0:
91,320,153557,6,0,P|86:250|94:207,1,95,8|0,0:0|0:0,0:0:0:0:
246,164,153900,1,0,0:0:0:0:
46,102,154071,1,0,0:0:0:0:
209,307,154242,1,8,0:0:0:0:
126,31,154414,1,0,0:0:0:0:
363,174,154585,1,0,0:0:0:0:
62,222,154757,1,0,0:0:0:0:
258,59,154928,6,0,L|364:52,1,95,8|0,0:0|0:0,0:0:0:0:
411,238,155271,1,0,0:0:0:0:
222,127,155442,1,0,0:0:0:0:
481,40,155614,1,8,0:0:0:0:
283,304,155785,1,0,0:0:0:0:
352,34,155957,1,0,0:0:0:0:
451,329,156128,1,0,0:0:0:0:
175,216,156300,6,0,L|180:117,1,95,8|0,0:0|0:0,0:0:0:0:
352,34,156642,1,0,0:0:0:0:
210,297,156814,1,0,0:0:0:0:
80,41,156985,1,8,0:0:0:0:
351,154,157157,1,0,0:0:0:0:
120,262,157328,1,0,0:0:0:0:
286,24,157500,1,0,0:0:0:0:
301,231,157671,6,0,L|204:198,1,95,8|0,0:0|0:0,0:0:0:0:
170,21,158014,1,0,0:0:0:0:
63,226,158185,1,0,0:0:0:0:
323,113,158357,1,8,0:0:0:0:
69,61,158528,1,0,0:0:0:0:
287,318,158700,1,0,0:0:0:0:
286,24,158871,1,0,0:0:0:0:
122,243,159042,6,0,P|180:283|216:292,1,95,8|0,0:0|0:0,0:0:0:0:
272,122,159385,1,0,0:0:0:0:
392,354,159557,1,0,0:0:0:0:
421,63,159728,1,8,0:0:0:0:
200,259,159900,1,0,0:0:0:0:
433,159,160071,1,0,0:0:0:0:
118,86,160242,1,0,0:0:0:0:
341,270,160414,1,8,0:0:0:0:
231,39,160585,1,0,0:0:0:0:
128,206,160757,6,0,P|143:283|190:330,1,142.5
233,327,161100,2,0,P|241:261|291:205,1,142.5,8|0,0:0|0:0,0:0:0:0:
334,213,161442,2,0,P|397:243|433:304,1,142.5
452,282,161785,2,0,P|498:229|510:160,1,142.5,8|0,0:0|0:0,0:0:0:0:
483,137,162128,2,0,P|427:81|318:57,1,190,0|8,0:0|0:0,0:0:0:0:
164,62,162642,5,0,0:0:0:0:
91,215,162814,1,0,0:0:0:0:
296,170,162985,1,0,0:0:0:0:
54,102,163157,1,8,0:0:0:0:
215,343,163328,1,0,0:0:0:0:
256,33,163500,1,0,0:0:0:0:
113,297,163671,1,0,0:0:0:0:
169,88,163842,6,0,L|273:76,1,95,8|0,0:0|0:0,0:0:0:0:
241,267,164185,1,0,0:0:0:0:
395,77,164357,1,0,0:0:0:0:
114,227,164528,1,8,0:0:0:0:
425,341,164700,1,0,0:0:0:0:
149,59,164871,1,0,0:0:0:0:
264,358,165042,1,0,0:0:0:0:
281,81,165214,6,0,P|217:71|181:71,1,95,8|0,0:0|0:0,0:0:0:0:
146,267,165557,1,0,0:0:0:0:
342,186,165728,1,0,0:0:0:0:
55,92,165900,1,8,0:0:0:0:
223,343,166071,1,0,0:0:0:0:
205,27,166242,1,0,0:0:0:0:
439,324,166414,1,0,0:0:0:0:
112,207,166585,6,0,P|116:146|135:96,1,95,8|0,0:0|0:0,0:0:0:0:
341,92,166928,1,0,0:0:0:0:
118,331,167100,1,0,0:0:0:0:
152,30,167271,1,8,0:0:0:0:
437,299,167442,1,0,0:0:0:0:
124,234,167614,1,0,0:0:0:0:
337,32,167785,1,0,0:0:0:0:
285,324,167957,6,0,L|361:247,1,95,8|0,0:0|0:0,0:0:0:0:
186,148,168300,1,0,0:0:0:0:
481,219,168471,1,0,0:0:0:0:
152,30,168642,1,8,0:0:0:0:
303,344,168814,1,0,0:0:0:0:
381,36,168985,1,0,0:0:0:0:
60,252,169157,1,0,0:0:0:0:
361,137,169328,6,0,P|296:96|273:91,1,95,8|0,0:0|0:0,0:0:0:0:
135,339,169671,1,0,0:0:0:0:
54,39,169842,1,0,0:0:0:0:
340,281,170014,1,8,0:0:0:0:
46,182,170185,1,0,0:0:0:0:
358,45,170357,1,0,0:0:0:0:
213,354,170528,1,0,0:0:0:0:
187,88,170700,6,0,P|247:75|290:73,1,95,8|0,0:0|0:0,0:0:0:0:
411,247,171042,1,0,0:0:0:0:
436,1,171214,1,0,0:0:0:0:
221,257,171385,1,8,0:0:0:0:
472,133,171557,1,0,0:0:0:0:
91,112,171728,1,0,0:0:0:0:
406,348,171900,1,0,0:0:0:0:
289,41,172071,6,0,P|206:41|185:43,1,95,8|0,0:0|0:0,0:0:0:0:
100,233,172414,1,0,0:0:0:0:
438,117,172585,1,0,0:0:0:0:
62,51,172757,1,8,0:0:0:0:
295,344,172928,1,0,0:0:0:0:
289,40,173100,1,0,0:0:0:0:
166,291,173271,1,0,0:0:0:0:
344,115,173442,6,0,P|385:152|406:188,1,95,8|0,0:0|0:0,0:0:0:0:
255,284,173785,1,0,0:0:0:0:
93,99,173957,1,0,0:0:0:0:
420,210,174128,1,8,0:0:0:0:
67,294,174300,1,0,0:0:0:0:
202,23,174471,1,0,0:0:0:0:
339,319,174642,1,0,0:0:0:0:
142,153,174814,6,0,P|197:104|246:92,1,95,8|0,0:0|0:0,0:0:0:0:
357,222,175157,1,0,0:0:0:0:
281,5,175328,1,0,0:0:0:0:
214,324,175500,1,8,0:0:0:0:
479,98,175671,1,0,0:0:0:0:
179,176,175842,1,0,0:0:0:0:
459,326,176014,1,0,0:0:0:0:
314,99,176185,6,0,P|241:78|202:76,1,95,8|0,0:0|0:0,0:0:0:0:
185,257,176528,1,0,0:0:0:0:
47,33,176700,1,0,0:0:0:0:
344,231,176871,1,8,0:0:0:0:
3,333,177042,1,0,0:0:0:0:
206,84,177214,1,0,0:0:0:0:
322,358,177385,1,0,0:0:0:0:
135,269,177557,6,0,P|74:228|166:204,1,213.750008153916,8|0,0:0|0:0,0:0:0:0:
196,199,177900,2,0,P|266:159|396:190,1,190
256,192,178328,12,0,183728,0:0:0:0:
