osu file format v14

[General]
AudioFilename: BS.mp3
AudioLeadIn: 0
PreviewTime: 148136
Countdown: 0
SampleSet: Normal
StackLeniency: 0.3
Mode: 0
LetterboxInBreaks: 1
EpilepsyWarning: 1
WidescreenStoryboard: 1

[Editor]
Bookmarks: 93278,104250
DistanceSpacing: 1
BeatDivisor: 4
GridSize: 4
TimelineZoom: 1.199999

[Metadata]
Title:Bass Slut (Original Mix)
TitleUnicode:Bass Slut (Original Mix)
Artist:S3RL
ArtistUnicode:S3RL
Creator:Secretpipe
Version:Normal
Source:
Tags:DJ Techno hands up party hardstyle Kawa Rizen grumd Irreversible Nube appleeaterx Tari Kyshiro Fort grumd phaZ
BeatmapID:827301
BeatmapSetID:375648

[Difficulty]
HPDrainRate:5
CircleSize:3.5
OverallDifficulty:5
ApproachRate:5
SliderMultiplier:1
SliderTickRate:1

[Events]
//Background and Video events
0,0,"c5739e66e7.jpg",0,0
//Break Periods
2,93482,103054
2,170282,179854
//Storyboard Layer 0 (Background)
//Storyboard Layer 1 (Fail)
//Storyboard Layer 2 (Pass)
//Storyboard Layer 3 (Foreground)
Sprite,Foreground,Centre,"sb/r.png",320,240 P,0,80940,81624,A T,HitSound,80891,80989 M,0,0,,325,396 C,0,0,,100,150,255 F,1,0,171,0,1 S,1,0,684,0.5,2 F,1,171,684,1,0
Sprite,Foreground,Centre,"sb/hl.png",320,240 P,0,80940,82308,A T,HitSound,80891,80989 M,0,0,,325,396 C,0,0,,100,150,255 F,1,0,171,0,1 S,2,0,1368,0.5,0 F,1,171,1368,1,0
Sprite,Foreground,Centre,"sb/r.png",320,240 P,0,81282,81966,A T,HitSound,81233,81331 M,0,0,,419,363 C,0,0,,100,150,255 F,1,0,171,0,1 S,1,0,684,0.5,2 F,1,171,684,1,0
Sprite,Foreground,Centre,"sb/hl.png",320,240 P,0,81282,82650,A T,HitSound,81233,81331 M,0,0,,419,363 C,0,0,,100,150,255 F,1,0,171,0,1 S,2,0,1368,0.5,0 F,1,171,1368,1,0
Sprite,Foreground,Centre,"sb/r.png",320,240 P,0,81625,82309,A T,HitSound,81576,81674 M,0,0,,393,266 C,0,0,,100,150,255 F,1,0,171,0,1 S,1,0,684,0.5,2 F,1,171,684,1,0
Sprite,Foreground,Centre,"sb/hl.png",320,240 P,0,81625,82993,A T,HitSound,81576,81674 M,0,0,,393,266 C,0,0,,100,150,255 F,1,0,171,0,1 S,2,0,1368,0.5,0 F,1,171,1368,1,0
Sprite,Foreground,Centre,"sb/r.png",320,240 P,0,81968,82652,A T,HitSound,81919,82017 M,0,0,,491,285 C,0,0,,100,150,255 F,1,0,171,0,1 S,1,0,684,0.5,2 F,1,171,684,1,0
Sprite,Foreground,Centre,"sb/hl.png",320,240 P,0,81968,83336,A T,HitSound,81919,82017 M,0,0,,491,285 C,0,0,,100,150,255 F,1,0,171,0,1 S,2,0,1368,0.5,0 F,1,171,1368,1,0
Sprite,Foreground,Centre,"sb/r.png",320,240 P,0,82140,82824,A T,HitSound,82091,82189 M,0,0,,509,350 C,0,0,,100,150,255 F,1,0,171,0,1 S,1,0,684,0.5,2 F,1,171,684,1,0
Sprite,Foreground,Centre,"sb/hl.png",320,240 P,0,82140,83508,A T,HitSound,82091,82189 M,0,0,,509,350 C,0,0,,100,150,255 F,1,0,171,0,1 S,2,0,1368,0.5,0 F,1,171,1368,1,0
Sprite,Foreground,Centre,"sb/cr.png",320,240 P,0,82311,83679,A T,HitSound,82262,82360 M,0,0,,491,285 S,0,0,,40 C,0,0,,100,180,255 F,1,0,171,0,1 R,1,0,1368,1.099,2.669 F,2,171,1026,1,0
Sprite,Foreground,Centre,"sb/r.png",320,240 P,0,157740,158424,A T,HitSound,157691,157789 M,0,0,,514,389 C,0,0,,100,150,255 F,1,0,171,0,1 S,1,0,684,0.5,2 F,1,171,684,1,0
Sprite,Foreground,Centre,"sb/hl.png",320,240 P,0,157740,159108,A T,HitSound,157691,157789 M,0,0,,514,389 C,0,0,,100,150,255 F,1,0,171,0,1 S,2,0,1368,0.5,0 F,1,171,1368,1,0
Sprite,Foreground,Centre,"sb/r.png",320,240 P,0,158082,158766,A T,HitSound,158033,158131 M,0,0,,512,290 C,0,0,,100,150,255 F,1,0,171,0,1 S,1,0,684,0.5,2 F,1,171,684,1,0
Sprite,Foreground,Centre,"sb/hl.png",320,240 P,0,158082,159450,A T,HitSound,158033,158131 M,0,0,,512,290 C,0,0,,100,150,255 F,1,0,171,0,1 S,2,0,1368,0.5,0 F,1,171,1368,1,0
Sprite,Foreground,Centre,"sb/r.png",320,240 P,0,158425,159109,A T,HitSound,158376,158474 M,0,0,,429,239 C,0,0,,100,150,255 F,1,0,171,0,1 S,1,0,684,0.5,2 F,1,171,684,1,0
Sprite,Foreground,Centre,"sb/hl.png",320,240 P,0,158425,159793,A T,HitSound,158376,158474 M,0,0,,429,239 C,0,0,,100,150,255 F,1,0,171,0,1 S,2,0,1368,0.5,0 F,1,171,1368,1,0
Sprite,Foreground,Centre,"sb/r.png",320,240 P,0,158768,159452,A T,HitSound,158719,158817 M,0,0,,332,238 C,0,0,,100,150,255 F,1,0,171,0,1 S,1,0,684,0.5,2 F,1,171,684,1,0
Sprite,Foreground,Centre,"sb/hl.png",320,240 P,0,158768,160136,A T,HitSound,158719,158817 M,0,0,,332,238 C,0,0,,100,150,255 F,1,0,171,0,1 S,2,0,1368,0.5,0 F,1,171,1368,1,0
Sprite,Foreground,Centre,"sb/cr.png",320,240 P,0,159111,160479,A T,HitSound,159062,159160 M,0,0,,233,257 S,0,0,,40 C,0,0,,100,180,255 F,1,0,171,0,1 R,1,0,1368,2.232889,3.802889 F,2,171,1026,1,0
Sprite,Foreground,Centre,"sb/r.png",320,240 P,0,201625,202309,A T,HitSound,201576,201674 M,0,0,,334,97 C,0,0,,100,150,255 F,1,0,171,0,1 S,1,0,684,0.5,2 F,1,171,684,1,0
Sprite,Foreground,Centre,"sb/hl.png",320,240 P,0,201625,202993,A T,HitSound,201576,201674 M,0,0,,334,97 C,0,0,,100,150,255 F,1,0,171,0,1 S,2,0,1368,0.5,0 F,1,171,1368,1,0
Sprite,Foreground,Centre,"sb/r.png",320,240 P,0,201968,202652,A T,HitSound,201919,202017 M,0,0,,436,94 C,0,0,,100,150,255 F,1,0,171,0,1 S,1,0,684,0.5,2 F,1,171,684,1,0
Sprite,Foreground,Centre,"sb/hl.png",320,240 P,0,201968,203336,A T,HitSound,201919,202017 M,0,0,,436,94 C,0,0,,100,150,255 F,1,0,171,0,1 S,2,0,1368,0.5,0 F,1,171,1368,1,0
Sprite,Foreground,Centre,"sb/r.png",320,240 P,0,202311,202995,A T,HitSound,202262,202360 M,0,0,,334,97 C,0,0,,100,150,255 F,1,0,171,0,1 S,1,0,684,0.5,2 F,1,171,684,1,0
Sprite,Foreground,Centre,"sb/hl.png",320,240 P,0,202311,203679,A T,HitSound,202262,202360 M,0,0,,334,97 C,0,0,,100,150,255 F,1,0,171,0,1 S,2,0,1368,0.5,0 F,1,171,1368,1,0
Sprite,Foreground,Centre,"sb/r.png",320,240 P,0,202654,203338,A T,HitSound,202605,202703 M,0,0,,234,98 C,0,0,,100,150,255 F,1,0,171,0,1 S,1,0,684,0.5,2 F,1,171,684,1,0
Sprite,Foreground,Centre,"sb/hl.png",320,240 P,0,202654,204022,A T,HitSound,202605,202703 M,0,0,,234,98 C,0,0,,100,150,255 F,1,0,171,0,1 S,2,0,1368,0.5,0 F,1,171,1368,1,0
Sprite,Foreground,Centre,"sb/cr.png",320,240 P,0,202997,204365,A T,HitSound,202948,203046 M,0,0,,192,190 S,0,0,,40 C,0,0,,100,180,255 F,1,0,171,0,1 R,1,0,1368,0,1.57 F,2,171,1026,1,0
//Storyboard Sound Samples

[TimingPoints]
32940,342.857142857143,4,2,99,40,1,0
33111,-100,4,2,1,40,0,0
43911,-100,4,1,99,60,0,0
43997,-100,4,1,1,60,0,0
54882,-100,4,1,99,60,0,0
55054,-100,4,1,2,60,0,0
63111,-100,4,1,99,40,0,0
63454,-100,4,1,0,40,0,0
65854,-100,4,1,0,60,0,0
69968,-100,4,1,0,30,0,0
70997,-100,4,2,5,80,0,0
71340,-100,4,1,99,60,0,1
71425,-100,4,1,3,60,0,1
80940,-100,4,1,0,80,0,0
81797,-100,4,1,3,80,0,0
82311,-100,4,1,99,60,0,1
82397,-100,4,1,4,60,0,1
91911,-100,4,1,4,20,0,0
93282,-100,4,1,99,60,0,0
104254,-100,4,2,50,30,0,0
107682,-100,4,2,0,10,0,0
108025,-100,4,2,50,20,0,0
110425,-100,4,2,0,15,0,0
110768,-100,4,2,50,20,0,0
113168,-100,4,2,0,20,0,0
113511,-100,4,2,50,20,0,0
114882,-100,4,1,50,60,0,0
115225,-100,4,1,99,60,0,0
115568,-100,4,2,50,20,0,0
115911,-100,4,1,50,15,0,0
116082,-100,4,1,50,20,0,0
116425,-100,4,1,50,10,0,0
116597,-100,4,1,50,20,0,0
117625,-100,4,1,50,20,0,0
118997,-100,4,2,50,20,0,0
119682,-100,4,1,50,20,0,0
120368,-100,4,1,50,60,0,0
120540,-100,4,2,50,20,0,0
121054,-100,4,2,50,20,0,0
121397,-100,4,1,50,15,0,0
121568,-100,4,1,50,20,0,0
122082,-100,4,1,50,20,0,0
123111,-100,4,1,50,20,0,0
124825,-125,4,1,1,30,0,0
125854,-125,4,1,1,10,0,0
126197,-100,4,2,99,80,0,0
126540,-100,4,2,5,80,0,0
127225,-100,4,1,5,60,0,0
127397,-100,4,2,5,80,0,0
129968,-100,4,1,5,60,0,0
130140,-100,4,2,5,80,0,0
132711,-100,4,1,5,60,0,0
132882,-100,4,2,5,80,0,0
135454,-100,4,1,5,60,0,0
135625,-100,4,2,5,80,0,0
138197,-100,4,1,5,60,0,0
138368,-100,4,2,5,80,0,0
140940,-100,4,1,5,60,0,0
141111,-100,4,2,5,80,0,0
142654,-100,4,2,0,80,0,0
142997,-100,4,2,5,70,0,0
143340,-100,4,2,5,60,0,0
143682,-100,4,1,5,60,0,0
143854,-100,4,1,5,52,0,0
144368,-100,4,1,5,44,0,0
144711,-100,4,1,5,36,0,0
145054,-100,4,1,5,28,0,0
145740,-100,4,1,99,20,0,0
146082,-100,4,1,5,12,0,0
146425,-100,4,2,0,80,0,0
148140,-100,4,1,99,80,0,1
148311,-100,4,1,2,80,0,1
157740,-100,4,1,0,80,0,0
159111,-100,4,1,99,80,0,1
159282,-100,4,1,6,80,0,1
170082,-100,4,1,5,80,0,0
180882,-100,4,2,1,60,0,0
189282,-100,4,2,5,60,0,0
191511,-100,4,1,5,80,0,0
192025,-100,4,1,99,80,0,1
192197,-100,4,1,5,80,0,1
201625,-100,4,1,0,80,0,0
202997,-100,4,1,99,80,0,1
203168,-100,4,1,6,80,0,1
209854,-100,4,1,1,60,0,0
211225,-100,4,1,1,55,0,0
212597,-100,4,1,1,50,0,0
213968,-100,4,1,99,50,0,0

[Colours]
Combo1 : 152,147,247
Combo2 : 5,141,207
Combo3 : 176,129,235
Combo4 : 75,123,250

[HitObjects]
203,287,32940,6,0,P|254:293|315:283,1,100,14|8,0:1|0:1,0:0:0:0:
398,262,33625,1,8,0:1:0:0:
459,183,33968,1,8,0:1:0:0:
405,98,34311,2,0,L|274:109,1,100,8|8,0:1|0:1,0:0:0:0:
225,167,34997,2,0,L|94:156,1,100,8|8,0:1|0:1,0:0:0:0:
38,109,35682,5,8,0:1:0:0:
28,208,36025,1,8,0:1:0:0:
111,263,36368,2,0,L|223:276,1,100,8|8,0:1|0:1,0:0:0:0:
298,226,37054,2,0,P|312:280|298:323,2,100,8|8|8,0:1|0:1|0:1,0:0:0:0:
232,150,38082,1,8,0:1:0:0:
330,130,38425,6,0,L|448:125,1,100,8|8,0:1|0:1,0:0:0:0:
506,190,39111,2,0,P|514:248|503:301,1,100,8|8,0:1|0:1,0:0:0:0:
453,373,39797,1,8,0:1:0:0:
372,313,40140,1,8,0:1:0:0:
287,365,40482,1,8,0:1:0:0:
204,307,40825,1,8,0:1:0:0:
126,370,41168,6,0,P|108:329|117:261,1,100,8|8,0:1|0:1,0:0:0:0:
176,198,41854,2,0,P|225:193|271:212,1,100,8|8,0:1|0:1,0:0:0:0:
327,295,42540,2,0,L|324:369,2,50,0|0|0,0:0|0:0|0:0,0:0:0:0:
410,239,43225,2,0,L|413:313,2,50,0|0|0,0:0|0:0|0:0,0:0:0:0:
355,155,43911,6,0,L|347:38,1,100,14|8,0:0|0:0,0:0:0:0:
264,112,44597,2,0,L|270:211,1,100,8|8,0:0|0:0,0:0:0:0:
179,170,45282,2,0,L|173:71,2,100,8|8|8,0:0|0:0|0:0,0:0:0:0:
164,269,46311,1,8,0:0:0:0:
260,296,46654,6,0,P|309:308|381:287,1,100,8|8,0:0|0:0,0:0:0:0:
446,253,47340,2,0,P|455:205|441:136,1,100,8|8,0:0|0:0,0:0:0:0:
395,69,48025,2,0,P|444:57|516:78,2,100,8|8|8,0:0|0:0|0:0,0:0:0:0:
306,117,49054,1,8,0:0:0:0:
213,155,49397,6,0,P|164:163|115:151,1,100,8|8,0:0|0:0,0:0:0:0:
34,92,50082,2,0,L|36:205,1,100,8|8,0:0|0:0,0:0:0:0:
12,289,50768,1,8,0:0:0:0:
89,352,51111,1,8,0:0:0:0:
172,296,51454,1,8,0:0:0:0:
149,198,51797,1,8,0:0:0:0:
219,127,52140,6,0,P|271:114|336:133,1,100,8|8,0:0|0:0,0:0:0:0:
377,201,52825,2,0,P|328:209|280:196,1,100,8|8,0:0|0:0,0:0:0:0:
217,274,53511,2,0,L|209:328,2,50,8|0|8,0:0|3:0|0:0,0:0:0:0:
149,198,54197,2,0,L|141:144,2,50,8|0|6,0:0|3:0|2:0,0:0:0:0:
66,254,54882,6,0,L|46:133,1,100,14|8,0:1|0:0,0:0:0:0:
92,64,55568,2,0,P|144:52|205:71,1,100,8|8,0:0|0:0,0:0:0:0:
277,108,56254,1,8,0:0:0:0:
373,80,56597,1,8,0:0:0:0:
452,140,56940,2,0,L|458:248,1,100,8|8,0:0|0:0,0:0:0:0:
401,323,57625,6,0,P|451:339|512:327,2,100,8|8|8,0:0|0:0|0:0,0:0:0:0:
316,269,58654,1,8,0:0:0:0:
235,328,58997,2,0,L|123:330,1,100,8|8,0:0|0:0,0:0:0:0:
57,266,59682,2,0,P|51:216|61:154,1,100,8|8,0:0|0:0,0:0:0:0:
117,86,60368,6,0,P|67:70|6:82,2,100,8|8|8,0:0|0:0|0:0,0:0:0:0:
200,142,61397,1,8,0:0:0:0:
295,113,61740,2,0,P|305:71|295:5,2,100,8|8|8,0:0|0:0|0:0,0:0:0:0:
268,209,62768,1,8,0:0:0:0:
337,281,63111,6,0,L|469:288,2,100,6|0|0,1:0|0:0|0:0,0:0:0:0:
252,335,64140,1,0,0:0:0:0:
183,262,64482,2,0,L|51:269,2,100,0|0|0,0:0|0:0|0:0,0:0:0:0:
268,209,65511,1,0,0:0:0:0:
365,184,65854,6,0,P|377:137|358:77,1,100,10|10,0:3|0:3,0:0:0:0:
289,21,66540,1,10,0:3:0:0:
208,80,66882,1,10,0:3:0:0:
122,27,67225,2,0,P|107:70|121:133,1,100,10|10,0:3|0:3,0:0:0:0:
153,215,67911,2,0,P|161:263|146:310,1,100,10|10,0:3|0:3,0:0:0:0:
62,255,68597,6,0,L|43:173,2,50,6|6|6,0:2|0:3|0:2,0:0:0:0:
146,310,69282,2,0,L|134:358,2,50,6|6|6,0:2|0:3|0:2,0:0:0:0:
153,215,69968,2,0,B|229:192|301:231|301:231|377:270|470:224,1,300,0|2,0:0|0:0,0:0:0:0:
385,153,71340,6,0,L|390:40,1,100,14|14,0:0|0:0,0:0:0:0:
295,27,72025,2,0,L|299:126,1,100,12|14,0:1|0:0,0:0:0:0:
199,139,72711,2,0,L|204:26,2,100,12|12|12,0:0|0:0|0:0,0:0:0:0:
154,228,73740,1,14,0:0:0:0:
139,326,74082,6,0,P|89:339|17:319,2,100,12|14|12,0:0|0:0|0:0,0:0:0:0:
231,287,75111,1,14,0:0:0:0:
307,351,75454,2,0,L|418:346,1,100,12|12,0:0|0:0,0:0:0:0:
475,273,76140,1,12,0:0:0:0:
401,205,76482,1,14,0:0:0:0:
456,122,76825,6,0,P|413:107|340:120,1,100,12|14,0:0|0:0,0:0:0:0:
273,162,77511,2,0,P|230:177|157:164,1,100,12|14,0:0|0:0,0:0:0:0:
80,143,78197,2,0,L|74:32,2,100,12|12|12,0:0|0:0|0:0,0:0:0:0:
103,240,79225,1,14,0:0:0:0:
163,319,79568,6,0,L|152:376,2,50,12|4|14,0:0|3:1|0:0,0:0:0:0:
232,246,80254,2,0,L|221:189,2,50,12|4|14,0:0|3:1|0:0,0:0:0:0:
261,342,80940,1,6,0:0:0:0:
355,309,81282,1,6,0:0:0:0:
329,212,81625,1,14,0:0:0:0:
427,231,81968,2,0,L|445:296,2,50,14|6|14,0:0|0:0|0:0,0:0:0:0:
394,136,82654,6,0,P|351:119|273:131,1,100,14|12,0:0|0:0,0:0:0:0:
205,159,83340,1,14,0:0:0:0:
113,120,83682,2,0,L|116:1,2,100,12|12|12,0:0|0:0|0:0,0:0:0:0:
116,220,84711,1,14,0:0:0:0:
183,293,85054,6,0,P|306:321|393:290,1,200,12|12,0:0|0:0,0:0:0:0:
460,249,86082,1,14,0:0:0:0:
372,201,86425,2,0,P|361:153|375:97,1,100,12|12,0:0|0:0,0:0:0:0:
439,30,87111,2,0,L|329:32,1,100,12|14,0:0|0:0,0:0:0:0:
243,63,87797,5,12,0:0:0:0:
280,155,88140,1,14,0:0:0:0:
217,232,88482,2,0,P|206:289|227:349,1,100,12|14,0:0|0:0,0:0:0:0:
307,370,89168,2,0,L|425:365,1,100,12|12,0:0|0:0,0:0:0:0:
495,319,89854,1,12,0:0:0:0:
410,265,90197,1,14,0:0:0:0:
493,209,90540,6,0,L|497:135,2,50,12|4|14,0:0|3:1|0:0,0:0:0:0:
420,139,91225,2,0,L|424:65,2,50,12|4|14,0:0|3:1|0:0,0:0:0:0:
256,192,91911,12,6,93282,0:0:0:0:
66,321,104254,6,0,P|172:347|268:302,1,200,0|0,0:0|0:0,0:0:0:0:
330,250,105282,1,0,0:0:0:0:
423,286,105625,2,0,B|444:228|408:186|408:186|445:151|417:77,1,200,0|0,0:0|0:0,0:0:0:0:
360,21,106654,1,0,0:0:0:0:
320,112,106997,6,0,P|227:141|121:111,1,200
39,74,108025,1,0,0:0:0:0:
46,173,108368,2,0,P|112:230|229:243,1,200,0|0,0:0|0:0,0:0:0:0:
320,233,109397,1,0,0:0:0:0:
359,325,109740,6,0,P|417:226|372:153,1,200
289,119,110768,1,4,0:0:0:0:
224,195,111111,2,0,B|154:225|104:194|104:194|126:236|108:293,1,200,4|0,0:0|0:0,0:0:0:0:
75,359,112140,1,4,0:0:0:0:
174,348,112482,6,0,B|240:360|240:360|300:342|300:342|390:348,1,200,4|0,0:0|0:0,0:0:0:0:
468,364,113511,1,4,0:0:0:0:
433,270,113854,2,0,P|400:170|429:58,1,200,4|0,0:0|0:0,0:0:0:0:
325,40,114882,6,0,L|207:45,1,100,2|4,0:2|0:0,0:0:0:0:
130,78,115568,1,0,0:0:0:0:
204,144,115911,1,0,0:0:0:0:
109,175,116254,2,0,L|109:259,2,50,10|0|0,0:2|0:0|0:0,0:0:0:0:
506,225,117968,6,0,L|500:110,1,100,10|10,0:2|0:2,0:0:0:0:
403,99,118654,2,0,L|397:198,1,100,0|10,0:0|0:2,0:0:0:0:
350,287,119340,2,0,P|299:295|234:275,1,100,10|0,0:0|0:0,0:0:0:0:
159,248,120025,1,0,0:0:0:0:
136,150,120368,5,0,0:0:0:0:
220,96,120711,2,0,L|328:96,1,100,10|0,0:2|0:0,0:0:0:0:
407,144,121397,2,0,P|420:102|404:39,2,100,4|10|0,0:2|0:2|0:0,0:0:0:0:
53,331,123454,6,0,P|103:342|156:327,1,100,10|8,0:2|0:2,0:0:0:0:
241,289,124140,2,0,P|291:278|344:293,1,100,0|14,0:0|0:2,0:0:0:0:
431,309,124825,6,0,B|416:256|452:240|452:240|424:204|456:176|456:176|432:136|460:88,1,240,0|0,0:0|0:0,0:0:0:0:
370,42,126197,6,0,L|271:48,1,100,6|10,3:1|0:0,0:0:0:0:
270,147,126882,2,0,L|171:153,1,100,10|8,0:0|0:2,0:0:0:0:
87,210,127568,2,0,P|71:164|85:102,2,100,10|10|10,0:0|0:0|0:0,0:0:0:0:
136,297,128597,1,10,0:0:0:0:
233,319,128940,6,0,P|285:325|356:313,1,100,10|10,0:0|0:0,0:0:0:0:
384,234,129625,2,0,L|386:125,1,100,10|8,0:0|0:2,0:0:0:0:
340,44,130311,2,0,P|388:33|457:56,2,100,10|10|10,0:0|0:0|0:0,0:0:0:0:
253,94,131340,1,10,0:0:0:0:
159,58,131682,1,10,0:0:0:0:
76,113,132025,5,10,0:0:0:0:
163,161,132368,2,0,P|176:218|167:263,1,100,10|8,0:0|0:2,0:0:0:0:
132,351,133054,1,10,0:0:0:0:
67,274,133397,1,10,0:0:0:0:
168,258,133740,1,10,0:0:0:0:
239,327,134082,1,10,0:0:0:0:
264,230,134425,6,0,L|261:113,1,100,10|10,0:0|0:0,0:0:0:0:
350,83,135111,2,0,L|347:182,1,100,10|8,0:0|0:2,0:0:0:0:
383,276,135797,2,0,P|431:279|493:254,2,100,10|10|10,0:0|0:0|0:0,0:0:0:0:
289,312,136825,2,0,L|288:386,2,50,10|2|6,0:0|0:0|3:2,0:0:0:0:
299,212,137511,5,6,3:2:0:0:
208,255,137854,1,6,3:2:0:0:
118,210,138197,1,4,1:2:0:0:
205,161,138540,2,0,L|201:49,1,100,6|6,3:2|3:2,0:0:0:0:
290,15,139225,2,0,L|286:114,1,100,6|6,3:2|3:2,0:0:0:0:
299,212,139911,6,0,P|359:216|406:208,1,100,6|6,3:2|3:2,0:0:0:0:
494,182,140597,1,6,3:2:0:0:
467,278,140940,1,4,1:2:0:0:
377,322,141282,2,0,P|317:326|270:318,1,100,6|6,3:2|3:2,0:0:0:0:
188,274,141968,2,0,P|180:219|190:154,1,100,6|6,3:2|3:2,0:0:0:0:
214,79,142654,5,4,1:0:0:0:
307,42,142997,1,6,1:2:0:0:
387,101,143340,2,0,L|396:214,1,100,6|4,1:2|1:2,0:0:0:0:
353,291,144025,1,6,1:2:0:0:
260,328,144368,1,6,1:2:0:0:
180,269,144711,2,0,L|171:156,1,100,2|2,1:0|1:0,0:0:0:0:
256,192,145397,12,8,146425,0:0:0:0:
225,335,148140,6,0,P|272:344|336:336,1,100,6|6,0:0|0:0,0:0:0:0:
397,271,148825,2,0,L|393:148,1,100,6|12,0:0|0:3,0:0:0:0:
320,102,149511,1,6,0:0:0:0:
227,139,149854,1,6,0:0:0:0:
138,92,150197,1,6,0:0:0:0:
51,142,150540,1,6,0:0:0:0:
138,189,150882,6,0,L|136:292,1,100,6|6,0:0|0:0,0:0:0:0:
214,351,151568,2,0,P|266:358|336:342,1,100,6|12,0:0|0:3,0:0:0:0:
397,296,152254,2,0,P|449:289|519:305,2,100,6|6|6,0:0|0:0|0:0,0:0:0:0:
304,258,153282,1,6,0:0:0:0:
384,199,153625,6,0,L|376:68,1,100,6|6,0:0|0:0,0:0:0:0:
292,46,154311,2,0,P|248:61|177:43,1,100,6|12,0:0|0:3,0:0:0:0:
98,29,154997,2,0,L|112:157,1,100,6|6,0:0|0:0,0:0:0:0:
14,162,155682,2,0,L|28:290,1,100,6|6,0:0|0:0,0:0:0:0:
101,325,156368,5,6,0:0:0:0:
189,278,156711,1,6,0:0:0:0:
274,330,157054,1,6,0:0:0:0:
364,286,157397,1,12,0:3:0:0:
450,335,157740,6,0,P|461:284|436:215,1,100,6|6,0:0|0:0,0:0:0:0:
365,185,158425,2,0,P|314:174|245:199,1,100,6|6,0:0|0:0,0:0:0:0:
169,203,159111,6,0,P|155:170|158:103,2,100,6|6|6,0:0|0:0|0:0,0:0:0:0:
231,281,160140,1,12,0:3:0:0:
330,286,160482,2,0,L|440:282,1,100,6|6,0:0|0:0,0:0:0:0:
464,188,161168,2,0,L|364:184,1,100,6|6,0:0|0:0,0:0:0:0:
264,174,161854,5,6,0:0:0:0:
194,101,162197,1,6,0:0:0:0:
272,38,162540,1,6,0:0:0:0:
341,109,162882,1,12,0:3:0:0:
264,174,163225,2,0,P|214:189|158:181,1,100,6|6,0:0|0:0,0:0:0:0:
91,117,163911,2,0,L|94:232,1,100,6|6,0:0|0:0,0:0:0:0:
139,306,164597,5,6,0:0:0:0:
231,344,164940,1,6,0:0:0:0:
314,283,165282,1,6,0:0:0:0:
408,316,165625,1,12,0:3:0:0:
461,231,165968,2,0,L|453:118,1,100,6|6,0:0|0:0,0:0:0:0:
361,92,166654,2,0,L|353:191,1,100,6|6,0:0|0:0,0:0:0:0:
314,283,167340,5,6,0:0:0:0:
225,328,167682,1,6,0:0:0:0:
133,286,168025,1,6,0:0:0:0:
219,235,168368,1,12,0:3:0:0:
129,190,168711,2,0,L|124:81,2,100,6|6|6,0:0|0:0|0:0,0:0:0:0:
133,286,169740,1,6,0:0:0:0:
219,235,170082,5,4,2:1:0:0:
134,79,181054,6,0,L|141:191,1,100,8|8,0:1|0:1,0:0:0:0:
225,231,181740,2,0,P|272:217|345:236,1,100,8|8,0:1|0:1,0:0:0:0:
409,272,182425,2,0,P|458:279|505:265,2,100,8|8|8,0:1|0:1|0:1,0:0:0:0:
321,224,183454,1,8,0:1:0:0:
406,171,183797,6,0,P|410:121|406:65,1,100,8|8,0:1|0:1,0:0:0:0:
315,29,184482,2,0,P|310:83|315:135,1,100,8|8,0:1|0:1,0:0:0:0:
225,176,185168,2,0,P|229:126|225:70,2,100,8|8|8,0:1|0:1|0:1,0:0:0:0:
189,260,186197,1,8,0:1:0:0:
271,317,186540,6,0,L|372:322,1,100,10|10,0:0|0:0,0:0:0:0:
429,241,187225,2,0,L|416:117,1,100,10|8,0:2|0:1,0:0:0:0:
332,90,187911,2,0,L|216:91,1,100,10|10,0:2|0:2,0:0:0:0:
136,122,188597,1,10,0:0:0:0:
105,217,188940,1,10,0:0:0:0:
160,299,189282,6,0,P|110:314|44:300,2,100,10|10|10,0:0|0:0|0:0,0:0:0:0:
252,259,190311,1,10,0:0:0:0:
336,311,190654,6,0,L|338:369,2,50,0|0|0,0:0|0:0|0:0,0:0:0:0:
413,247,191340,2,0,L|415:305,2,50,0|2|2,0:0|0:1|0:1,0:0:0:0:
350,168,192025,6,0,P|383:154|450:157,2,100,6|2|2,0:0|0:0|0:0,0:0:0:0:
261,215,193054,1,4,0:3:0:0:
174,264,193397,2,0,L|170:164,1,100,2|2,0:0|0:0,0:0:0:0:
96,101,194082,2,0,L|92:200,1,100,2|2,0:0|0:0,0:0:0:0:
20,271,194768,5,2,0:0:0:0:
101,328,195111,1,2,0:0:0:0:
174,264,195453,1,2,0:0:0:0:
261,215,195796,1,4,0:3:0:0:
344,269,196139,2,0,P|359:219|351:163,1,100,2|2,0:0|0:0,0:0:0:0:
292,92,196825,2,0,L|177:95,1,100,2|2,0:0|0:0,0:0:0:0:
129,16,197511,5,2,0:0:0:0:
91,108,197854,1,2,0:0:0:0:
152,191,198196,1,2,0:0:0:0:
119,285,198539,1,4,0:3:0:0:
204,338,198882,2,0,L|317:330,1,100,2|2,0:0|0:0,0:0:0:0:
371,256,199568,2,0,L|271:248,1,100,2|2,0:0|0:0,0:0:0:0:
173,225,200254,5,2,0:0:0:0:
128,136,200596,1,2,0:0:0:0:
170,44,200939,1,2,0:0:0:0:
221,130,201282,1,4,0:3:0:0:
270,43,201625,6,0,B|319:36|319:36|389:42,2,100,6|6|6,0:0|0:0|0:0,0:0:0:0:
170,44,202654,1,2,0:0:0:0:
128,136,202997,6,0,L|120:235,1,100,6|2,0:0|0:0,0:0:0:0:
201,295,203683,2,0,L|208:195,1,100,2|4,0:0|0:1,0:0:0:0:
291,140,204368,1,2,0:0:0:0:
368,75,204711,1,2,0:0:0:0:
299,4,205053,1,2,0:0:0:0:
221,67,205396,1,2,0:0:0:0:
291,140,205739,6,0,P|341:155|397:147,1,100,2|2,0:0|0:0,0:0:0:0:
481,113,206425,2,0,L|476:231,1,100,2|4,0:0|0:3,0:0:0:0:
426,299,207111,1,2,0:0:0:0:
334,258,207454,1,2,0:0:0:0:
246,306,207797,1,2,0:0:0:0:
148,330,208140,2,0,L|143:382,2,50,2|2|2,0:1|3:1|0:2,0:0:0:0:
179,234,208825,5,2,0:0:0:0:
108,162,209168,1,2,0:2:0:0:
205,139,209511,1,4,0:3:0:0:
283,200,209854,2,0,P|335:218|395:196,1,100,2|6,0:2|0:0,0:0:0:0:
390,108,210540,2,0,P|343:90|295:99,1,100,6|4,0:0|0:0,0:0:0:0:
256,192,211225,12,4,213968,0:0:0:0:
