osu file format v14

[General]
AudioFilename: BS.mp3
AudioLeadIn: 0
PreviewTime: 148136
Countdown: 0
SampleSet: Soft
StackLeniency: 0.3
Mode: 0
LetterboxInBreaks: 1
EpilepsyWarning: 1
WidescreenStoryboard: 1

[Editor]
DistanceSpacing: 1
BeatDivisor: 4
GridSize: 4
TimelineZoom: 1.8

[Metadata]
Title:Bass Slut (Original Mix)
TitleUnicode:Bass Slut (Original Mix)
Artist:S3RL
ArtistUnicode:S3RL
Creator:Secretpipe
Version:Extra
Source:
Tags:DJ Techno hands up party hardstyle Kawa Rizen grumd Irreversible Nube appleeaterx Tari Kyshiro Fort grumd phaZ
BeatmapID:822651
BeatmapSetID:375648

[Difficulty]
HPDrainRate:7
CircleSize:4
OverallDifficulty:8.5
ApproachRate:9.4
SliderMultiplier:2
SliderTickRate:1

[Events]
//Background and Video events
0,0,"c5739e66e7.jpg",0,0
//Break Periods
2,93482,103650
2,170282,180278
//Storyboard Layer 0 (Background)
//Storyboard Layer 1 (Fail)
//Storyboard Layer 2 (Pass)
//Storyboard Layer 3 (Foreground)
Sprite,Foreground,Centre,"sb/r.png",320,240 P,0,80936,81620,A T,HitSound,80908,80964 M,0,0,,535,121 C,0,0,,100,150,255 F,1,0,171,0,1 S,1,0,684,0.5,2 F,1,171,684,1,0
Sprite,Foreground,Centre,"sb/hl.png",320,240 P,0,80936,82304,A T,HitSound,80908,80964 M,0,0,,535,121 C,0,0,,100,150,255 F,1,0,171,0,1 S,2,0,1368,0.5,0 F,1,171,1368,1,0
Sprite,Foreground,Centre,"sb/r.png",320,240 P,0,81278,81962,A T,HitSound,81250,81306 M,0,0,,267,409 C,0,0,,100,150,255 F,1,0,171,0,1 S,1,0,684,0.5,2 F,1,171,684,1,0
Sprite,Foreground,Centre,"sb/hl.png",320,240 P,0,81278,82646,A T,HitSound,81250,81306 M,0,0,,267,409 C,0,0,,100,150,255 F,1,0,171,0,1 S,2,0,1368,0.5,0 F,1,171,1368,1,0
Sprite,Foreground,Centre,"sb/r.png",320,240 P,0,81621,82305,A T,HitSound,81593,81649 M,0,0,,553,410 C,0,0,,100,150,255 F,1,0,171,0,1 S,1,0,684,0.5,2 F,1,171,684,1,0
Sprite,Foreground,Centre,"sb/hl.png",320,240 P,0,81621,82989,A T,HitSound,81593,81649 M,0,0,,553,410 C,0,0,,100,150,255 F,1,0,171,0,1 S,2,0,1368,0.5,0 F,1,171,1368,1,0
Sprite,Foreground,Centre,"sb/r.png",320,240 P,0,81964,82648,A T,HitSound,81936,81992 M,0,0,,240,155 C,0,0,,100,150,255 F,1,0,171,0,1 S,1,0,684,0.5,2 F,1,171,684,1,0
Sprite,Foreground,Centre,"sb/hl.png",320,240 P,0,81964,83332,A T,HitSound,81936,81992 M,0,0,,240,155 C,0,0,,100,150,255 F,1,0,171,0,1 S,2,0,1368,0.5,0 F,1,171,1368,1,0
Sprite,Foreground,Centre,"sb/r.png",320,240 P,0,82136,82820,A T,HitSound,82108,82164 M,0,0,,152,152 C,0,0,,100,150,255 F,1,0,171,0,1 S,1,0,684,0.5,2 F,1,171,684,1,0
Sprite,Foreground,Centre,"sb/hl.png",320,240 P,0,82136,83504,A T,HitSound,82108,82164 M,0,0,,152,152 C,0,0,,100,150,255 F,1,0,171,0,1 S,2,0,1368,0.5,0 F,1,171,1368,1,0
Sprite,Foreground,Centre,"sb/cr.png",320,240 P,0,82307,83675,A T,HitSound,82279,82335 M,0,0,,121,266 S,0,0,,40 C,0,0,,100,180,255 F,1,0,171,0,1 R,1,0,1368,2.564333,4.134333 F,2,171,1026,1,0
Sprite,Foreground,Centre,"sb/r.png",320,240 P,0,157736,158420,A T,HitSound,157708,157764 M,0,0,,257,260 C,0,0,,100,150,255 F,1,0,171,0,1 S,1,0,684,0.5,2 F,1,171,684,1,0
Sprite,Foreground,Centre,"sb/hl.png",320,240 P,0,157736,159104,A T,HitSound,157708,157764 M,0,0,,257,260 C,0,0,,100,150,255 F,1,0,171,0,1 S,2,0,1368,0.5,0 F,1,171,1368,1,0
Sprite,Foreground,Centre,"sb/r.png",320,240 P,0,158078,158762,A T,HitSound,158050,158106 M,0,0,,371,337 C,0,0,,100,150,255 F,1,0,171,0,1 S,1,0,684,0.5,2 F,1,171,684,1,0
Sprite,Foreground,Centre,"sb/hl.png",320,240 P,0,158078,159446,A T,HitSound,158050,158106 M,0,0,,371,337 C,0,0,,100,150,255 F,1,0,171,0,1 S,2,0,1368,0.5,0 F,1,171,1368,1,0
Sprite,Foreground,Centre,"sb/r.png",320,240 P,0,158421,159105,A T,HitSound,158393,158449 M,0,0,,371,177 C,0,0,,100,150,255 F,1,0,171,0,1 S,1,0,684,0.5,2 F,1,171,684,1,0
Sprite,Foreground,Centre,"sb/hl.png",320,240 P,0,158421,159789,A T,HitSound,158393,158449 M,0,0,,371,177 C,0,0,,100,150,255 F,1,0,171,0,1 S,2,0,1368,0.5,0 F,1,171,1368,1,0
Sprite,Foreground,Centre,"sb/r.png",320,240 P,0,158764,159448,A T,HitSound,158736,158792 M,0,0,,119,259 C,0,0,,100,150,255 F,1,0,171,0,1 S,1,0,684,0.5,2 F,1,171,684,1,0
Sprite,Foreground,Centre,"sb/hl.png",320,240 P,0,158764,160132,A T,HitSound,158736,158792 M,0,0,,119,259 C,0,0,,100,150,255 F,1,0,171,0,1 S,2,0,1368,0.5,0 F,1,171,1368,1,0
Sprite,Foreground,Centre,"sb/r.png",320,240 P,0,158936,159620,A T,HitSound,158908,158964 M,0,0,,257,260 C,0,0,,100,150,255 F,1,0,171,0,1 S,1,0,684,0.5,2 F,1,171,684,1,0
Sprite,Foreground,Centre,"sb/hl.png",320,240 P,0,158936,160304,A T,HitSound,158908,158964 M,0,0,,257,260 C,0,0,,100,150,255 F,1,0,171,0,1 S,2,0,1368,0.5,0 F,1,171,1368,1,0
Sprite,Foreground,Centre,"sb/cr.png",320,240 P,0,159107,160475,A T,HitSound,159079,159135 M,0,0,,216,95 S,0,0,,40 C,0,0,,100,180,255 F,1,0,171,0,1 R,1,0,1368,0.9943333,2.564333 F,2,171,1026,1,0
Sprite,Foreground,Centre,"sb/r.png",320,240 P,0,201621,202305,A T,HitSound,201593,201649 M,0,0,,414,259 C,0,0,,100,150,255 F,1,0,171,0,1 S,1,0,684,0.5,2 F,1,171,684,1,0
Sprite,Foreground,Centre,"sb/hl.png",320,240 P,0,201621,202989,A T,HitSound,201593,201649 M,0,0,,414,259 C,0,0,,100,150,255 F,1,0,171,0,1 S,2,0,1368,0.5,0 F,1,171,1368,1,0
Sprite,Foreground,Centre,"sb/r.png",320,240 P,0,201964,202648,A T,HitSound,201936,201992 M,0,0,,576,118 C,0,0,,100,150,255 F,1,0,171,0,1 S,1,0,684,0.5,2 F,1,171,684,1,0
Sprite,Foreground,Centre,"sb/hl.png",320,240 P,0,201964,203332,A T,HitSound,201936,201992 M,0,0,,576,118 C,0,0,,100,150,255 F,1,0,171,0,1 S,2,0,1368,0.5,0 F,1,171,1368,1,0
Sprite,Foreground,Centre,"sb/r.png",320,240 P,0,202307,202991,A T,HitSound,202279,202335 M,0,0,,317,174 C,0,0,,100,150,255 F,1,0,171,0,1 S,1,0,684,0.5,2 F,1,171,684,1,0
Sprite,Foreground,Centre,"sb/hl.png",320,240 P,0,202307,203675,A T,HitSound,202279,202335 M,0,0,,317,174 C,0,0,,100,150,255 F,1,0,171,0,1 S,2,0,1368,0.5,0 F,1,171,1368,1,0
Sprite,Foreground,Centre,"sb/r.png",320,240 P,0,202650,203334,A T,HitSound,202622,202678 M,0,0,,349,417 C,0,0,,100,150,255 F,1,0,171,0,1 S,1,0,684,0.5,2 F,1,171,684,1,0
Sprite,Foreground,Centre,"sb/hl.png",320,240 P,0,202650,204018,A T,HitSound,202622,202678 M,0,0,,349,417 C,0,0,,100,150,255 F,1,0,171,0,1 S,2,0,1368,0.5,0 F,1,171,1368,1,0
Sprite,Foreground,Centre,"sb/r.png",320,240 P,0,202821,203505,A T,HitSound,202793,202849 M,0,0,,402,131 C,0,0,,100,150,255 F,1,0,171,0,1 S,1,0,684,0.5,2 F,1,171,684,1,0
Sprite,Foreground,Centre,"sb/hl.png",320,240 P,0,202821,204189,A T,HitSound,202793,202849 M,0,0,,402,131 C,0,0,,100,150,255 F,1,0,171,0,1 S,2,0,1368,0.5,0 F,1,171,1368,1,0
Sprite,Foreground,Centre,"sb/cr.png",320,240 P,0,202993,204361,A T,HitSound,202965,203021 M,0,0,,238,420 S,0,0,,40 C,0,0,,100,180,255 F,1,0,171,0,1 R,1,0,1368,5.146111,6.716111 F,2,171,1026,1,0
//Storyboard Sound Samples

[TimingPoints]
32940,342.857142857143,4,2,99,40,1,0
32940,-125,4,2,99,40,0,0
33111,-125,4,2,1,40,0,0
43911,-100,4,1,99,60,0,1
43997,-100,4,1,1,60,0,0
54882,-100,4,1,99,60,0,0
55054,-100,4,1,2,60,0,0
63111,-100,4,1,99,40,0,0
63454,-100,4,1,0,40,0,0
65854,-100,4,1,0,60,0,0
69968,-100,4,1,0,30,0,0
70997,-100,4,2,5,80,0,0
71340,-83.3333333333333,4,1,99,60,0,1
71425,-83.3333333333333,4,1,3,60,0,1
80940,-83.3333333333333,4,1,0,80,0,0
81968,-83.3333333333333,4,1,3,80,0,0
82311,-83.3333333333333,4,1,99,60,0,1
82482,-83.3333333333333,4,1,4,60,0,1
91911,-83.3333333333333,4,1,4,10,0,0
93111,-83.3333333333333,4,2,2,60,0,0
93282,-83.3333333333333,4,1,99,60,0,0
104254,-200,4,2,50,30,0,0
107168,-200,4,2,0,20,0,0
107682,-200,4,2,0,10,0,0
108025,-200,4,2,50,20,0,0
109911,-200,4,2,0,30,0,0
110425,-200,4,2,0,15,0,0
110768,-200,4,2,50,20,0,0
112654,-200,4,2,0,40,0,0
113168,-200,4,2,0,20,0,0
113511,-200,4,2,50,20,0,0
114882,-100,4,1,50,60,0,0
115054,-100,4,2,50,20,0,0
115225,-100,4,1,99,60,0,0
115397,-100,4,1,50,30,0,0
115568,-100,4,2,50,20,0,0
115911,-100,4,1,50,15,0,0
116082,-100,4,1,50,20,0,0
116940,-100,4,2,50,20,0,0
117625,-100,4,1,50,20,0,0
118997,-100,4,2,50,20,0,0
119682,-100,4,1,50,20,0,0
120368,-100,4,1,50,60,0,0
120540,-100,4,2,50,20,0,0
120882,-100,4,1,50,30,0,0
121054,-100,4,2,50,20,0,0
121397,-100,4,1,50,15,0,0
121568,-100,4,1,50,20,0,0
122425,-100,4,2,1,20,0,0
123111,-100,4,1,50,20,0,0
124825,-100,4,1,1,30,0,0
124911,-100,4,1,1,15,0,0
124954,-100,4,1,1,10,0,0
124997,-100,4,1,1,50,0,0
125082,-100,4,1,1,25,0,0
125125,-100,4,1,1,10,0,0
125168,-100,4,1,1,70,0,0
125254,-100,4,1,1,35,0,0
125297,-100,4,1,1,10,0,0
125340,-100,4,1,1,90,0,0
125425,-100,4,1,1,45,0,0
125468,-100,4,1,1,10,0,0
125511,-100,4,1,1,10,0,0
125854,-100,4,1,1,10,0,0
126197,-83.3333333333333,4,2,99,80,0,0
126368,-83.3333333333333,4,1,5,60,0,0
126540,-83.3333333333333,4,2,5,80,0,0
126711,-83.3333333333333,4,1,5,60,0,0
126882,-83.3333333333333,4,2,5,80,0,0
127225,-83.3333333333333,4,1,5,60,0,0
127397,-83.3333333333333,4,2,5,80,0,0
127740,-83.3333333333333,4,1,5,60,0,0
127911,-83.3333333333333,4,2,5,80,0,0
128082,-83.3333333333333,4,1,5,60,0,0
128254,-83.3333333333333,4,2,5,80,0,0
128425,-83.3333333333333,4,1,5,60,0,0
128597,-83.3333333333333,4,2,5,80,0,0
129111,-83.3333333333333,4,1,5,60,0,0
129282,-83.3333333333333,4,2,5,80,0,0
129454,-83.3333333333333,4,1,5,60,0,0
129625,-83.3333333333333,4,2,5,80,0,0
129968,-83.3333333333333,4,1,5,60,0,0
130140,-83.3333333333333,4,2,5,80,0,0
130482,-83.3333333333333,4,1,5,60,0,0
130654,-83.3333333333333,4,2,5,80,0,0
130825,-83.3333333333333,4,1,5,60,0,0
130997,-83.3333333333333,4,2,5,80,0,0
131168,-83.3333333333333,4,1,5,60,0,0
131340,-83.3333333333333,4,2,5,80,0,0
131854,-83.3333333333333,4,1,5,60,0,0
132025,-83.3333333333333,4,2,5,80,0,0
132197,-83.3333333333333,4,1,5,60,0,0
132368,-83.3333333333333,4,2,5,80,0,0
132711,-83.3333333333333,4,1,5,60,0,0
132882,-83.3333333333333,4,2,5,80,0,0
133225,-83.3333333333333,4,1,5,60,0,0
133397,-83.3333333333333,4,2,5,80,0,0
133568,-83.3333333333333,4,1,5,60,0,0
133740,-83.3333333333333,4,2,5,80,0,0
133911,-83.3333333333333,4,1,5,60,0,0
134082,-83.3333333333333,4,2,5,80,0,0
134597,-83.3333333333333,4,1,5,60,0,0
134768,-83.3333333333333,4,2,5,80,0,0
134940,-83.3333333333333,4,1,5,60,0,0
135111,-83.3333333333333,4,2,5,80,0,0
135454,-83.3333333333333,4,1,5,60,0,0
135625,-83.3333333333333,4,2,5,80,0,0
135968,-83.3333333333333,4,1,5,60,0,0
136140,-83.3333333333333,4,2,5,80,0,0
136311,-83.3333333333333,4,1,5,60,0,0
136482,-83.3333333333333,4,2,5,80,0,0
136654,-83.3333333333333,4,1,5,60,0,0
136825,-83.3333333333333,4,2,5,80,0,0
137168,-83.3333333333333,4,2,5,80,0,0
137340,-83.3333333333333,4,1,5,60,0,0
137511,-83.3333333333333,4,2,5,80,0,0
137682,-83.3333333333333,4,1,5,60,0,0
137854,-83.3333333333333,4,2,5,80,0,0
138197,-83.3333333333333,4,1,5,60,0,0
138368,-83.3333333333333,4,2,5,80,0,0
138711,-83.3333333333333,4,1,5,60,0,0
138882,-83.3333333333333,4,2,5,80,0,0
139054,-83.3333333333333,4,1,5,60,0,0
139225,-83.3333333333333,4,2,5,80,0,0
139397,-83.3333333333333,4,1,5,60,0,0
139568,-83.3333333333333,4,2,5,80,0,0
140082,-83.3333333333333,4,1,5,60,0,0
140254,-83.3333333333333,4,2,5,80,0,0
140425,-83.3333333333333,4,1,5,60,0,0
140597,-83.3333333333333,4,2,5,80,0,0
140940,-83.3333333333333,4,1,5,60,0,0
141111,-83.3333333333333,4,2,5,80,0,0
141454,-83.3333333333333,4,1,5,60,0,0
141625,-83.3333333333333,4,2,5,80,0,0
141797,-83.3333333333333,4,1,5,60,0,0
141968,-83.3333333333333,4,2,5,80,0,0
142140,-83.3333333333333,4,1,5,60,0,0
142311,-83.3333333333333,4,2,5,80,0,0
142654,-83.3333333333333,4,2,0,80,0,0
142825,-83.3333333333333,4,1,5,60,0,0
142997,-83.3333333333333,4,2,5,70,0,0
143168,-83.3333333333333,4,1,5,60,0,0
143340,-83.3333333333333,4,2,5,60,0,0
143682,-83.3333333333333,4,1,5,60,0,0
143854,-83.3333333333333,4,1,5,52,0,0
144197,-83.3333333333333,4,1,5,60,0,0
144368,-83.3333333333333,4,1,5,44,0,0
144540,-83.3333333333333,4,1,5,60,0,0
144711,-83.3333333333333,4,1,5,36,0,0
144882,-83.3333333333333,4,1,5,60,0,0
145054,-83.3333333333333,4,1,5,28,0,0
145568,-83.3333333333333,4,1,5,60,0,0
145740,-83.3333333333333,4,1,99,20,0,0
145911,-83.3333333333333,4,1,5,60,0,0
146082,-83.3333333333333,4,1,5,12,0,0
146425,-83.3333333333333,4,2,0,60,0,0
146768,-83.3333333333333,4,2,0,10,0,0
147797,-83.3333333333333,4,2,5,80,0,0
148140,-71.4285714285714,4,1,99,80,0,1
148311,-71.4285714285714,4,1,2,80,0,1
157740,-71.4285714285714,4,1,0,80,0,0
159111,-71.4285714285714,4,1,99,80,0,1
159282,-71.4285714285714,4,1,6,80,0,1
170082,-71.4285714285714,4,1,5,80,0,0
180882,-100,4,2,1,60,0,0
186540,-100,4,2,1,60,0,0
189282,-100,4,2,5,60,0,0
190654,-100,4,2,5,60,0,0
191511,-90.9090909090909,4,1,5,80,0,0
192025,-83.3333333333333,4,1,99,80,0,1
192197,-83.3333333333333,4,1,5,80,0,1
201625,-83.3333333333333,4,1,0,80,0,0
202997,-71.4285714285714,4,1,99,80,0,1
203168,-71.4285714285714,4,1,6,80,0,1
209854,-100,4,1,1,60,0,0
211225,-100,4,1,1,55,0,0
212597,-100,4,1,1,50,0,0
213968,-100,4,1,99,50,0,0

[Colours]
Combo1 : 152,147,247
Combo2 : 5,141,207
Combo3 : 176,129,235
Combo4 : 75,123,250

[HitObjects]
156,315,32940,6,0,P|239:334|329:290,1,160,14|8,0:1|0:1,0:0:0:0:
326,107,33625,2,0,P|251:81|174:101,1,160,8|8,0:1|0:1,0:0:0:0:
56,157,34140,1,0,3:0:0:0:
56,157,34311,2,0,P|45:115|58:58,1,80,8|0,0:1|3:0,0:0:0:0:
123,236,34654,2,0,P|126:275|116:313,1,80,8|0,0:1|3:0,0:0:0:0:
196,172,34997,2,0,P|238:183|293:170,1,80,8|0,0:1|3:0,0:0:0:0:
384,157,35340,1,8,0:1:0:0:
231,58,35511,5,0,3:0:0:0:
231,58,35597,1,0,0:0:0:0:
231,58,35682,2,0,P|190:48|132:63,1,80,8|0,0:1|3:0,0:0:0:0:
56,157,36025,2,0,L|44:52,1,80,8|0,0:1|3:0,0:0:0:0:
196,172,36368,2,0,L|187:252,1,80,8|0,0:1|3:0,0:0:0:0:
62,346,36711,2,0,L|50:241,1,80,8|0,0:1|3:0,0:0:0:0:
160,353,37054,5,8,0:1:0:0:
282,235,37225,1,0,3:0:0:0:
115,204,37397,1,8,0:1:0:0:
276,327,37568,1,0,3:0:0:0:
373,175,37740,1,8,0:1:0:0:
196,172,37911,1,0,3:0:0:0:
282,235,38082,1,8,0:1:0:0:
382,87,38425,6,0,P|309:67|224:82,1,160,8|8,0:1|0:1,0:0:0:0:
123,240,38940,1,0,3:0:0:0:
123,240,39111,2,0,L|136:73,1,160,8|8,0:1|0:1,0:0:0:0:
44,210,39625,1,0,3:0:0:0:
79,314,39797,2,0,P|121:323|186:300,1,80,8|0,0:1|3:0,0:0:0:0:
312,266,40140,2,0,P|351:260|391:268,1,80,8|0,0:1|3:0,0:0:0:0:
242,196,40482,2,0,B|225:112|225:112|241:32,1,160,8|8,0:1|0:1,0:0:0:0:
399,168,41168,5,8,0:1:0:0:
117,351,41511,1,8,0:1:0:0:
325,357,41854,1,8,0:1:0:0:
63,150,42197,1,8,0:1:0:0:
242,196,42540,6,0,P|249:152|240:95,1,80
189,30,42882,1,0,0:0:0:0:
136,168,43054,1,0,0:0:0:0:
285,267,43225,2,0,P|324:274|381:265,1,80
460,237,43568,1,0,0:0:0:0:
239,96,43740,1,2,0:0:0:0:
239,96,43825,1,2,0:0:0:0:
239,96,43911,6,0,L|242:207,1,100,14|0,0:0|3:0,0:0:0:0:
175,282,44254,2,0,P|137:293|58:268,1,100,8|0,0:0|3:0,0:0:0:0:
241,195,44597,2,0,P|289:183|337:194,1,100,8|0,0:0|3:0,0:0:0:0:
460,237,44940,1,8,0:0:0:0:
422,96,45111,1,0,3:0:0:0:
424,65,45197,1,0,2:0:0:0:
429,32,45282,5,8,0:0:0:0:
496,163,45454,1,0,3:0:0:0:
318,262,45625,1,8,0:0:0:0:
420,356,45797,1,0,3:0:0:0:
327,151,45968,2,0,P|278:162|240:194,1,100,8|0,0:0|3:0,0:0:0:0:
165,299,46311,1,8,0:0:0:0:
141,128,46482,5,0,3:0:0:0:
136,98,46568,1,0,2:0:0:0:
130,68,46654,2,0,P|82:56|18:72,1,100,8|0,0:0|3:0,0:0:0:0:
229,147,46997,2,0,P|277:159|341:143,1,100,8|0,0:0|3:0,0:0:0:0:
431,199,47340,2,0,L|427:62,2,100,8|0|8,0:0|3:0|0:0,0:0:0:0:
339,353,47854,1,0,3:0:0:0:
301,193,48025,5,8,0:0:0:0:
357,254,48197,1,0,3:0:0:0:
253,353,48368,1,8,0:0:0:0:
129,201,48540,1,0,3:0:0:0:
205,244,48711,1,8,0:0:0:0:
117,350,48882,1,0,3:0:0:0:
31,161,49054,5,8,0:0:0:0:
216,50,49397,6,0,P|319:24|424:44,1,200,8|8,0:0|0:0,0:0:0:0:
492,89,49911,1,0,3:0:0:0:
360,259,50082,2,0,P|302:256|243:220,1,100,8|0,0:0|3:0,0:0:0:0:
411,188,50425,2,0,P|456:168|509:174,1,100,8|0,0:0|3:0,0:0:0:0:
410,374,50768,1,8,0:0:0:0:
265,239,50940,2,0,P|252:192|266:110,2,100,0|8|0,3:0|0:0|3:0,0:0:0:0:
191,294,51454,2,0,P|101:265|-22:309,1,200,8|8,0:0|0:0,0:0:0:0:
429,250,52140,5,8,0:0:0:0:
381,13,52482,1,8,0:0:0:0:
145,58,52825,1,8,0:0:0:0:
191,294,53168,1,8,0:0:0:0:
321,249,53511,5,8,0:0:0:0:
206,91,53682,1,0,3:0:0:0:
391,151,53854,1,8,0:0:0:0:
206,211,54026,1,0,3:0:0:0:
321,54,54197,1,8,0:0:0:0:
293,151,54368,1,0,3:0:0:0:
293,151,54540,5,6,2:0:0:0:
108,155,54882,5,14,0:1:0:0:
12,84,55054,1,0,3:0:0:0:
115,23,55225,1,8,0:0:0:0:
206,91,55397,1,0,3:0:0:0:
212,244,55568,6,0,P|162:327|51:317,1,200,8|8,0:0|0:0,0:0:0:0:
113,238,56082,1,0,3:0:0:0:
293,151,56254,2,0,P|341:139|398:154,1,100,8|0,0:0|3:0,0:0:0:0:
441,274,56597,2,0,P|391:268|343:235,1,100,8|0,0:0|3:0,0:0:0:0:
476,154,56940,1,8,0:0:0:0:
404,43,57111,1,0,3:0:0:0:
349,242,57282,1,8,0:0:0:0:
183,80,57454,5,0,3:0:0:0:
191,107,57540,1,0,2:0:0:0:
200,138,57625,2,0,P|203:199|173:236,1,100,8|0,0:0|3:0,0:0:0:0:
8,170,57968,2,0,L|127:168,1,100,8|0,0:0|3:0,0:0:0:0:
181,229,58311,1,8,0:0:0:0:
43,294,58482,1,0,3:0:0:0:
95,67,58654,1,8,0:0:0:0:
214,303,58825,6,0,P|268:314|338:288,1,100,0|8,3:0|0:0,0:0:0:0:
384,248,59168,1,0,3:0:0:0:
304,196,59340,1,8,0:0:0:0:
404,56,59511,1,0,3:0:0:0:
469,213,59682,1,8,0:0:0:0:
181,229,59854,1,0,3:0:0:0:
260,28,60025,1,8,0:0:0:0:
218,336,60368,6,0,P|152:357|27:315,1,200,8|8,0:0|0:0,0:0:0:0:
284,277,60882,1,0,3:0:0:0:
362,216,61054,2,0,P|362:166|379:119,2,100,8|0|8,0:0|3:0|0:0,0:0:0:0:
379,325,61568,5,0,3:0:0:0:
457,262,61740,1,8,0:0:0:0:
275,170,61911,1,0,3:0:0:0:
284,277,62082,1,8,0:0:0:0:
457,156,62254,1,0,3:0:0:0:
279,67,62425,2,0,B|181:49|181:49|74:70,1,200,8|8,0:0|0:0,0:0:0:0:
117,358,63111,5,6,1:0:0:0:
82,68,63454,1,2,2:0:0:0:
5,259,63797,1,2,2:0:0:0:
279,67,64140,1,2,2:0:0:0:
395,358,64482,5,2,2:0:0:0:
430,68,64825,1,2,2:0:0:0:
507,259,65168,1,2,2:0:0:0:
279,67,65511,1,2,2:0:0:0:
212,264,65854,6,0,B|100:245|123:298|12:265,2,200,10|10|10,0:3|0:3|0:3,0:0:0:0:
391,321,66882,1,10,0:3:0:0:
316,80,67225,2,0,B|428:61|405:114|516:81,2,200,10|10|10,0:3|0:3|0:3,0:0:0:0:
112,129,68253,1,10,0:3:0:0:
41,317,68597,5,6,0:2:0:0:
90,330,68682,1,2,2:0:0:0:
139,330,68768,1,6,0:3:0:0:
188,319,68854,1,0,2:0:0:0:
234,300,68939,5,6,0:2:0:0:
282,287,69025,1,0,2:0:0:0:
332,285,69111,1,6,0:3:0:0:
381,293,69197,1,0,2:0:0:0:
428,306,69282,5,6,0:2:0:0:
422,256,69368,1,0,2:0:0:0:
425,206,69453,1,6,0:3:0:0:
442,159,69539,1,0,2:0:0:0:
472,120,69625,5,6,0:2:0:0:
256,192,69968,12,2,70997,2:0:0:0:
426,107,71340,5,14,0:0:0:0:
419,154,71425,1,4,2:1:0:0:
413,201,71511,1,4,3:1:0:0:
319,345,71682,2,2,P|257:361|188:340,1,119.999996337891,14|4,0:0|3:1,0:0:0:0:
46,224,72025,1,12,0:1:0:0:
23,349,72197,1,4,3:1:0:0:
183,179,72368,2,0,P|196:122|182:36,1,119.999996337891,14|4,0:0|3:1,0:0:0:0:
213,255,72711,6,0,P|275:271|344:252,1,119.999996337891,12|4,0:0|3:1,0:0:0:0:
470,98,73054,1,12,0:0:0:0:
470,98,73140,1,4,2:1:0:0:
470,98,73225,2,2,P|411:84|337:104,1,119.999996337891,6|12,3:1|0:0,0:0:0:0:
425,312,73568,1,4,3:1:0:0:
425,312,73654,1,4,2:1:0:0:
425,312,73740,2,2,P|434:247|423:192,1,119.999996337891,14|4,0:0|3:1,0:0:0:0:
236,36,74082,5,12,0:0:0:0:
221,81,74168,1,4,2:1:0:0:
231,127,74254,1,4,3:1:0:0:
280,303,74425,2,2,P|220:319|145:291,1,119.999996337891,14|4,0:0|3:1,0:0:0:0:
40,249,74768,1,12,0:0:0:0:
78,362,74940,1,4,3:1:0:0:
115,175,75111,2,2,P|105:117|117:42,1,119.999996337891,14|4,0:0|3:1,0:0:0:0:
112,56,75454,5,12,0:0:0:0:
215,202,75625,1,4,3:1:0:0:
299,43,75797,1,12,0:0:0:0:
299,43,75882,1,4,2:1:0:0:
299,43,75968,2,2,P|361:30|437:47,1,119.999996337891,6|12,3:1|0:0,0:0:0:0:
494,137,76311,2,0,L|485:196,2,59.9999981689454,4|4|14,3:1|2:1|0:0,0:0:0:0:
403,247,76654,1,4,3:1:0:0:
420,350,76825,5,12,0:0:0:0:
467,359,76911,1,4,2:1:0:0:
511,341,76997,1,4,3:1:0:0:
308,268,77168,2,2,P|252:256|180:269,1,119.999996337891,14|4,0:0|3:1,0:0:0:0:
58,327,77511,1,12,0:0:0:0:
134,175,77682,2,0,L|141:39,2,119.999996337891,4|14|4,3:1|0:0|3:1,0:0:0:0:
150,355,78197,5,12,0:0:0:0:
45,230,78368,1,4,3:1:0:0:
221,201,78540,1,12,0:0:0:0:
236,182,78625,1,4,2:1:0:0:
254,166,78711,1,6,3:1:0:0:
34,109,78882,1,12,0:0:0:0:
285,73,79054,1,4,3:1:0:0:
303,89,79140,1,4,2:1:0:0:
321,104,79225,2,2,P|375:118|456:92,1,119.999996337891,14|4,0:0|3:1,0:0:0:0:
487,276,79568,5,12,0:0:0:0:
438,252,79653,1,4,2:1:0:0:
385,243,79739,1,4,3:1:0:0:
332,252,79825,1,4,2:1:0:0:
284,276,79910,1,14,0:0:0:0:
388,362,80082,1,4,3:1:0:0:
275,187,80254,5,12,0:0:0:0:
226,210,80339,1,4,2:1:0:0:
173,219,80425,1,4,3:1:0:0:
120,210,80511,1,4,2:1:0:0:
72,186,80596,1,14,0:0:0:0:
176,101,80768,1,4,3:1:0:0:
471,67,80940,5,6,1:1:0:0:
203,355,81282,1,6,1:1:0:0:
489,356,81625,1,14,1:1:0:0:
176,101,81968,2,2,L|166:188,1,59.9999981689454,14|0,0:0|2:0,0:0:0:0:
88,98,82140,2,2,L|81:38,1,59.9999981689454,6|0,0:0|2:0,0:0:0:0:
57,212,82311,5,14,0:0:0:0:
117,339,82482,1,4,3:1:0:0:
295,148,82654,1,14,0:0:0:0:
212,25,82825,1,4,3:1:0:0:
198,241,82997,5,12,0:0:0:0:
388,164,83168,1,4,3:1:0:0:
134,82,83340,1,14,0:0:0:0:
107,298,83511,1,4,3:1:0:0:
236,322,83682,6,0,P|288:332|369:314,1,119.999996337891,12|4,0:0|3:1,0:0:0:0:
462,245,84025,1,12,0:0:0:0:
480,295,84110,1,4,2:1:0:0:
465,347,84196,1,6,3:1:0:0:
388,164,84368,2,0,P|372:112|386:41,1,119.999996337891,12|4,0:0|3:1,0:0:0:0:
389,38,84625,1,4,2:1:0:0:
396,28,84711,2,2,L|254:28,1,119.999996337891,14|4,0:0|3:1,0:0:0:0:
124,135,85054,5,12,0:0:0:0:
106,91,85140,1,4,2:1:0:0:
115,44,85226,1,4,3:1:0:0:
187,214,85397,2,2,P|129:244|69:230,1,119.999996337891,14|4,0:0|3:1,0:0:0:0:
268,121,85740,1,12,0:0:0:0:
364,329,85911,1,4,3:1:0:0:
441,148,86082,2,2,L|451:7,1,119.999996337891,14|4,0:0|3:1,0:0:0:0:
298,229,86425,5,12,0:0:0:0:
326,114,86597,1,4,3:1:0:0:
420,273,86768,5,12,0:0:0:0:
467,282,86854,1,4,2:1:0:0:
511,264,86940,1,6,3:1:0:0:
298,229,87111,2,4,P|240:221|153:242,1,119.999996337891,12|4,0:0|3:1,0:0:0:0:
153,244,87368,1,4,2:1:0:0:
128,260,87454,2,2,P|120:209|129:133,1,119.999996337891,14|4,0:0|3:2,0:0:0:0:
226,84,87796,5,12,0:0:0:0:
262,86,87882,1,4,2:1:0:0:
297,90,87967,1,4,3:1:0:0:
148,29,88140,2,2,P|87:22|12:40,1,119.999996337891,14|4,0:0|3:1,0:0:0:0:
256,167,88482,2,0,P|317:174|392:156,1,119.999996337891,12|4,0:0|3:1,0:0:0:0:
60,172,88825,2,2,P|43:236|59:302,1,119.999996337891,14|4,0:0|3:1,0:0:0:0:
260,247,89168,2,0,L|140:241,1,119.999996337891,12|4,0:0|3:1,0:0:0:0:
287,326,89511,5,12,0:0:0:0:
323,324,89597,1,4,2:1:0:0:
358,320,89682,1,6,3:1:0:0:
449,222,89854,2,0,L|452:83,1,119.999996337891,12|4,0:0|3:1,0:0:0:0:
440,67,90111,1,4,2:1:0:0:
416,39,90197,2,2,P|374:27|291:36,1,119.999996337891,14|4,0:0|3:1,0:0:0:0:
298,329,90540,5,12,0:0:0:0:
333,287,90625,1,4,2:1:0:0:
356,239,90711,1,4,3:1:0:0:
361,185,90797,1,4,2:1:0:0:
350,132,90882,1,14,0:0:0:0:
223,201,91054,1,4,3:1:0:0:
139,85,91225,5,12,0:0:0:0:
104,127,91310,1,4,2:1:0:0:
81,175,91396,1,4,3:1:0:0:
76,229,91482,1,4,2:1:0:0:
87,282,91567,1,14,0:0:0:0:
223,201,91739,1,4,3:1:0:0:
256,192,91911,12,4,93111,0:0:0:0:
362,104,93282,5,6,0:0:0:0:
178,137,104254,6,0,L|391:140,1,200
481,209,105282,1,0,0:0:0:0:
323,334,105625,2,0,P|214:317|118:342,1,200
22,366,106654,1,0,0:0:0:0:
79,234,106997,1,0,0:0:0:0:
79,234,107168,6,0,P|106:148|76:76,1,150,4|4,0:0|0:0,0:0:0:0:
8,158,108025,1,0,0:0:0:0:
166,247,108368,2,0,B|279:221|255:274|379:241,1,200
472,220,109397,1,0,0:0:0:0:
316,148,109740,1,0,0:0:0:0:
316,148,109911,6,0,P|304:83|344:6,1,150,4|4,0:0|0:0,0:0:0:0:
472,104,110768,1,6,0:0:0:0:
275,222,111111,2,0,B|173:207|173:207|64:228,1,200,6|0,0:0|0:0,0:0:0:0:
14,332,112140,1,6,0:0:0:0:
211,347,112482,1,6,0:0:0:0:
211,347,112654,6,0,P|293:356|375:339,1,150,4|4,0:0|0:0,0:0:0:0:
469,268,113511,1,6,0:0:0:0:
286,222,113854,2,0,P|274:178|281:112,1,100,6|0,0:0|0:0,0:0:0:0:
311,19,114540,1,0,0:0:0:0:
180,139,114882,6,0,P|183:89|171:41,2,100,2|0|4,0:2|0:0|0:0,0:0:0:0:
118,267,115397,1,0,0:0:0:0:
286,222,115568,2,0,P|340:214|406:223,1,100,10|0,0:2|0:0,0:0:0:0:
508,325,115911,1,0,0:0:0:0:
341,350,116082,2,0,P|291:354|243:342,1,100,0|10,0:0|0:2,0:0:0:0:
118,267,116425,1,0,0:0:0:0:
221,87,116597,1,10,0:2:0:0:
221,87,117625,6,0,P|171:81|103:92,2,100,0|0|10,0:0|0:0|0:2,0:0:0:0:
348,152,118140,1,0,0:0:0:0:
217,265,118311,2,0,P|168:277|110:261,1,100,10|10,0:2|0:2,0:0:0:0:
238,170,118654,1,0,0:0:0:0:
347,266,118825,2,0,P|358:319|347:373,1,100,0|10,0:0|0:2,0:0:0:0:
270,322,119168,1,0,0:0:0:0:
409,172,119340,1,10,0:0:0:0:
136,162,120368,6,0,P|127:112|142:58,1,100
217,243,120711,2,0,P|226:293|211:347,1,100,10|0,0:2|0:0,0:0:0:0:
252,147,121054,2,0,L|386:148,2,100,10|14|4,0:2|0:2|0:2,0:0:0:0:
100,265,121568,1,0,0:0:0:0:
38,89,121740,1,10,0:2:0:0:
252,147,121911,1,0,0:0:0:0:
8,217,122082,1,14,0:2:0:0:
265,276,123111,5,0,0:0:0:0:
302,274,123196,1,0,0:0:0:0:
339,272,123282,1,0,0:0:0:0:
377,270,123368,1,0,0:0:0:0:
414,269,123454,6,0,P|421:222|411:166,1,100,10|0,0:2|0:0,0:0:0:0:
234,107,123797,2,0,P|238:156|257:202,1,100,8|10,0:2|0:2,0:0:0:0:
476,116,124140,2,0,P|454:70|421:33,1,100
151,178,124482,2,0,P|168:224|198:264,1,100,14|0,0:2|0:0,0:0:0:0:
256,192,124825,12,0,125854,0:0:0:0:
236,269,126197,6,2,P|182:262|106:277,1,119.999996337891,6|0,3:1|0:0,1:2:0:0:
344,342,126540,2,2,P|395:358|463:349,1,119.999996337891,10|0,0:0|0:0,1:2:0:0:
353,209,126882,2,2,L|355:77,2,119.999996337891,10|2|8,0:0|0:2|0:2,1:2:0:0:
344,342,127397,1,2,0:2:0:0:
216,92,127568,5,10,0:0:0:0:
22,356,127911,1,10,0:0:0:0:
353,209,128254,1,10,0:0:0:0:
222,122,128597,2,2,L|227:46,1,59.9999981689454,10|0,0:0|0:0,1:2:0:0:
140,159,128768,2,2,L|143:218,1,59.9999981689454,2|0,0:0|0:0,1:2:0:0:
60,140,128940,6,2,P|49:81|62:23,1,119.999996337891,10|0,0:0|0:0,1:2:0:0:
222,122,129282,1,10,0:0:0:0:
178,357,129454,1,0,0:0:0:0:
8,268,129625,2,2,P|68:248|126:265,2,119.999996337891,10|2|8,0:0|0:0|0:2,1:2:0:0:
307,343,130140,1,2,0:0:0:0:
460,135,130311,6,2,P|461:77|434:8,1,119.999996337891,10|0,0:0|0:0,1:2:0:0:
295,134,130654,2,2,P|294:192|321:261,1,119.999996337891,10|0,0:0|0:0,1:2:0:0:
203,43,130997,2,2,P|145:42|76:69,1,119.999996337891,10|0,0:0|0:0,1:2:0:0:
40,254,131340,2,2,P|33:218|35:178,1,59.9999981689454,10|0,0:0|0:0,1:2:0:0:
122,291,131511,2,2,P|125:323|119:350,1,59.9999981689454,2|0,0:0|0:0,1:2:0:0:
177,211,131682,6,2,P|229:204|304:212,1,119.999996337891,10|0,0:0|0:0,1:2:0:0:
437,268,132025,1,10,0:0:0:0:
409,75,132197,1,0,0:0:0:0:
319,356,132368,2,2,P|259:362|200:355,1,119.999996337891,10|2,0:0|0:0,1:2:0:0:
49,334,132711,1,8,0:2:0:0:
120,104,132882,1,2,0:0:0:0:
319,356,133054,5,10,0:0:0:0:
479,35,133397,1,10,0:0:0:0:
49,334,133740,1,10,0:0:0:0:
437,268,134082,2,2,P|441:237|434:201,2,59.9999981689454,10|0|2,0:0|0:0|0:0,1:2:0:0:
391,332,134425,6,2,L|266:336,1,119.999996337891,10|0,0:0|0:0,1:2:0:0:
122,295,134768,2,2,P|106:241|129:170,1,119.999996337891,10|0,0:0|0:0,1:2:0:0:
321,233,135111,2,2,L|171:238,2,119.999996337891,10|2|8,0:0|0:0|0:2,1:2:0:0:
437,268,135625,1,2,0:0:0:0:
423,29,135797,5,10,0:0:0:0:
41,292,136140,1,10,0:0:0:0:
145,28,136482,1,10,0:0:0:0:
174,358,136825,5,10,0:0:0:0:
211,356,136910,1,0,0:0:0:0:
248,354,136996,1,2,0:0:0:0:
286,352,137082,1,0,0:0:0:0:
323,351,137168,6,2,P|331:295|319:229,1,119.999996337891,6|0,3:2|0:0,1:2:0:0:
182,148,137511,2,2,P|161:204|158:263,1,119.999996337891,6|0,3:2|0:0,1:2:0:0:
385,175,137854,2,2,P|383:118|359:55,1,119.999996337891,6|2,3:2|0:2,1:2:0:0:
462,237,138197,2,2,P|441:293|438:352,1,119.999996337891,4|2,1:2|0:0,1:2:0:0:
481,148,138540,1,6,3:2:0:0:
143,257,138882,1,6,3:2:0:0:
438,352,139225,1,6,3:2:0:0:
325,122,139568,6,2,P|322:95|335:39,1,59.9999981689454,6|0,3:2|0:0,1:2:0:0:
385,175,139740,2,2,P|388:202|375:258,1,59.9999981689454,2|0,0:0|0:0,1:2:0:0:
262,258,139911,2,2,P|205:265|139:256,1,119.999996337891,6|0,3:2|0:0,1:2:0:0:
318,353,140254,2,2,P|381:363|437:351,1,119.999996337891,6|0,3:2|0:0,1:2:0:0:
489,144,140597,2,2,L|494:269,1,119.999996337891,6|2,3:2|0:0,1:2:0:0:
262,258,140940,2,2,L|257:138,1,119.999996337891,4|2,1:2|0:0,1:2:0:0:
326,37,141282,6,2,P|389:27|445:39,1,119.999996337891,6|0,3:2|0:0,1:2:0:0:
174,182,141625,2,2,P|115:193|56:183,1,119.999996337891,6|0,3:2|0:0,1:2:0:0:
243,24,141968,1,6,3:2:0:0:
338,364,142311,1,6,3:2:0:0:
262,258,142482,1,2,0:0:0:0:
386,265,142654,6,0,P|441:250|512:259,1,119.999996337891,4|0,1:0|0:0,0:0:0:0:
212,360,142997,2,0,P|152:366|94:351,1,119.999996337891,6|0,1:2|0:0,0:0:0:0:
5,270,143340,1,6,1:2:0:0:
174,182,143511,1,2,0:0:0:0:
129,285,143682,1,4,1:2:0:0:
127,75,143854,1,2,0:2:0:0:
318,166,144025,6,2,P|375:179|460:161,1,119.999996337891,6|0,1:2|0:0,0:0:0:0:
244,69,144368,2,2,P|184:61|126:74,1,119.999996337891,6|0,1:2|0:0,0:0:0:0:
5,270,144711,2,2,P|0:209|7:137,1,119.999996337891,6|0,1:2|0:0,0:0:0:0:
129,285,145054,2,2,P|133:318|122:371,2,59.9999981689454,6|0|2,1:2|0:0|0:2,0:1:0:0:
231,304,145397,6,2,P|296:313|351:303,1,119.999996337891,6|0,1:2|0:0,0:0:0:0:
362,69,145740,2,2,P|302:59|243:68,1,119.999996337891,4|0,1:0|0:0,0:0:0:0:
447,252,146082,2,0,P|456:192|447:133,1,119.999996337891,6|2,1:2|0:2,0:0:0:0:
231,304,146425,1,8,0:0:0:0:
256,192,146768,12,2,147797,0:0:0:0:
313,234,148140,5,6,0:0:0:0:
476,279,148311,1,4,3:0:0:0:
322,102,148482,1,6,0:0:0:0:
117,152,148653,1,4,3:0:0:0:
216,359,148825,1,6,0:0:0:0:
245,180,148996,1,2,3:1:0:0:
136,296,149168,2,4,P|109:310|-13:318,1,139.999995727539,12|2,0:3|3:1,0:3:0:0:
313,234,149511,6,0,P|382:233|447:259,1,139.999995727539,6|4,0:0|3:0,0:0:0:0:
245,180,149854,2,0,P|231:111|243:43,1,139.999995727539,6|4,0:0|3:0,0:0:0:0:
255,310,150197,2,0,P|204:321|106:299,1,139.999995727539,6|4,0:0|3:0,0:0:0:0:
456,111,150540,5,6,0:0:0:0:
118,305,150711,1,2,0:0:0:0:
409,334,150882,6,0,P|421:267|403:195,1,139.999995727539,6|4,0:0|3:0,0:0:0:0:
341,68,151225,1,6,0:0:0:0:
137,295,151397,1,4,3:0:0:0:
310,369,151568,1,6,0:0:0:0:
160,90,151740,1,2,3:1:0:0:
0,298,151911,2,0,P|72:309|152:289,1,139.999995727539,12|2,0:3|3:1,0:0:0:0:
343,240,152254,6,0,P|415:229|495:249,1,139.999995727539,6|4,0:0|3:0,0:0:0:0:
165,226,152597,2,0,P|150:165|164:77,1,139.999995727539,6|4,0:0|3:0,0:0:0:0:
310,369,152940,2,0,P|241:382|172:371,1,139.999995727539,6|4,0:0|3:0,0:0:0:0:
16,120,153282,1,6,0:0:0:0:
0,298,153454,1,2,3:1:0:0:
159,89,153625,6,0,L|306:86,1,139.999995727539,6|4,0:0|3:0,0:0:0:0:
485,182,153968,1,6,0:0:0:0:
405,16,154140,1,4,3:0:0:0:
343,240,154311,1,6,0:0:0:0:
462,348,154482,1,2,3:1:0:0:
89,350,154654,1,12,0:3:0:0:
208,242,154825,1,2,3:1:0:0:
119,104,154997,6,0,P|102:177|121:248,1,139.999995727539,6|4,0:0|3:0,0:0:0:0:
307,143,155340,2,0,P|322:80|309:-2,1,139.999995727539,6|4,0:0|3:0,0:0:0:0:
209,102,155682,2,0,L|207:241,1,139.999995727539,6|4,0:0|3:0,0:0:0:0:
271,379,156025,2,0,P|305:378|340:372,1,69.9999978637696,6|0,0:0|2:0,0:0:0:0:
172,342,156197,2,0,P|137:335|102:335,1,69.9999978637696,2|0,3:1|2:0,0:0:0:0:
307,283,156368,6,0,L|307:124,1,139.999995727539,6|4,0:0|3:0,0:0:0:0:
398,30,156711,1,6,0:0:0:0:
421,241,156882,1,4,3:0:0:0:
209,102,157054,1,6,0:0:0:0:
489,72,157225,1,2,3:1:0:0:
307,283,157397,1,12,0:3:0:0:
283,26,157568,1,2,0:0:0:0:
193,206,157740,6,2,P|128:217|29:195,1,139.999995727539,4|0,0:0|0:0,0:0:0:0:
307,283,158082,2,2,P|372:294|471:272,1,139.999995727539,4|0,0:0|0:0,0:0:0:0:
307,123,158425,1,6,0:0:0:0:
55,205,158768,2,2,P|51:169|65:124,1,69.9999978637696,6|0,0:0|0:0,0:0:0:0:
193,206,158940,2,2,P|192:244|176:274,1,69.9999978637696,2|0,0:0|0:0,0:0:0:0:
152,41,159111,5,6,0:0:0:0:
90,289,159282,1,4,3:0:0:0:
320,203,159454,1,6,0:0:0:0:
58,104,159625,1,4,3:0:0:0:
238,339,159797,1,6,0:0:0:0:
265,51,159968,1,2,3:1:0:0:
193,206,160140,1,12,0:3:0:0:
401,43,160311,1,2,3:1:0:0:
454,299,160482,6,0,P|477:234|468:160,1,139.999995727539,6|4,0:0|3:0,0:0:0:0:
238,339,160825,2,0,P|303:362|372:354,1,139.999995727539,6|4,0:0|3:0,0:3:0:0:
416,103,161168,2,0,P|350:79|281:87,1,139.999995727539,6|4,0:0|3:0,0:3:0:0:
101,180,161511,1,6,0:0:0:0:
146,45,161682,1,2,3:1:0:0:
193,206,161854,6,0,P|194:283|140:336,1,139.999995727539,6|4,0:0|3:0,0:0:0:0:
48,372,162197,1,6,0:0:0:0:
51,93,162368,1,4,3:0:0:0:
307,327,162540,1,6,0:0:0:0:
106,254,162711,1,2,3:1:0:0:
281,119,162882,1,12,0:3:0:0:
432,362,163053,1,2,3:1:0:0:
307,327,163225,6,0,L|161:313,1,139.999995727539,6|4,0:0|3:0,0:0:0:0:
355,221,163568,2,0,L|494:207,1,139.999995727539,6|4,0:0|3:0,0:0:0:0:
281,119,163911,2,0,L|142:105,1,139.999995727539,6|4,0:0|3:0,0:0:0:0:
355,221,164254,1,6,0:0:0:0:
431,35,164425,1,2,3:1:0:0:
281,119,164597,5,6,0:0:0:0:
372,372,164768,1,4,3:0:0:0:
395,161,164939,1,6,0:0:0:0:
183,300,165111,1,4,3:0:0:0:
463,330,165282,1,6,0:0:0:0:
281,119,165454,1,2,3:1:0:0:
183,300,165625,2,0,P|116:318|25:298,1,139.999995727539,12|2,0:3|3:1,0:0:0:0:
309,213,165968,6,0,P|377:202|444:220,1,139.999995727539,6|4,0:0|3:0,0:0:0:0:
174,163,166311,2,0,P|160:100|173:17,1,139.999995727539,6|4,0:0|3:0,0:0:0:0:
449,83,166654,2,0,P|459:151|444:220,1,139.999995727539,6|4,0:0|3:0,0:0:0:0:
312,297,166997,1,6,0:0:0:0:
491,359,167168,1,2,3:1:0:0:
312,289,167340,6,0,P|250:276|167:289,1,139.999995727539,6|4,0:0|3:0,0:0:0:0:
42,349,167683,1,6,0:0:0:0:
202,63,167854,1,4,3:0:0:0:
255,193,168026,1,6,0:0:0:0:
51,171,168197,1,2,3:1:0:0:
406,59,168368,1,12,0:3:0:0:
391,347,168540,1,2,3:1:0:0:
233,275,168711,6,0,P|173:264|85:282,1,139.999995727539,6|4,0:0|3:0,0:0:0:0:
324,204,169054,2,0,P|384:193|472:211,1,139.999995727539,6|4,0:0|3:0,0:0:0:0:
200,151,169397,2,0,P|140:140|52:158,1,139.999995727539,6|4,0:0|3:0,0:0:0:0:
354,50,169740,2,0,P|414:39|502:57,1,139.999995727539,6|2,0:0|0:0,0:0:0:0:
233,275,170082,5,4,2:1:0:0:
380,177,180882,5,0,0:0:0:0:
380,177,180968,1,0,0:0:0:0:
380,177,181054,2,0,P|395:126|380:69,1,100,8|0,0:1|3:0,0:0:0:0:
311,244,181397,2,0,P|302:292|317:340,1,100,8|0,0:1|3:0,0:0:0:0:
289,154,181740,2,0,P|201:131|81:157,1,200,8|8,0:1|0:1,0:0:0:0:
51,326,182254,1,0,3:0:0:0:
51,326,182425,6,0,L|43:195,2,100,8|0|8,0:1|3:0|0:1,0:0:0:0:
134,240,182940,1,0,3:0:0:0:
252,351,183111,1,8,0:1:0:0:
131,358,183282,1,0,3:0:0:0:
255,226,183454,1,8,0:1:0:0:
400,307,183625,1,0,3:0:0:0:
400,307,183711,1,0,0:0:0:0:
400,307,183797,6,0,P|408:250|392:209,1,100,8|0,0:1|3:0,0:0:0:0:
317,108,184140,2,0,P|369:121|430:99,1,100,8|0,0:1|3:0,0:0:0:0:
273,37,184482,2,0,P|224:25|176:38,1,100,8|0,0:1|3:0,0:0:0:0:
72,116,184825,1,8,0:1:0:0:
149,276,184997,6,0,P|162:227|140:167,1,100,0|8,3:0|0:1,0:0:0:0:
40,238,185340,1,0,3:0:0:0:
133,375,185511,1,8,0:1:0:0:
236,206,185682,1,0,3:0:0:0:
149,276,185854,1,8,0:1:0:0:
323,318,186025,1,0,3:0:0:0:
286,97,186197,1,8,0:1:0:0:
286,97,186540,6,0,P|216:77|71:99,1,200,10|10,0:0|0:0,0:0:0:0:
323,203,187054,1,0,3:0:0:0:
323,203,187225,2,0,P|374:195|417:170,1,100,10|2,0:2|3:2,0:0:0:0:
236,206,187568,2,0,P|189:188|139:190,1,100,8|2,0:1|3:2,0:0:0:0:
288,378,187911,6,0,L|281:278,2,100,10|0|10,0:2|3:0|0:2,0:0:0:0:
154,326,188425,1,0,0:0:0:0:
433,318,188597,1,10,0:0:0:0:
269,39,188940,1,10,0:0:0:0:
56,224,189282,6,0,P|37:174|67:75,1,150,10|0,0:0|0:0,0:0:0:0:
135,218,189625,2,0,P|84:300|22:292,1,150,10|0,0:0|0:0,0:0:0:0:
152,144,189968,2,0,P|227:124|309:152,1,150,10|0,0:0|0:0,0:0:0:0:
356,221,190311,1,10,0:0:0:0:
376,60,190654,5,0,0:0:0:0:
238,329,190825,1,0,0:0:0:0:
356,221,190997,1,0,0:0:0:0:
154,143,191168,1,0,0:0:0:0:
366,353,191340,1,0,0:0:0:0:
456,188,191511,6,0,B|471:124|471:124|456:62,2,110.000003356934,2|2|2,0:1|0:1|0:2,0:1:0:0:
366,353,192025,5,6,0:0:0:0:
268,66,192196,1,4,3:0:0:0:
238,329,192367,1,2,0:0:0:0:
456,188,192539,1,4,3:0:0:0:
154,143,192710,1,2,0:0:0:0:
366,353,192882,1,2,3:1:0:0:
164,253,193054,2,0,P|118:241|37:262,1,119.999996337891,4|2,0:3|3:1,0:0:0:0:
270,184,193397,6,0,P|276:124|266:58,1,119.999996337891,2|4,0:0|3:0,0:0:0:0:
343,263,193740,2,0,P|400:277|458:265,1,119.999996337891,2|4,0:0|3:0,0:0:0:0:
238,329,194082,1,2,0:0:0:0:
65,50,194425,1,2,0:0:0:0:
164,253,194597,1,2,3:1:0:0:
320,52,194768,5,2,0:0:0:0:
343,263,194939,1,4,3:0:0:0:
131,124,195111,1,2,0:0:0:0:
421,84,195282,1,4,3:0:0:0:
238,329,195454,1,2,0:0:0:0:
205,48,195625,1,2,3:1:0:0:
343,263,195797,2,0,P|400:276|466:258,1,119.999996337891,4|2,0:3|3:1,0:0:0:0:
164,253,196140,6,0,P|104:259|54:291,1,119.999996337891,2|4,0:0|3:0,0:0:0:0:
277,157,196482,2,0,P|295:98|277:29,1,119.999996337891,2|4,0:0|3:0,0:0:0:0:
343,263,196825,2,0,P|325:322|343:391,1,119.999996337891,2|4,0:0|3:0,0:0:0:0:
421,84,197168,1,2,0:0:0:0:
471,342,197340,1,2,3:1:0:0:
256,28,197511,5,2,0:0:0:0:
164,253,197682,1,4,3:0:0:0:
277,157,197854,1,2,0:0:0:0:
124,113,198025,1,4,3:0:0:0:
308,352,198197,1,2,0:0:0:0:
421,84,198368,1,2,3:1:0:0:
261,249,198540,1,4,0:3:0:0:
469,252,198711,1,2,3:1:0:0:
282,50,198882,6,0,P|225:33|156:48,1,119.999996337891,2|4,0:0|3:0,0:0:0:0:
356,252,199225,2,0,P|371:194|351:119,1,119.999996337891,2|4,0:0|3:0,0:0:0:0:
124,113,199568,2,0,P|109:171|129:246,1,119.999996337891,2|4,0:0|3:0,0:0:0:0:
192,373,199911,1,2,0:0:0:0:
18,331,200082,1,2,3:1:0:0:
260,240,200254,6,0,L|253:112,1,119.999996337891,2|4,0:0|3:0,0:0:0:0:
326,332,200597,2,0,P|379:338|452:318,1,119.999996337891,2|4,0:0|3:0,0:0:0:0:
253,120,200940,1,2,0:0:0:0:
103,229,201111,1,2,3:1:0:0:
177,47,201282,1,4,0:3:0:0:
178,299,201454,1,2,0:0:0:0:
350,205,201625,6,0,P|450:219|522:157,1,179.999994506836,6|0,0:0|2:0,0:0:0:0:
512,64,201968,2,0,P|437:17|351:34,1,179.999994506836,6|0,0:0|2:0,0:0:0:0:
253,120,202311,1,6,0:0:0:0:
285,363,202654,5,2,0:0:0:0:
338,77,202825,1,2,0:0:0:0:
174,366,202997,5,6,0:0:0:0:
89,121,203168,1,4,3:0:0:0:
350,205,203340,1,2,0:0:0:0:
69,308,203511,1,4,3:0:0:0:
233,36,203683,1,2,0:0:0:0:
285,363,203854,1,2,3:1:0:0:
203,206,204026,1,4,0:1:0:0:
432,364,204197,1,2,3:1:0:0:
466,113,204368,6,0,P|411:78|326:81,1,139.999995727539,2|4,0:0|3:0,0:0:0:0:
222,241,204711,2,0,P|291:241|350:204,1,139.999995727539,2|4,0:0|3:0,0:0:0:0:
187,89,205054,2,0,P|123:57|53:57,1,139.999995727539,2|4,0:0|3:0,0:0:0:0:
69,308,205397,1,2,0:0:0:0:
292,82,205568,1,2,3:1:0:0:
396,359,205740,5,2,0:0:0:0:
420,149,205911,1,4,3:0:0:0:
208,288,206083,1,2,0:0:0:0:
488,318,206254,1,4,3:0:0:0:
292,82,206426,1,2,0:0:0:0:
282,364,206597,1,2,0:0:0:0:
211,192,206768,2,0,P|140:182|64:204,1,139.999995727539,4|2,0:3|3:1,0:0:0:0:
293,257,207111,6,0,P|364:267|440:245,1,139.999995727539,2|4,0:0|3:0,0:0:0:0:
216,105,207454,2,0,P|158:64|80:57,1,139.999995727539,2|4,0:0|3:0,0:0:0:0:
298,167,207797,2,0,P|367:158|423:114,1,139.999995727539,2|4,0:0|3:0,0:0:0:0:
281,25,208140,1,2,0:1:0:0:
179,277,208311,1,2,3:1:0:0:
418,240,208482,5,2,0:2:0:0:
353,362,208654,1,4,3:0:0:0:
389,96,208825,1,2,0:0:0:0:
486,154,208997,1,4,3:0:0:0:
298,167,209168,1,2,0:2:0:0:
281,25,209340,1,2,3:1:0:0:
389,96,209511,1,4,0:3:0:0:
172,90,209682,1,2,3:1:0:0:
179,277,209854,6,0,P|103:327|15:259,1,200,2|6,0:2|0:0,0:0:0:0:
298,167,210540,2,0,P|379:207|364:318,1,200,6|4,0:0|0:0,0:0:0:0:
210,173,211054,5,2,3:1:0:0:
256,192,211225,12,4,213968,0:0:0:0:
