osu file format v14

[General]
AudioFilename: BS.mp3
AudioLeadIn: 0
PreviewTime: 148136
Countdown: 0
SampleSet: Soft
StackLeniency: 0.3
Mode: 0
LetterboxInBreaks: 1
EpilepsyWarning: 1
WidescreenStoryboard: 1

[Editor]
Bookmarks: 54878,71336,93278,104250,126197,148136,170078,192025,213964
DistanceSpacing: 1.4
BeatDivisor: 4
GridSize: 4
TimelineZoom: 2

[Metadata]
Title:Bass Slut (Original Mix)
TitleUnicode:Bass Slut (Original Mix)
Artist:S3RL
ArtistUnicode:S3RL
Creator:Secretpipe
Version:Collab Hard
Source:
Tags:DJ Techno hands up party hardstyle Kawa Rizen grumd Irreversible Nube appleeaterx Tari Kyshiro Fort grumd phaZ
BeatmapID:827081
BeatmapSetID:375648

[Difficulty]
HPDrainRate:5
CircleSize:3.5
OverallDifficulty:6
ApproachRate:7.5
SliderMultiplier:1.4
SliderTickRate:1

[Events]
//Background and Video events
0,0,"c5739e66e7.jpg",0,0
//Break Periods
2,93482,103429
2,170111,180229
//Storyboard Layer 0 (Background)
//Storyboard Layer 1 (Fail)
//Storyboard Layer 2 (Pass)
//Storyboard Layer 3 (Foreground)
Sprite,Foreground,Centre,"sb/r.png",320,240 P,0,80940,81624,A T,HitSound,80897,80983 M,0,0,,357,241 C,0,0,,100,150,255 F,1,0,171,0,1 S,1,0,684,0.5,2 F,1,171,684,1,0
Sprite,Foreground,Centre,"sb/hl.png",320,240 P,0,80940,82308,A T,HitSound,80897,80983 M,0,0,,357,241 C,0,0,,100,150,255 F,1,0,171,0,1 S,2,0,1368,0.5,0 F,1,171,1368,1,0
Sprite,Foreground,Centre,"sb/r.png",320,240 P,0,81282,81966,A T,HitSound,81239,81325 M,0,0,,439,95 C,0,0,,100,150,255 F,1,0,171,0,1 S,1,0,684,0.5,2 F,1,171,684,1,0
Sprite,Foreground,Centre,"sb/hl.png",320,240 P,0,81282,82650,A T,HitSound,81239,81325 M,0,0,,439,95 C,0,0,,100,150,255 F,1,0,171,0,1 S,2,0,1368,0.5,0 F,1,171,1368,1,0
Sprite,Foreground,Centre,"sb/r.png",320,240 P,0,81625,82309,A T,HitSound,81582,81668 M,0,0,,534,233 C,0,0,,100,150,255 F,1,0,171,0,1 S,1,0,684,0.5,2 F,1,171,684,1,0
Sprite,Foreground,Centre,"sb/hl.png",320,240 P,0,81625,82993,A T,HitSound,81582,81668 M,0,0,,534,233 C,0,0,,100,150,255 F,1,0,171,0,1 S,2,0,1368,0.5,0 F,1,171,1368,1,0
Sprite,Foreground,Centre,"sb/r.png",320,240 P,0,81968,82652,A T,HitSound,81925,82011 M,0,0,,357,241 C,0,0,,100,150,255 F,1,0,171,0,1 S,1,0,684,0.5,2 F,1,171,684,1,0
Sprite,Foreground,Centre,"sb/hl.png",320,240 P,0,81968,83336,A T,HitSound,81925,82011 M,0,0,,357,241 C,0,0,,100,150,255 F,1,0,171,0,1 S,2,0,1368,0.5,0 F,1,171,1368,1,0
Sprite,Foreground,Centre,"sb/r.png",320,240 P,0,82140,82824,A T,HitSound,82097,82183 M,0,0,,357,241 C,0,0,,100,150,255 F,1,0,171,0,1 S,1,0,684,0.5,2 F,1,171,684,1,0
Sprite,Foreground,Centre,"sb/hl.png",320,240 P,0,82140,83508,A T,HitSound,82097,82183 M,0,0,,357,241 C,0,0,,100,150,255 F,1,0,171,0,1 S,2,0,1368,0.5,0 F,1,171,1368,1,0
Sprite,Foreground,Centre,"sb/cr.png",320,240 P,0,82311,83679,A T,HitSound,82268,82354 M,0,0,,357,241 S,0,0,,40 C,0,0,,100,180,255 F,1,0,171,0,1 R,1,0,1368,1.221111,2.791111 F,2,171,1026,1,0
Sprite,Foreground,Centre,"sb/r.png",320,240 P,0,157740,158424,A T,HitSound,157697,157783 M,0,0,,557,346 C,0,0,,100,150,255 F,1,0,171,0,1 S,1,0,684,0.5,2 F,1,171,684,1,0
Sprite,Foreground,Centre,"sb/hl.png",320,240 P,0,157740,159108,A T,HitSound,157697,157783 M,0,0,,557,346 C,0,0,,100,150,255 F,1,0,171,0,1 S,2,0,1368,0.5,0 F,1,171,1368,1,0
Sprite,Foreground,Centre,"sb/r.png",320,240 P,0,158082,158766,A T,HitSound,158039,158125 M,0,0,,488,238 C,0,0,,100,150,255 F,1,0,171,0,1 S,1,0,684,0.5,2 F,1,171,684,1,0
Sprite,Foreground,Centre,"sb/hl.png",320,240 P,0,158082,159450,A T,HitSound,158039,158125 M,0,0,,488,238 C,0,0,,100,150,255 F,1,0,171,0,1 S,2,0,1368,0.5,0 F,1,171,1368,1,0
Sprite,Foreground,Centre,"sb/r.png",320,240 P,0,158425,159109,A T,HitSound,158382,158468 M,0,0,,563,205 C,0,0,,100,150,255 F,1,0,171,0,1 S,1,0,684,0.5,2 F,1,171,684,1,0
Sprite,Foreground,Centre,"sb/hl.png",320,240 P,0,158425,159793,A T,HitSound,158382,158468 M,0,0,,563,205 C,0,0,,100,150,255 F,1,0,171,0,1 S,2,0,1368,0.5,0 F,1,171,1368,1,0
Sprite,Foreground,Centre,"sb/r.png",320,240 P,0,158768,159452,A T,HitSound,158725,158811 M,0,0,,571,135 C,0,0,,100,150,255 F,1,0,171,0,1 S,1,0,684,0.5,2 F,1,171,684,1,0
Sprite,Foreground,Centre,"sb/hl.png",320,240 P,0,158768,160136,A T,HitSound,158725,158811 M,0,0,,571,135 C,0,0,,100,150,255 F,1,0,171,0,1 S,2,0,1368,0.5,0 F,1,171,1368,1,0
Sprite,Foreground,Centre,"sb/r.png",320,240 P,0,158940,159624,A T,HitSound,158897,158983 M,0,0,,521,74 C,0,0,,100,150,255 F,1,0,171,0,1 S,1,0,684,0.5,2 F,1,171,684,1,0
Sprite,Foreground,Centre,"sb/hl.png",320,240 P,0,158940,160308,A T,HitSound,158897,158983 M,0,0,,521,74 C,0,0,,100,150,255 F,1,0,171,0,1 S,2,0,1368,0.5,0 F,1,171,1368,1,0
Sprite,Foreground,Centre,"sb/cr.png",320,240 P,0,159111,160479,A T,HitSound,159068,159154 M,0,0,,441,193 S,0,0,,40 C,0,0,,100,180,255 F,1,0,171,0,1 R,1,0,1368,3.611,5.181 F,2,171,1026,1,0
Sprite,Foreground,Centre,"sb/r.png",320,240 P,0,201625,202309,A T,HitSound,201582,201668 M,0,0,,489,367 C,0,0,,100,150,255 F,1,0,171,0,1 S,1,0,684,0.5,2 F,1,171,684,1,0
Sprite,Foreground,Centre,"sb/hl.png",320,240 P,0,201625,202993,A T,HitSound,201582,201668 M,0,0,,489,367 C,0,0,,100,150,255 F,1,0,171,0,1 S,2,0,1368,0.5,0 F,1,171,1368,1,0
Sprite,Foreground,Centre,"sb/r.png",320,240 P,0,201968,202652,A T,HitSound,201925,202011 M,0,0,,490,229 C,0,0,,100,150,255 F,1,0,171,0,1 S,1,0,684,0.5,2 F,1,171,684,1,0
Sprite,Foreground,Centre,"sb/hl.png",320,240 P,0,201968,203336,A T,HitSound,201925,202011 M,0,0,,490,229 C,0,0,,100,150,255 F,1,0,171,0,1 S,2,0,1368,0.5,0 F,1,171,1368,1,0
Sprite,Foreground,Centre,"sb/r.png",320,240 P,0,202311,202995,A T,HitSound,202268,202354 M,0,0,,489,367 C,0,0,,100,150,255 F,1,0,171,0,1 S,1,0,684,0.5,2 F,1,171,684,1,0
Sprite,Foreground,Centre,"sb/hl.png",320,240 P,0,202311,203679,A T,HitSound,202268,202354 M,0,0,,489,367 C,0,0,,100,150,255 F,1,0,171,0,1 S,2,0,1368,0.5,0 F,1,171,1368,1,0
Sprite,Foreground,Centre,"sb/r.png",320,240 P,0,202654,203338,A T,HitSound,202611,202697 M,0,0,,365,254 C,0,0,,100,150,255 F,1,0,171,0,1 S,1,0,684,0.5,2 F,1,171,684,1,0
Sprite,Foreground,Centre,"sb/hl.png",320,240 P,0,202654,204022,A T,HitSound,202611,202697 M,0,0,,365,254 C,0,0,,100,150,255 F,1,0,171,0,1 S,2,0,1368,0.5,0 F,1,171,1368,1,0
Sprite,Foreground,Centre,"sb/r.png",320,240 P,0,202825,203509,A T,HitSound,202782,202868 M,0,0,,365,254 C,0,0,,100,150,255 F,1,0,171,0,1 S,1,0,684,0.5,2 F,1,171,684,1,0
Sprite,Foreground,Centre,"sb/hl.png",320,240 P,0,202825,204193,A T,HitSound,202782,202868 M,0,0,,365,254 C,0,0,,100,150,255 F,1,0,171,0,1 S,2,0,1368,0.5,0 F,1,171,1368,1,0
Sprite,Foreground,Centre,"sb/cr.png",320,240 P,0,202997,204365,A T,HitSound,202954,203040 M,0,0,,365,254 S,0,0,,40 C,0,0,,100,180,255 F,1,0,171,0,1 R,1,0,1368,4.064556,5.634555 F,2,171,1026,1,0
//Storyboard Sound Samples

[TimingPoints]
32940,342.857142857143,4,2,99,40,1,0
32940,-125,4,2,99,40,0,0
33111,-125,4,2,1,40,0,0
43911,-100,4,1,99,60,0,0
43997,-100,4,1,1,60,0,0
54882,-100,4,1,99,60,0,0
55054,-100,4,1,2,60,0,0
63111,-100,4,1,99,40,0,0
63454,-100,4,1,0,40,0,0
65854,-100,4,1,0,60,0,0
69968,-100,4,1,0,30,0,0
70997,-100,4,2,5,80,0,0
71340,-100,4,1,99,60,0,1
71425,-100,4,1,3,60,0,1
80940,-100,4,1,0,80,0,0
81797,-100,4,1,3,80,0,0
81968,-100,4,1,3,80,0,0
82311,-100,4,1,99,60,0,1
82397,-100,4,1,4,60,0,1
91911,-100,4,1,4,20,0,1
93282,-100,4,1,99,60,0,0
104254,-166.666666666667,4,2,50,30,0,0
108025,-166.666666666667,4,2,50,20,0,0
114882,-100,4,1,50,60,0,0
115225,-133.333333333333,4,1,99,60,0,0
115568,-133.333333333333,4,2,50,20,0,0
115911,-133.333333333333,4,1,50,15,0,0
116082,-133.333333333333,4,1,50,20,0,0
116425,-133.333333333333,4,1,50,10,0,0
116597,-133.333333333333,4,1,50,20,0,0
116940,-133.333333333333,4,1,50,10,0,0
117111,-133.333333333333,4,2,50,20,0,0
117454,-133.333333333333,4,1,50,10,0,0
117625,-133.333333333333,4,1,50,20,0,0
118997,-133.333333333333,4,2,50,20,0,0
119682,-133.333333333333,4,1,50,20,0,0
120368,-133.333333333333,4,1,50,60,0,0
120540,-133.333333333333,4,2,50,20,0,0
121054,-133.333333333333,4,2,50,20,0,0
121397,-133.333333333333,4,1,50,15,0,0
121568,-133.333333333333,4,1,50,20,0,0
121911,-133.333333333333,4,1,50,10,0,0
122082,-133.333333333333,4,1,50,20,0,0
122425,-133.333333333333,4,1,50,10,0,0
122597,-133.333333333333,4,2,50,20,0,0
122940,-133.333333333333,4,1,50,10,0,0
123111,-133.333333333333,4,1,50,20,0,0
124825,-100,4,1,1,30,0,0
124911,-100,4,1,1,15,0,0
124954,-100,4,1,1,10,0,0
124997,-100,4,1,1,50,0,0
125082,-100,4,1,1,25,0,0
125125,-100,4,1,1,10,0,0
125168,-100,4,1,1,70,0,0
125254,-100,4,1,1,35,0,0
125297,-100,4,1,1,10,0,0
125340,-100,4,1,1,90,0,0
125425,-100,4,1,1,45,0,0
125468,-100,4,1,1,10,0,0
125511,-100,4,1,1,10,0,0
125854,-100,4,1,1,10,0,0
126197,-100,4,2,99,80,0,0
126368,-100,4,1,5,60,0,0
126540,-100,4,2,5,80,0,0
126711,-100,4,1,5,60,0,0
126882,-100,4,2,5,80,0,0
127740,-100,4,1,5,60,0,0
127911,-100,4,2,5,80,0,0
128082,-100,4,1,5,60,0,0
128254,-100,4,2,5,80,0,0
128425,-100,4,1,5,60,0,0
128597,-100,4,2,5,80,0,0
129111,-100,4,1,5,60,0,0
129282,-100,4,2,5,80,0,0
129454,-100,4,1,5,60,0,0
129625,-100,4,2,5,80,0,0
130482,-100,4,1,5,60,0,0
130654,-100,4,2,5,80,0,0
130825,-100,4,1,5,60,0,0
130997,-100,4,2,5,80,0,0
131168,-100,4,1,5,60,0,0
131340,-100,4,2,5,80,0,0
132197,-100,4,1,5,60,0,0
132368,-100,4,2,5,80,0,0
133225,-100,4,1,5,60,0,0
133397,-100,4,2,5,80,0,0
133568,-100,4,1,5,60,0,0
133740,-100,4,2,5,80,0,0
133911,-100,4,1,5,60,0,0
134082,-100,4,2,5,80,0,0
135454,-100,4,1,5,60,0,0
135625,-100,4,2,5,80,0,0
135968,-100,4,1,5,60,0,0
136140,-100,4,2,5,80,0,0
136311,-100,4,1,5,60,0,0
136482,-100,4,2,5,80,0,0
136654,-100,4,1,5,60,0,0
136825,-100,4,2,5,80,0,0
137168,-100,4,2,5,80,0,0
138197,-100,4,1,5,60,0,0
138368,-100,4,2,5,80,0,0
140940,-100,4,1,5,60,0,0
141111,-100,4,2,5,80,0,0
142654,-100,4,2,0,80,0,0
142825,-100,4,1,5,60,0,0
142997,-100,4,2,5,70,0,0
143168,-100,4,1,5,60,0,0
143340,-100,4,2,5,60,0,0
143682,-100,4,1,5,60,0,0
143854,-100,4,1,5,52,0,0
144368,-100,4,1,5,44,0,0
144711,-100,4,1,5,36,0,0
144882,-100,4,1,5,60,0,0
145054,-100,4,1,5,28,0,0
145397,-200,4,1,5,28,0,0
145740,-200,4,1,99,20,0,0
146082,-200,4,1,5,12,0,0
146425,-200,4,2,0,60,0,0
146768,-200,4,2,0,10,0,0
147797,-100,4,2,0,80,0,0
148140,-100,4,1,99,80,0,1
148311,-100,4,1,2,80,0,1
157740,-133.333333333333,4,1,0,80,0,0
158425,-200,4,1,0,80,0,0
159111,-100,4,1,99,80,0,1
159282,-100,4,1,6,80,0,1
170082,-100,4,1,5,80,0,0
180882,-100,4,2,1,60,0,0
186540,-100,4,2,1,60,0,0
189282,-100,4,2,5,60,0,0
190654,-100,4,2,5,60,0,0
191511,-100,4,1,5,80,0,0
192025,-100,4,1,99,80,0,0
192197,-100,4,1,5,80,0,0
201625,-100,4,1,0,80,0,0
202997,-100,4,1,99,80,0,1
203168,-100,4,1,6,80,0,1
209854,-100,4,1,1,60,0,1
211225,-100,4,1,1,55,0,1
212597,-100,4,1,1,50,0,1
213968,-100,4,1,99,50,0,0

[Colours]
Combo1 : 152,147,247
Combo2 : 5,141,207
Combo3 : 176,129,235
Combo4 : 75,123,250

[HitObjects]
452,104,32940,6,0,P|464:156|464:180,1,56,14|0,0:1|3:0,0:0:0:0:
396,216,33282,2,0,P|360:200|328:192,1,56,8|0,0:1|3:0,0:0:0:0:
288,264,33625,2,0,P|240:284|156:292,1,112,8|8,0:1|0:1,0:0:0:0:
100,248,34140,1,0,3:0:0:0:
184,168,34311,6,0,P|232:180|260:180,1,56,8|0,0:1|3:0,0:0:0:0:
288,108,34654,2,0,P|276:60|272:32,1,56,8|0,0:1|3:0,0:0:0:0:
357,11,34997,2,0,L|428:17,1,56,8|0,0:1|3:0,0:0:0:0:
480,79,35340,1,8,0:1:0:0:
448,164,35511,1,0,3:0:0:0:
477,253,35682,6,0,P|429:241|357:233,1,112,8|8,0:1|0:1,0:0:0:0:
296,291,36197,1,0,3:0:0:0:
231,227,36368,2,0,P|215:163|215:95,1,112,8|8,0:1|0:1,0:0:0:0:
244,33,36882,1,0,3:0:0:0:
132,60,37054,6,0,P|120:104|120:128,1,56,8|0,0:1|3:0,0:0:0:0:
119,201,37397,2,0,P|71:197|51:197,1,56,8|0,0:1|3:0,0:0:0:0:
19,275,37740,2,0,P|20:332|26:352,1,56,8|0,0:1|3:0,0:0:0:0:
107,361,38082,1,8,0:1:0:0:
175,300,38254,1,4,3:2:0:0:
272,356,38425,6,0,P|316:368|400:376,1,112,8|8,0:1|0:1,0:0:0:0:
452,176,39111,2,0,P|412:172|376:160,2,56,8|0|8,0:1|3:0|0:1,0:0:0:0:
432,88,39625,1,0,3:0:0:0:
344,96,39797,6,0,P|316:140|324:220,1,112,8|8,0:1|0:1,0:0:0:0:
384,256,40311,1,0,3:0:0:0:
324,320,40482,2,0,P|288:312|260:312,1,56,8|0,0:1|3:0,0:0:0:0:
176,316,40825,2,0,P|196:276|204:248,1,56,8|0,0:1|0:0,0:0:0:0:
144,196,41168,6,0,P|88:200|12:212,1,112,8|8,0:1|0:1,0:0:0:0:
144,68,41854,2,0,P|199:75|255:79,2,112,8|8|0,0:1|0:1|0:0,0:0:0:0:
144,68,43911,6,0,P|130:130|130:164,1,70,14|0,0:0|3:0,0:0:0:0:
203,201,44254,2,0,P|252:190|280:191,1,70,8|0,0:0|3:0,0:0:0:0:
348,250,44597,2,0,P|322:202|341:101,1,140,8|8,0:0|0:0,0:0:0:0:
411,173,45111,1,0,3:0:0:0:
469,251,45282,6,0,P|484:293|484:328,1,70,8|0,0:0|3:0,0:0:0:0:
389,342,45625,2,0,L|311:334,1,70,8|0,0:0|3:0,0:0:0:0:
261,259,45968,2,0,L|273:176,2,70,8|0|8,0:0|3:0|0:0,0:0:0:0:
220,348,46482,1,0,3:0:0:0:
159,270,46654,6,0,P|100:257|15:243,1,140,8|8,0:0|0:0,0:0:0:0:
3,147,47168,1,0,3:0:0:0:
88,98,47340,2,0,P|82:53|80:16,1,70,8|0,0:0|3:0,0:0:0:0:
191,68,47682,2,0,P|188:102|183:137,1,70,8|0,0:0|3:0,0:0:0:0:
244,214,48025,5,8,0:0:0:0:
244,214,48197,1,0,3:0:0:0:
319,152,48368,2,0,P|371:162|403:165,1,70,8|0,0:0|3:0,0:0:0:0:
426,73,48711,2,0,P|416:31|412:-5,2,70,8|0|8,0:0|3:0|0:0,0:0:0:0:
502,134,49225,1,4,3:2:0:0:
459,222,49397,6,0,P|472:293|471:365,1,140,8|8,0:0|0:0,0:0:0:0:
289,286,50082,2,0,P|251:277|205:278,2,70,8|0|8,0:0|3:0|0:0,0:0:0:0:
232,367,50597,1,0,3:0:0:0:
142,327,50768,6,0,P|134:264|140:165,1,140,8|8,0:0|0:0,0:0:0:0:
231,161,51282,1,0,3:0:0:0:
164,93,51454,2,0,P|116:98|76:92,1,70,8|0,0:0|3:0,0:0:0:0:
200,7,51797,2,0,P|234:5|269:9,1,70,8|0,0:0|0:0,0:0:0:0:
344,85,52140,6,0,P|403:121|486:88,1,140,8|8,0:0|0:0,0:0:0:0:
457,288,52825,2,0,P|399:250|333:265,1,140,8|8,0:0|0:0,0:0:0:0:
157,339,53511,5,8,0:0:0:0:
112,263,53682,1,0,3:0:0:0:
171,192,53854,2,0,P|179:143|173:101,1,70,8|0,0:0|3:0,0:0:0:0:
128,37,54197,2,0,P|183:73|274:37,1,140,8|6,0:0|2:0,0:0:0:0:
440,192,54882,6,0,L|402:186,2,35,14|0|0,0:1|0:0|3:0,0:0:0:0:
396,280,55225,2,0,B|292:296|292:296|328:304,2,140,8|8|8,0:0|0:0|0:0,0:0:0:0:
440,192,56082,1,0,3:0:0:0:
376,116,56254,6,0,L|364:28,1,70,8|0,0:0|3:0,0:0:0:0:
292,152,56597,2,0,L|280:64,1,70,8|0,0:0|3:0,0:0:0:0:
201,36,56940,2,0,P|165:28|129:36,1,70,8|0,0:0|3:0,0:0:0:0:
59,91,57282,1,8,0:0:0:0:
79,184,57454,1,0,3:0:0:0:
79,184,57625,6,0,L|69:253,1,70,8|0,0:0|3:0,0:0:0:0:
141,362,57968,2,0,L|151:291,1,70,8|0,0:0|3:0,0:0:0:0:
219,154,58311,2,0,L|209:223,1,70,8|0,0:0|3:0,0:0:0:0:
264,296,58654,2,0,L|333:305,1,70,8|0,0:0|3:0,0:0:0:0:
420,260,58997,5,8,0:0:0:0:
388,168,59168,1,0,3:0:0:0:
444,88,59340,1,8,0:0:0:0:
444,88,59511,1,0,3:0:0:0:
356,48,59682,2,0,L|364:11,2,35,8|0|0,0:0|0:0|3:0,0:0:0:0:
272,95,60025,1,8,0:0:0:0:
257,104,60368,6,0,L|169:88,1,70,8|0,0:0|3:0,0:0:0:0:
115,38,60711,1,8,0:0:0:0:
276,204,61054,6,0,L|188:188,1,70,8|0,0:0|3:0,0:0:0:0:
121,233,61397,1,8,0:0:0:0:
145,321,61568,1,0,3:0:0:0:
240,333,61740,2,0,P|273:322|309:320,1,70,8|0,0:0|3:0,0:0:0:0:
445,277,62082,2,0,P|410:274|377:263,1,70,8|0,0:0|3:0,0:0:0:0:
441,123,62425,2,0,L|457:271,1,140,8|8,0:0|0:0,0:0:0:0:
200,216,63111,6,0,L|184:76,1,140,6|0,1:0|0:0,0:0:0:0:
311,17,63797,2,0,L|326:156,1,140,0|0,0:0|0:0,0:0:0:0:
191,220,64482,2,0,L|175:80,1,140,0|0,0:0|0:0,0:0:0:0:
322,12,65168,2,0,L|337:151,1,140,0|0,0:0|0:0,0:0:0:0:
360,352,65854,6,0,P|399:349|429:336,1,70,10|0,0:3|0:0,0:0:0:0:
429,244,66197,2,0,P|454:217|467:186,1,70,10|0,0:3|0:0,0:0:0:0:
404,117,66540,2,0,P|403:78|392:45,1,70,10|0,0:3|0:0,0:0:0:0:
300,46,66883,2,0,P|270:20|237:7,1,70,10|0,0:3|0:0,0:0:0:0:
132,65,67225,6,0,L|40:69,1,70,10|0,0:3|0:0,0:0:0:0:
113,154,67568,2,0,L|21:158,1,70,10|0,0:3|0:0,0:0:0:0:
97,242,67911,2,0,L|5:246,1,70,10|0,0:3|0:0,0:0:0:0:
81,332,68254,2,0,L|-11:336,1,70,10|0,0:3|0:0,0:0:0:0:
167,363,68597,5,6,0:2:0:0:
246,318,68768,1,6,0:3:0:0:
201,238,68940,2,0,L|193:160,1,70,6|6,0:2|0:3,0:0:0:0:
355,121,69282,5,6,0:2:0:0:
434,166,69453,1,6,0:3:0:0:
389,246,69625,2,0,L|381:315,1,70,6|0,0:2|0:0,0:0:0:0:
256,192,69968,12,2,70997,0:0:0:0:
307,321,71340,6,0,L|388:318,1,70,14|4,0:0|3:1,0:0:0:0:
441,244,71682,2,2,P|446:213|428:161,1,70,14|4,0:0|3:1,0:0:0:0:
390,89,72025,2,0,L|475:85,2,70,12|4|14,0:1|3:1|0:0,0:0:0:0:
298,127,72540,1,4,3:1:0:0:
212,78,72711,1,12,0:0:0:0:
120,112,72882,1,4,3:1:0:0:
179,190,73054,6,0,L|167:258,2,70,12|6|12,0:0|3:1|0:0,0:0:0:0:
271,157,73568,2,0,L|265:123,2,35,4|4|14,3:1|2:1|0:0,0:0:0:0:
293,252,73911,1,4,3:1:0:0:
382,291,74082,6,0,L|387:344,2,35,12|4|4,0:0|2:1|3:1,0:0:0:0:
470,248,74425,2,2,L|476:178,1,70,14|4,0:0|3:1,0:0:0:0:
483,80,74768,2,0,P|452:69|408:67,1,70,12|4,0:0|3:1,0:0:0:0:
325,106,75111,2,2,P|292:117|257:119,1,70,14|4,0:0|3:1,0:0:0:0:
164,79,75454,5,12,0:0:0:0:
147,175,75625,1,4,3:1:0:0:
69,230,75797,2,0,L|9:229,2,35,12|4|6,0:0|2:1|3:1,0:0:0:0:
222,333,76140,1,12,0:0:0:0:
203,243,76311,1,4,3:1:0:0:
290,206,76482,2,0,L|369:219,1,70,14|4,0:0|3:2,0:0:0:0:
246,122,76825,6,0,L|241:79,2,35,12|4|4,0:0|2:1|3:1,0:0:0:0:
160,171,77168,2,2,P|122:170|88:157,1,70,14|4,0:0|3:1,0:0:0:0:
13,108,77511,1,12,0:0:0:0:
100,68,77682,1,4,3:1:0:0:
92,159,77854,2,0,L|82:241,1,70,14|4,0:0|3:1,0:0:0:0:
76,328,78197,5,12,0:0:0:0:
76,328,78368,1,4,3:1:0:0:
171,301,78540,2,0,L|179:244,2,35,12|4|6,0:0|2:1|3:1,0:0:0:0:
255,352,78882,1,12,0:0:0:0:
351,330,79054,1,4,3:1:0:0:
351,330,79139,1,4,2:1:0:0:
351,330,79225,1,14,0:0:0:0:
380,236,79397,1,4,3:1:0:0:
292,187,79568,6,0,L|248:195,3,35,12|4|4|4,0:0|2:1|3:1|2:1,0:0:0:0:
230,179,79911,2,0,P|199:173|160:177,1,70,14|4,0:0|3:1,0:0:0:0:
72,284,80254,2,0,L|116:276,3,35,12|4|4|4,0:0|2:1|3:1|2:1,0:0:0:0:
134,292,80597,2,0,P|165:298|204:294,1,70,14|4,0:0|3:1,0:0:0:0:
293,187,80940,6,2,P|279:138|291:97,1,70,6|0,0:0|0:0,0:0:0:0:
375,41,81282,2,2,P|426:49|457:77,1,70,6|0,0:0|0:0,0:0:0:0:
470,179,81625,2,2,P|437:222|405:233,1,70,14|4,0:0|3:1,0:0:0:0:
293,187,81968,1,14,0:0:0:0:
293,187,82140,1,6,0:0:0:0:
293,187,82311,6,0,L|204:180,1,70,14|4,0:0|3:1,0:0:0:0:
180,92,82654,2,0,L|269:85,1,70,14|4,0:0|3:1,0:0:0:0:
130,174,82997,2,0,L|61:180,1,70,12|4,0:0|3:1,0:0:0:0:
84,275,83340,2,0,L|154:281,1,70,14|4,0:0|3:1,0:0:0:0:
237,331,83682,5,12,0:0:0:0:
315,273,83853,1,4,3:1:0:0:
293,187,84025,1,12,0:0:0:0:
293,187,84110,1,4,2:1:0:0:
293,187,84196,2,0,L|196:197,1,70,6|12,3:1|0:0,0:0:0:0:
356,107,84540,2,4,L|393:110,2,35,4|4|14,3:1|2:1|0:0,0:0:0:0:
280,50,84882,1,4,3:1:0:0:
189,77,85054,6,0,L|153:74,2,35,12|4|4,0:0|2:1|3:1,0:0:0:0:
216,169,85397,2,2,P|182:184|146:190,1,70,14|4,0:0|3:1,0:0:0:0:
99,273,85740,2,0,P|131:284|166:286,1,70,12|4,0:0|3:1,0:0:0:0:
260,261,86083,2,2,L|276:334,1,70,14|4,0:0|3:1,0:0:0:0:
371,344,86425,1,12,0:0:0:0:
407,253,86596,1,4,3:1:0:0:
360,166,86768,6,0,L|308:159,2,35,12|4|6,0:0|2:1|3:1,0:0:0:0:
428,95,87111,1,12,0:0:0:0:
353,31,87282,1,4,3:1:0:0:
265,75,87454,2,2,P|237:95|200:105,1,70,14|4,0:0|3:2,0:0:0:0:
111,87,87797,6,0,L|114:9,1,70,12|4,0:0|3:1,0:0:0:0:
52,162,88140,2,2,L|55:240,1,70,14|4,0:0|3:1,0:0:0:0:
101,312,88482,2,0,P|65:322|18:322,2,70,12|4|14,0:0|3:1|0:0,0:0:0:0:
180,253,88997,1,4,3:1:0:0:
262,304,89168,5,12,0:0:0:0:
359,294,89340,1,4,3:1:0:0:
426,224,89511,2,0,L|434:138,2,70,12|6|12,0:0|3:1|0:0,0:0:0:0:
341,174,90025,2,0,L|334:107,2,35,4|4|14,3:1|2:1|0:0,0:0:0:0:
264,235,90368,1,4,3:1:0:0:
206,159,90540,6,0,L|202:124,3,35,12|4|4|4,0:0|2:1|3:1|2:1,0:0:0:0:
193,93,90882,2,0,P|159:91|104:102,1,70,14|4,0:0|3:1,0:0:0:0:
45,178,91225,2,0,L|41:212,3,35,12|4|4|4,0:0|2:1|3:1|2:1,0:0:0:0:
48,243,91568,2,0,P|82:247|117:245,1,70,14|4,0:0|3:1,0:0:0:0:
256,192,91911,12,6,93282,0:0:0:0:
206,329,104254,6,0,B|335:379|313:270|453:312,1,251.999992309571,0|0,0:0|0:0,0:0:0:0:
364,192,105625,2,0,B|234:141|256:250|117:209,1,251.999992309571,0|0,0:0|0:0,0:0:0:0:
32,87,106997,6,0,P|58:43|162:148,1,251.999992309571,0|0,0:0|0:0,0:0:0:0:
339,131,108368,2,0,P|384:29|480:87,1,251.999992309571,0|0,0:0|0:0,0:0:0:0:
439,262,109740,6,0,B|354:246|354:246|273:273|273:273|183:248,1,251.999992309571,0|4,0:0|0:0,0:0:0:0:
102,132,111111,2,0,B|187:116|187:116|268:143|268:143|358:118,1,251.999992309571,4|4,0:0|0:0,0:0:0:0:
420,15,112482,6,0,P|496:99|427:217,1,251.999992309571,4|4,0:0|0:0,0:0:0:0:
366,317,113854,2,0,P|290:233|359:115,1,251.999992309571,4|2,0:0|0:2,0:0:0:0:
490,218,115225,6,0,L|368:213,1,105.000004005432,4|0,0:0|0:0,0:0:0:0:
313,178,115740,1,10,0:0:0:0:
301,255,115911,2,0,L|311:313,1,52.5000020027161,0|0,0:0|0:0,0:0:0:0:
224,285,116254,2,0,L|216:338,1,52.5000020027161,10|0,0:2|0:0,0:0:0:0:
146,254,116597,6,0,P|71:261|18:268,1,105.000004005432,0|10,0:0|0:2,0:0:0:0:
4,182,117111,2,0,P|79:175|132:168,1,105.000004005432,4|0,0:0|0:0,0:0:0:0:
150,95,117625,2,0,L|141:55,3,26.2500010013581,0|0|0|0,0:0|0:0|0:0|0:0,0:0:0:0:
168,38,117968,6,0,P|214:30|239:31,1,52.5000020027161,10|0,0:2|0:0,0:0:0:0:
253,101,118311,2,0,P|282:119|299:134,1,52.5000020027161,10|10,0:2|0:2,0:0:0:0:
273,206,118654,2,0,P|275:247|272:266,1,52.5000020027161,0|0,0:0|0:0,0:0:0:0:
229,323,118997,2,0,P|275:338|338:306,1,105.000004005432,10|10,0:2|0:0,0:0:0:0:
428,201,119682,5,0,0:0:0:0:
357,165,119854,1,0,0:0:0:0:
400,99,120025,2,0,P|436:88|465:77,1,52.5000020027161,0|0,0:0|0:0,0:0:0:0:
335,49,120368,2,0,P|299:38|270:27,1,52.5000020027161,0|0,0:0|0:0,0:0:0:0:
228,88,120711,6,0,P|174:99|107:104,1,105.000004005432,10|0,0:2|0:0,0:0:0:0:
49,78,121225,1,14,0:2:0:0:
64,155,121397,2,0,P|48:206|48:214,1,52.5000020027161,4|0,0:2|0:0,0:0:0:0:
106,257,121740,2,0,P|145:248|181:244,1,52.5000020027161,10|4,0:2|0:2,0:0:0:0:
225,285,122082,6,0,L|211:160,1,105.000004005432,14|4,0:2|0:2,0:0:0:0:
287,99,122597,2,0,L|301:224,1,105.000004005432,10|0,0:2|0:0,0:0:0:0:
333,274,123111,2,0,L|328:314,3,26.2500010013581,0|0|0|0,0:0|0:0|0:0|0:0,0:0:0:0:
339,324,123454,6,0,P|396:332|439:303,1,105.000004005432,10|8,0:2|0:2,0:0:0:0:
465,238,123968,1,10,0:2:0:0:
431,169,124140,2,0,P|444:136|450:119,1,52.5000020027161,0|0,0:0|0:0,0:0:0:0:
385,76,124482,2,0,P|343:88|330:91,1,52.5000020027161,14|0,0:2|0:0,0:0:0:0:
256,192,124825,12,0,125854,0:0:0:0:
204,340,126197,6,2,L|124:336,1,70,6|0,3:1|0:0,1:2:0:0:
64,266,126540,6,2,L|68:186,1,70,10|0,0:0|0:0,1:2:0:0:
137,128,126882,1,10,0:0:0:0:
224,176,127054,2,2,P|292:180|344:109,1,140,2|2,0:2|0:2,1:2:0:0:
256,33,127568,6,2,L|261:116,1,70,10|0,0:0|0:0,1:2:0:0:
355,138,127911,2,2,L|350:68,1,70,10|0,0:0|0:0,1:2:0:0:
245,36,128254,6,2,L|250:119,1,70,10|0,0:0|0:0,1:2:0:0:
368,147,128597,2,2,L|363:77,1,70,10|2,0:0|0:0,1:2:0:0:
460,166,128940,6,2,P|444:202|415:230,1,70,10|0,0:0|0:0,1:2:0:0:
331,256,129282,2,2,P|295:241|244:238,1,70,10|0,0:0|0:0,1:2:0:0:
177,283,129625,1,10,0:0:0:0:
83,253,129797,2,2,L|67:89,1,140,2|2,0:0|0:0,1:2:0:0:
140,46,130311,6,2,B|173:62|173:62|208:68,1,70,10|0,0:0|0:0,1:2:0:0:
353,48,130654,2,2,B|320:32|320:32|285:26,1,70,10|0,0:0|0:0,1:2:0:0:
156,157,130997,6,2,B|189:173|189:173|224:179,1,70,10|0,0:0|0:0,1:2:0:0:
369,159,131340,2,2,B|336:143|336:143|301:137,1,70,10|2,0:0|0:0,1:2:0:0:
176,258,131682,6,2,P|173:329|226:387,1,140,10|10,0:0|0:0,1:2:0:0:
312,367,132197,1,0,0:0:0:0:
384,308,132368,1,10,0:0:0:0:
384,308,132540,2,2,B|368:260|368:260|392:156,1,140,2|2,0:0|0:0,1:2:0:0:
456,101,133054,6,2,P|427:80|390:73,1,70,10|0,0:0|0:0,1:2:0:0:
306,27,133397,2,2,P|265:35|223:69,1,70,10|0,0:0|0:0,1:2:0:0:
146,74,133740,2,2,P|125:103|118:162,1,70,10|0,0:0|0:0,1:2:0:0:
65,219,134083,2,2,P|76:267|107:301,1,70,10|2,0:0|0:0,1:2:0:0:
174,327,134425,5,10,0:0:0:0:
256,132,134768,1,10,0:0:0:0:
332,356,135111,1,10,0:0:0:0:
432,320,135282,2,2,L|276:340,1,140,2|2,0:0|0:0,1:2:0:0:
194,321,135797,6,2,B|164:303|164:303|127:297,1,70,10|0,0:0|0:0,1:2:0:0:
44,187,136140,2,2,B|74:205|74:205|111:211,1,70,10|0,0:0|0:0,1:2:0:0:
242,113,136482,2,2,B|207:118|207:118|177:136,1,70,10|0,0:0|0:0,1:2:0:0:
324,167,136825,2,2,B|358:161|358:161|388:143,1,70,10|2,0:0|0:0,1:2:0:0:
256,240,137168,5,6,3:2:0:0:
64,320,137511,1,6,3:2:0:0:
256,240,137854,1,6,3:2:0:0:
448,320,138197,1,4,1:2:0:0:
256,240,138540,5,6,3:2:0:0:
256,48,138882,1,6,3:2:0:0:
256,48,139225,1,6,3:2:0:0:
256,240,139567,1,6,3:2:0:0:
351,267,139740,1,2,0:0:0:0:
406,186,139911,6,2,P|409:118|344:67,2,140,6|6|6,3:2|3:2|3:2,1:2:0:0:
256,306,140940,1,4,1:2:0:0:
105,185,141282,2,2,P|102:118|151:70,2,140,6|6|6,3:2|3:2|3:2,1:2:0:0:
256,306,142311,1,6,3:2:0:0:
65,266,142654,6,0,P|30:261|-2:244,1,70,4|0,1:0|0:0,0:0:0:0:
65,171,142997,2,0,P|100:176|132:193,1,70,6|0,1:2|0:0,0:0:0:0:
210,134,143340,2,0,P|245:129|277:112,1,70,6|2,1:2|0:0,0:0:0:0:
210,39,143683,2,0,P|175:44|143:61,1,70,4|2,1:2|0:2,0:0:0:0:
210,134,144025,1,6,1:2:0:0:
178,320,144368,1,6,1:2:0:0:
352,239,144711,2,2,P|382:231|425:234,1,70,2|0,1:0|0:0,0:0:0:0:
395,328,145054,1,2,1:0:0:0:
489,350,145225,1,2,0:0:0:0:
395,328,145397,6,2,P|361:338|253:231,1,210,0|8,0:0|0:0,0:0:0:0:
200,71,146768,6,0,P|124:50|32:145,1,210,0|2,0:0|0:0,0:0:0:0:
136,155,148140,6,0,P|129:189|136:232,1,70,6|4,0:0|3:0,0:0:0:0:
225,260,148482,2,0,P|232:294|225:337,1,70,6|4,0:0|3:0,0:0:0:0:
141,368,148825,1,6,0:0:0:0:
323,354,148997,2,0,L|466:376,1,140,2|2,3:1|3:1,0:0:0:0:
502,225,149511,6,0,L|508:299,1,70,6|4,0:0|3:0,0:0:0:0:
412,271,149854,2,0,L|417:201,1,70,6|4,0:0|3:0,0:0:0:0:
320,160,150197,2,0,L|326:234,1,70,6|4,0:0|3:0,0:0:0:0:
335,321,150540,1,6,0:0:0:0:
231,212,150711,1,2,0:0:0:0:
193,301,150882,6,0,L|123:307,1,70,6|4,0:0|3:0,0:0:0:0:
32,276,151225,2,0,P|27:311|39:353,1,70,6|4,0:0|3:0,0:0:0:0:
108,217,151568,1,6,0:0:0:0:
182,159,151740,2,0,B|111:177|111:177|48:152,1,140,2|2,3:1|3:1,0:0:0:0:
75,57,152254,2,0,P|107:43|143:36,1,70,6|4,0:0|3:0,0:0:0:0:
231,76,152597,2,0,P|263:90|297:96,1,70,6|4,0:0|3:0,0:0:0:0:
389,61,152940,1,6,0:0:0:0:
298,237,153282,1,6,0:0:0:0:
393,262,153454,1,2,3:1:0:0:
479,216,153625,6,0,P|486:178|479:137,1,70,6|4,0:0|3:0,0:0:0:0:
393,262,153968,2,0,P|386:300|393:341,1,70,6|4,0:0|3:0,0:0:0:0:
482,347,154311,1,6,0:0:0:0:
301,345,154482,2,0,L|162:357,1,140,2|2,3:1|3:1,0:0:0:0:
87,289,154997,6,0,P|69:320|61:362,1,70,6|4,0:0|3:0,0:0:0:0:
33,214,155340,2,0,P|51:183|59:141,1,70,6|4,0:0|3:0,0:0:0:0:
150,124,155682,2,0,P|215:131|279:83,1,140,6|6,0:0|0:0,0:0:0:0:
193,36,156197,1,2,3:1:0:0:
139,215,156368,6,0,P|142:254|135:296,1,70,6|4,0:0|3:0,0:0:0:0:
251,318,156711,2,0,P|246:283|250:248,1,70,6|4,0:0|3:0,0:0:0:0:
173,369,157054,1,6,0:0:0:0:
267,328,157225,2,0,L|416:333,1,140,2|2,3:1|0:0,0:0:0:0:
493,292,157740,6,2,L|502:228,1,52.5000020027161,6|0,0:0|0:0,0:0:0:0:
424,184,158082,2,2,L|416:235,1,52.5000020027161,6|0,0:0|0:0,0:0:0:0:
499,151,158425,6,0,L|507:81,1,70,6|6,0:0|0:0,0:0:0:0:
457,20,158940,1,2,0:0:0:0:
377,139,159111,6,0,P|344:146|300:142,1,70,6|4,0:0|3:0,0:0:0:0:
216,108,159454,2,0,P|181:105|146:112,1,70,6|4,0:0|3:0,0:0:0:0:
59,157,159797,1,6,0:0:0:0:
123,232,159968,2,0,B|104:306|132:306|114:370,1,140,2|2,3:1|3:1,0:0:0:0:
36,299,160482,2,0,P|30:336|35:371,1,70,6|4,0:0|3:0,0:0:0:0:
198,363,160825,2,0,P|202:328|196:293,1,70,6|4,0:0|3:0,0:0:0:0:
267,225,161168,1,6,0:0:0:0:
346,288,161340,1,4,3:0:0:0:
346,288,161511,2,0,L|415:284,1,70,6|2,0:0|3:1,0:0:0:0:
326,150,161854,6,0,L|243:146,1,70,6|4,0:0|3:0,0:0:0:0:
326,68,162197,2,0,L|409:64,1,70,6|4,0:0|3:0,0:0:0:0:
488,32,162540,1,6,0:0:0:0:
503,128,162711,2,0,B|492:196|492:196|507:266,1,140,2|2,3:1|3:1,0:0:0:0:
407,300,163225,6,0,L|422:368,1,70,6|4,0:0|3:0,0:0:0:0:
320,300,163568,2,0,L|335:368,1,70,6|4,0:0|3:0,0:0:0:0:
233,300,163911,2,0,L|248:368,1,70,6|4,0:0|3:0,0:0:0:0:
146,300,164254,1,6,0:0:0:0:
119,216,164425,1,2,3:1:0:0:
47,263,164597,6,0,P|53:296|46:343,1,70,6|4,0:0|3:0,0:0:0:0:
119,216,164940,2,0,P|113:183|120:136,1,70,6|4,0:0|3:0,0:0:0:0:
191,85,165282,1,6,0:0:0:0:
284,112,165454,2,0,P|355:115|418:74,1,140,2|2,3:1|3:1,0:0:0:0:
473,146,165968,6,0,P|494:119|504:82,1,70,6|4,0:0|3:0,0:0:0:0:
394,192,166311,2,0,P|403:225|424:253,1,70,6|4,0:0|3:0,0:0:0:0:
481,361,166654,2,0,P|502:334|512:297,1,70,6|4,0:0|3:0,0:0:0:0:
424,253,166997,1,6,0:0:0:0:
348,309,167168,1,2,3:1:0:0:
348,309,167340,6,0,L|353:386,1,70,6|4,0:0|3:0,0:0:0:0:
260,279,167682,2,0,L|264:209,1,70,6|4,0:0|3:0,0:0:0:0:
354,181,168025,1,6,0:0:0:0:
284,118,168197,2,0,L|126:119,1,140,2|2,3:1|3:1,0:0:0:0:
52,85,168711,2,0,L|56:157,1,70,6|4,0:0|3:0,0:0:0:0:
91,244,169054,2,0,L|95:316,1,70,6|4,0:0|3:0,0:0:0:0:
191,342,169397,2,0,L|195:270,1,70,6|4,0:0|3:0,0:0:0:0:
170,178,169740,2,0,L|174:106,1,70,6|2,0:0|0:0,0:0:0:0:
191,196,181054,6,0,P|191:162|202:129,1,70,8|0,0:1|3:0,0:0:0:0:
287,89,181397,2,0,L|377:94,1,70,8|0,0:1|3:0,0:0:0:0:
434,145,181740,2,0,L|421:300,1,140,8|8,0:1|0:1,0:0:0:0:
364,356,182254,1,0,3:0:0:0:
312,278,182426,6,0,B|277:276|277:276|213:287,1,70,8|0,0:1|3:0,0:0:0:0:
200,197,182768,2,0,B|235:199|235:199|299:188,1,70,8|0,0:1|3:0,0:0:0:0:
343,139,183111,1,8,0:1:0:0:
297,62,183282,1,0,3:0:0:0:
385,41,183454,2,0,P|428:53|476:57,1,70,8|0,0:1|3:0,0:0:0:0:
461,150,183797,6,0,B|452:182|452:182|454:219,1,70,8|0,0:1|3:0,0:0:0:0:
373,275,184140,2,0,B|382:307|382:307|380:344,1,70,8|0,0:1|3:0,0:0:0:0:
288,374,184483,1,8,0:1:0:0:
251,286,184654,1,0,3:0:0:0:
158,313,184825,2,0,L|75:295,1,70,8|0,0:1|3:0,0:0:0:0:
237,194,185168,6,0,B|228:121,2,70,8|0|8,0:1|3:0|0:1,0:0:0:0:
146,225,185683,1,0,3:0:0:0:
98,141,185854,2,0,L|-2:144,1,70,8|0,0:1|3:0,0:0:0:0:
128,46,186197,2,0,L|228:49,1,70,8|4,0:1|3:2,0:0:0:0:
266,120,186540,5,10,0:0:0:0:
361,101,186711,1,0,0:0:0:0:
428,175,186882,2,0,P|432:209|427:244,1,70,10|0,0:0|3:0,0:0:0:0:
283,346,187225,1,10,0:2:0:0:
216,282,187397,1,2,3:2:0:0:
230,188,187568,2,0,P|263:179|298:177,1,70,8|2,0:1|3:2,0:0:0:0:
361,101,187911,6,0,P|396:99|433:87,2,70,10|0|10,0:2|3:0|0:2,0:0:0:0:
270,70,188426,1,0,0:0:0:0:
175,99,188597,2,0,P|159:131|152:167,1,70,10|0,0:0|0:0,0:0:0:0:
186,255,188940,2,0,L|190:339,1,70,10|0,0:0|0:0,0:0:0:0:
320,294,189283,6,0,P|385:316|454:305,2,140,10|10|10,0:0|0:0|0:0,0:0:0:0:
376,121,190311,1,10,0:0:0:0:
186,79,190654,6,0,P|148:76|91:53,2,70,0|0|0,0:0|0:0|0:0,0:0:0:0:
280,61,191168,1,0,0:0:0:0:
250,152,191340,1,0,0:0:0:0:
344,135,191511,2,0,P|382:138|439:161,2,70,2|2|2,0:1|0:1|0:2,0:0:0:0:
209,233,192025,6,0,L|203:315,1,70,6|4,0:0|3:0,0:0:0:0:
289,351,192368,2,0,P|325:345|358:346,1,70,2|4,0:0|3:0,0:0:0:0:
430,279,192711,1,2,0:0:0:0:
350,222,192882,1,2,3:1:0:0:
425,158,193054,2,0,P|432:100|429:71,1,70,4|2,0:3|3:1,0:0:0:0:
281,19,193397,6,0,P|278:56|283:101,1,70,2|4,0:0|3:0,0:0:0:0:
246,180,193740,2,0,P|210:167|158:162,1,70,2|4,0:0|3:0,0:0:0:0:
245,272,194082,2,0,P|283:266|314:251,1,70,2|0,0:0|3:0,0:0:0:0:
384,186,194425,1,2,0:0:0:0:
419,277,194597,1,2,3:1:0:0:
373,363,194768,6,0,L|303:358,1,70,2|4,0:0|3:0,0:0:0:0:
182,334,195111,2,0,P|161:297|159:258,1,70,2|4,0:0|3:0,0:0:0:0:
190,119,195454,1,2,0:0:0:0:
231,207,195625,1,2,3:1:0:0:
116,184,195797,2,0,L|29:190,1,70,4|2,0:3|3:1,0:0:0:0:
119,59,196140,6,0,P|178:27|244:45,2,140,2|2|2,0:0|0:0|0:0,0:0:0:0:
195,240,197168,1,2,0:0:0:0:
195,240,197340,1,2,3:1:0:0:
195,240,197511,6,0,B|206:278|206:278|200:308,1,70,2|4,0:0|3:0,0:0:0:0:
111,266,197854,2,0,B|105:235|105:235|116:197,1,70,2|4,0:0|3:0,0:0:0:0:
181,125,198197,1,2,0:0:0:0:
270,165,198368,1,2,3:1:0:0:
354,116,198540,2,0,L|430:110,1,70,4|2,0:3|3:1,0:0:0:0:
475,255,198882,6,0,P|436:252|406:241,1,70,2|4,0:0|3:0,0:0:0:0:
314,274,199225,2,0,P|273:268|223:275,1,70,2|4,0:0|3:0,0:0:0:0:
151,300,199568,2,0,L|138:377,1,70,2|4,0:0|3:0,0:0:0:0:
44,342,199911,1,2,0:0:0:0:
24,246,200082,1,2,3:1:0:0:
167,152,200254,6,0,P|172:103|165:59,1,70,2|4,0:0|3:0,0:0:0:0:
83,164,200597,2,0,P|97:200|126:227,1,70,2|4,0:0|3:0,0:0:0:0:
214,244,200940,1,2,0:0:0:0:
301,200,201111,1,2,3:1:0:0:
291,297,201282,2,0,L|283:376,1,70,4|2,0:3|0:0,0:0:0:0:
425,313,201625,6,0,B|439:258|439:258|426:175,2,140,6|6|6,0:0|0:0|0:0,0:0:0:0:
301,200,202654,1,2,0:0:0:0:
301,200,202825,1,2,0:0:0:0:
301,200,202997,6,0,L|203:196,1,70,6|4,0:0|3:0,0:0:0:0:
193,106,203340,2,0,L|262:103,1,70,2|4,0:0|3:0,0:0:0:0:
358,124,203682,1,2,0:0:0:0:
453,100,203854,1,2,3:1:0:0:
427,194,204025,2,0,L|421:289,1,70,4|2,0:1|3:1,0:0:0:0:
359,359,204368,6,0,B|325:354|325:354|290:360,1,70,2|4,0:0|3:0,0:0:0:0:
198,284,204711,2,0,B|233:290|233:290|268:284,1,70,2|4,0:0|3:0,0:0:0:0:
168,196,205054,2,0,P|135:216|116:242,1,70,2|4,0:0|3:0,0:0:0:0:
125,340,205397,1,2,0:0:0:0:
216,373,205568,1,2,3:1:0:0:
350,267,205740,6,0,L|355:172,1,70,2|4,0:0|3:0,0:0:0:0:
277,136,206082,2,0,L|269:42,1,70,2|4,0:0|3:0,0:0:0:0:
358,20,206425,1,2,0:0:0:0:
445,63,206597,1,2,0:0:0:0:
438,160,206768,2,0,L|447:243,1,70,4|2,0:3|3:1,0:0:0:0:
313,302,207111,6,0,B|261:315|261:315|172:297,2,140,2|2|2,0:0|0:0|0:0,0:0:0:0:
258,105,208140,1,2,0:1:0:0:
258,105,208311,1,2,3:1:0:0:
258,105,208482,6,0,P|212:103|168:110,1,70,2|4,0:2|3:0,0:0:0:0:
101,165,208825,2,0,P|112:198|130:227,1,70,2|4,0:0|3:0,0:0:0:0:
224,256,209168,1,2,0:2:0:0:
176,342,209340,1,2,3:1:0:0:
83,304,209511,2,0,L|-10:297,1,70,4|2,0:3|3:1,0:0:0:0:
270,336,209854,6,0,L|363:329,1,70,2|0,0:2|3:0,0:0:0:0:
394,240,210197,2,0,L|301:233,1,70,6|0,0:0|3:0,0:0:0:0:
257,153,210540,2,0,L|350:146,1,70,6|0,0:0|3:0,0:0:0:0:
412,101,210882,1,4,0:0:0:0:
345,28,211054,1,2,3:1:0:0:
251,56,211225,1,4,0:0:0:0:
256,192,211397,12,4,213968,0:0:0:0:
