osu file format v9

[General]
AudioFilename: S.S.H. - Touhou Judgment in the Sixtieth Year ~ Fate of Sixty Years.MP3
AudioLeadIn: 0
PreviewTime: 102012
Countdown: 0
SampleSet: Soft
StackLeniency: 0.7
Mode: 0
LetterboxInBreaks: 0

[Editor]
Bookmarks: 1190,40615,61421,63195,81905,102066,107227,117550,123356,125131,143840,164002,185131,205453,226260,247066,255937,278840,299969,320937
DistanceSpacing: 1.6
BeatDivisor: 2
GridSize: 8

[Metadata]
Title:Touhou Judgment in the Sixtieth Year ~ Fate of Sixty Years
Artist:S.S.H.
Creator:Dangaard
Version:Judgment
Source:Touhou
Tags:Saitama Saisyu Heiki ZUN Phantasmagoria of Flower View Shikieiki Yamaxanadu Gabi happy30 Alace Weinmagier

[Difficulty]
HPDrainRate:7
CircleSize:4
OverallDifficulty:8
ApproachRate:9
SliderMultiplier:1.918
SliderTickRate:1

[Events]
//Background and Video events
0,0,"BG1.jpg"
//Break Periods
2,61621,62595
2,66782,67756
2,123556,124531
2,247266,254208
//Storyboard Layer 0 (Background)
//Storyboard Layer 1 (Fail)
//Storyboard Layer 2 (Pass)
//Storyboard Layer 3 (Foreground)
//Storyboard Sound Samples
//Background Colour Transformations
3,100,0,0,0

[TimingPoints]
-610,1200,4,2,1,70,1,0
40615,322.58064516129,4,1,1,70,1,0
63195,-200,4,1,1,70,0,0
63840,-100,4,1,1,70,0,0
68679,-200,4,1,1,70,0,0
69002,-100,4,1,1,70,0,0
102550,-100,4,1,1,70,0,1
110292,-100,4,1,1,60,0,1
112227,-100,4,1,1,70,0,1
120534,-100,4,2,1,70,0,1
120695,-100,4,1,1,50,0,1
121018,-100,4,2,0,70,0,1
121179,-100,4,1,1,50,0,1
121502,-100,4,2,1,70,0,1
121663,-100,4,1,1,50,0,1
121985,-100,4,2,0,70,0,1
122147,-100,4,1,1,50,0,1
122469,-100,4,2,1,60,0,1
122631,-100,4,1,1,50,0,1
122792,-100,4,2,0,60,0,1
122953,-100,4,1,1,70,0,1
123356,-100,4,1,1,70,0,0
128598,-100,4,1,1,55,0,0
129647,-100,4,1,1,70,0,0
164485,-100,4,1,1,70,0,1
205776,-200,4,1,1,70,0,0
225776,-100,4,1,1,70,0,0
246502,-100,4,2,1,70,0,0
246905,-100,4,2,1,90,0,0
247227,-100,4,1,1,70,0,0
255776,-100,4,1,1,85,0,0
256260,-100,4,1,1,50,0,0
258518,-100,4,1,1,70,0,1
262388,-200,4,1,1,70,0,1
262711,-100,4,1,1,70,0,1
272711,-200,4,1,1,70,0,1
273034,-100,4,1,1,70,0,1
299969,-100,4,1,1,70,0,0
317953,-100,4,2,0,70,0,0
318114,-100,4,1,1,70,0,0
318437,-100,4,2,0,90,0,0
318598,-100,4,1,1,70,0,0
318921,-100,4,2,0,70,0,0
319082,-100,4,1,1,70,0,0
319405,-100,4,2,0,90,0,0
319566,-100,4,1,1,70,0,0
319889,-100,4,2,0,70,0,0
320050,-100,4,1,1,70,0,0
320211,-100,4,2,0,70,0,0
320373,-100,4,1,1,70,0,0

[Colours]
Combo1 : 196,196,219
Combo2 : 30,206,52
Combo3 : 69,69,228
Combo4 : 255,207,64

[HitObjects]
176,288,40615,6,0,L|96:341|-15:268,1,191.8,6|8
176,192,41260,1,0
256,240,41421,1,2
336,192,41582,1,8
496,288,41905,5,2
256,144,42227,1,8
256,144,42389,1,2
16,288,42711,1,0
16,288,42873,1,10
336,96,43195,6,0,L|416:43|527:116,1,191.8,2|8
336,192,43840,1,0
256,144,44002,1,2
176,192,44163,1,8
16,96,44485,5,2
256,240,44808,1,8
256,240,44969,1,2
496,96,45292,1,0
496,96,45453,1,10
96,96,45776,5,2
416,96,46098,1,8
176,240,46421,1,0
256,192,46582,1,2
336,144,46744,1,8
496,336,47066,6,0,L|325:233,1,191.8,2|8
16,48,47550,2,0,L|187:151,1,191.8,2|0
256,192,48034,1,10
96,288,48356,5,2
416,288,48679,1,8
176,144,49002,1,0
256,192,49163,1,2
336,240,49324,1,8
496,48,49647,6,0,L|325:151,1,191.8,2|8
16,336,50131,2,0,L|187:233,1,191.8,2|0
256,192,50615,1,10
432,272,50937,6,0,L|485:192|412:81,1,191.8,6|8
80,112,51582,1,0
32,192,51744,1,2
80,272,51905,1,8
256,192,52227,5,2
384,352,52550,2,0,L|336:368|288:352,1,95.9,8|2
128,32,53034,2,0,L|176:16|224:32,1,95.9,0|10
80,272,53518,6,0,L|27:192|100:81,1,191.8,2|8
432,112,54163,1,0
480,192,54324,1,2
432,272,54485,1,8
256,192,54808,5,2
128,352,55131,2,0,L|176:368|224:352,1,95.9,8|2
384,32,55615,2,0,L|336:16|288:32,1,95.9,0|10
336,288,56098,6,0,L|256:235|145:308,1,191.8,2|8
32,48,56744,1,0
80,128,56905,1,2
128,208,57066,1,8
432,288,57389,5,2
256,48,57711,1,8
256,48,57873,1,2
80,288,58195,1,0
80,288,58356,1,10
400,80,58679,6,0,L|229:183,1,191.8,10|0
112,112,59163,2,0,L|283:215,1,191.8,10|0
400,144,59647,2,0,L|229:247,1,191.8,10|0
112,176,60131,2,0,L|283:279,1,191.8,10|0
256,144,60615,6,0,L|256:48,2,95.9,10|0|10
256,144,61098,1,0
256,240,61260,1,8
256,240,61421,1,8
320,240,63195,5,0
320,240,63276,1,0
320,240,63356,2,0,B|288:240|288:240|256:256|256:256|224:256,1,95.9,4|0
400,144,63840,6,0,B|400:176|400:176|432:208|432:208|432:240,1,95.9,6|2
432,320,64163,1,8
288,64,64324,2,0,B|288:96|288:96|320:128|320:128|320:160,1,95.9,2|0
320,240,64647,1,0
224,320,64808,2,0,B|224:288|224:288|192:256|192:256|192:224,1,95.9,10|8
112,288,65131,5,2
112,288,65292,1,2
432,224,65615,1,2
336,128,65776,2,0,B|336:240,1,95.9,0|0
336,240,66018,1,0
336,256,66098,1,10
432,224,66260,1,10
240,112,66421,6,0,B|224:96|224:96|224:32|224:32|240:16,1,95.9
304,192,68356,5,8
304,192,68518,1,0
304,192,68598,1,0
304,192,68679,2,0,B|320:208|320:208|320:272|320:272|304:288,1,95.9,4|2
240,336,69163,5,2
160,272,69324,2,0,B|160:240|160:240|144:208|144:208|144:176,1,95.9,8|2
144,179,69808,1,0
288,16,69969,2,0,B|288:48|288:48|304:80|304:80|304:112,1,95.9,10|0
240,224,70292,5,2
240,224,70453,2,0,B|240:192|240:192|224:160|224:160|224:128,1,95.9,2|8
384,160,70776,2,0,B|384:192|384:192|400:224|400:224|400:256,1,95.9,2|0
336,320,71098,1,0
320,336,71179,1,0
304,352,71260,1,8
199,345,71421,5,0
215,329,71502,1,0
231,313,71582,2,0,B|247:297|247:297|247:233|247:233|231:217,1,95.9,4|0
80,112,71905,2,0,B|64:128|64:128|64:192|64:192|80:208,1,95.9,10|10
144,256,72227,1,0
144,256,72389,1,0
272,64,72550,2,0,B|384:64,1,95.9,10|10
176,160,72873,6,0,B|288:160,1,95.9
271,160,73195,1,10
464,240,73356,2,0,B|336:240,1,95.9,2|0
368,240,73679,1,0
176,320,73840,2,0,B|288:320,1,95.9,10|10
48,160,74163,6,0,B|48:192|48:192|64:224|64:224|64:256,1,95.9,6|2
64,252,74485,1,8
128,16,74647,2,0,B|128:48|128:48|144:80|144:80|144:112,1,95.9,2|0
144,208,74969,1,0
272,352,75131,2,0,B|272:320|272:320|256:288|256:288|256:256,1,95.9,10|2
256,160,75453,5,2
256,160,75615,2,0,B|272:144|272:144|336:144|336:144|352:160,1,95.9,2|8
480,320,75937,2,0,B|464:336|464:336|400:336|400:336|384:320,1,95.9,2|0
336,256,76260,1,0
336,256,76340,1,0
336,256,76421,1,10
416,208,76582,5,0
416,208,76663,1,0
416,208,76744,2,0,B|528:208,1,95.9,8|0
336,256,77066,2,0,B|448:256,1,95.9,10|2
224,208,77389,2,0,B|336:208,1,95.9,0|0
144,256,77711,2,0,B|256:256,1,95.9,10|10
400,336,78034,6,0,B|272:336,1,95.9,8|0
288,336,78276,1,0
272,336,78356,1,10
176,336,78518,1,10
176,336,78679,1,0
288,16,79002,1,10
464,224,79324,6,0,B|432:256|432:256|368:256,1,95.9,6|2
304,192,79647,1,8
304,192,79808,2,0,B|252:192|252:192|220:224,1,95.9,2|0
220,224,80131,1,0
176,144,80292,1,10
304,352,80615,5,6
352,272,80776,2,0,B|403:272|403:272|435:304,1,95.9,2|8
304,352,81098,2,0,B|240:352|240:352|192:304|192:304|128:304,1,191.8,2|0
130,304,81502,1,0
130,304,81582,1,8
112,192,81905,5,0
256,64,82227,1,8
400,192,82550,2,0,B|400:256|336:256,2,95.9,0|0|8
256,64,83195,6,0,B|128:64|128:192,2,191.8,0|8|0
256,64,84002,1,0
256,64,84163,1,8
256,256,84485,6,0,B|384:256|384:128,1,191.8,0|8
384,144,85131,1,0
384,48,85292,2,0,L|256:48,1,95.9,0|8
48,48,85776,5,0
48,48,85937,1,0
192,48,86098,2,0,B|256:48|256:112,1,95.9,8|0
192,224,86421,1,0
192,224,86582,1,0
48,224,86744,2,0,B|48:288|112:304,1,95.9,8|0
336,336,87066,6,0,B|464:336|464:208,1,191.8,0|8
288,128,87711,2,0,B|224:128|224:192,2,95.9,0|0|8
336,336,88356,6,0,B|464:336|464:208,2,191.8,0|8|0
240,336,89163,2,0,L|128:336,1,95.9,0|8
32,176,89647,6,0,B|32:48|160:48,1,191.8,0|8
288,160,90292,2,0,B|288:288|160:288,1,191.8,0|8
32,176,90937,6,0,B|32:80|128:80,1,143.85
116,80,91260,1,8
208,80,91421,1,0
304,80,91582,1,0
304,80,91663,2,0,B|400:80|400:176,1,143.85,0|8
400,256,92066,1,0
320,304,92227,6,0,B|240:384|144:304,1,191.8,0|8
144,80,92873,2,0,B|224:0|320:80,1,191.8,0|8
400,128,93356,1,0
64,320,93679,5,0
64,224,93840,1,8
448,64,94163,1,8
448,160,94324,1,0
256,336,94647,5,0
256,336,94808,2,0,B|128:336|128:208,1,191.8,0|8
128,32,95453,1,0
320,32,95776,2,0,B|384:32|384:96,1,95.9,8|0
384,288,96260,2,0,B|384:352|320:352,2,95.9,0|8|0
224,64,97066,6,0,L|112:64,1,95.9,8|0
80,192,97389,2,0,B|80:320|208:320,2,191.8,0|8|0
128,64,98195,1,0
288,64,98356,6,0,L|400:64,1,95.9,8|0
432,192,98679,2,0,B|432:320|304:320,2,191.8,0|8|0
384,64,99485,1,0
256,128,99647,6,0,L|256:240,1,95.9,8|0
256,224,99969,1,4
256,224,100453,1,4
112,32,100776,5,0
48,160,100937,1,8
400,320,101260,5,8
464,192,101421,1,0
256,176,101744,5,4
256,176,102066,5,0
256,176,102227,1,8
48,32,102550,2,0,L|160:32,1,95.9,2|0
208,96,102873,2,2,L|320:96,1,95.9,10|0
464,176,103195,2,2,L|272:176,1,191.8,2|10
48,256,103679,2,0,L|240:256,1,191.8,2|2
288,336,104163,6,2,L|368:256,1,95.9,10|0
448,304,104485,2,2,B|464:192|368:112,1,191.8,2|10
304,176,104969,1,2
240,240,105131,6,0,L|160:320,1,95.9,2|0
32,320,105453,2,0,L|112:240,1,95.9,10|0
32,192,105776,2,2,B|96:112|208:112,1,191.8,2|10
312,112,106260,2,2,B|416:112|480:192,1,191.8,2|2
464,272,106744,5,10
384,336,106905,1,0
304,272,107066,1,2
208,336,107227,1,0
128,272,107389,1,10
48,336,107550,1,0
48,192,107711,6,0,L|48:-16,1,191.8,2|10
256,144,108356,1,2
256,48,108518,1,2
464,192,108840,2,0,L|464:-16,1,191.8,2|2
400,96,109324,5,10
352,192,109485,1,0
304,288,109647,1,2
208,288,109808,1,0
160,192,109969,1,10
112,96,110131,1,2
400,144,110453,5,2
304,144,110614,1,2
112,240,110937,1,2
208,240,111098,1,2
448,320,111421,5,2
352,320,111582,1,2
64,64,111905,1,2
160,64,112066,1,2
400,256,112389,5,2
448,176,112550,1,2
432,160,112631,1,0
416,144,112711,1,0
400,128,112792,1,0
384,112,112873,6,0,L|480:112,1,95.9,2|0
416,32,113195,2,2,L|304:32,1,95.9,10|0
208,144,113518,2,2,L|0:144,1,191.8,2|10
144,304,114002,2,0,L|384:304,1,191.8,2|2
272,224,114485,6,2,L|368:192,1,95.9,10|0
448,224,114808,2,2,B|448:112|336:80,1,191.8,2|10
256,144,115292,1,2
176,80,115453,6,0,L|96:0,1,95.9,2|0
80,96,115776,2,0,L|160:176,1,95.9,10|0
48,224,116098,2,2,B|96:320|208:320,1,191.8,2|10
310,319,116582,2,2,B|416:319|464:224,1,191.8,2|2
464,128,117066,5,10
384,192,117227,1,0
304,128,117389,1,2
208,192,117550,1,0
128,128,117711,1,10
48,192,117873,1,0
32,352,118034,6,0,L|240:352,1,191.8,2|10
304,192,118679,1,2
208,192,118840,1,2
480,32,119163,2,0,L|272:32,1,191.8,2|2
192,32,119647,5,10
256,96,119808,1,0
192,160,119969,1,2
128,96,120131,1,0
64,32,120292,1,10
0,96,120453,1,2
64,160,120614,5,4
128,224,120776,2,0,L|128:320,1,95.9
176,112,121098,1,4
240,176,121260,2,0,L|240:272,1,95.9
336,192,121582,5,4
400,256,121744,2,0,L|400:352,1,95.9
448,144,122066,1,4
512,208,122227,2,0,L|512:304,1,95.9
400,256,122550,5,4
336,192,122711,1,0
272,128,122873,1,4
256,128,122953,1,0
240,128,123034,1,0
224,128,123114,1,0
208,128,123195,1,0
112,128,123356,1,0
208,256,125131,5,8
208,256,125211,1,8
208,256,125292,2,0,L|256:176|256:64,1,191.8,8|4
328,48,125776,1,4
384,192,126098,1,8
328,336,126421,1,2
248,336,126582,1,2
168,336,126744,1,8
112,280,126905,1,2
56,224,127066,5,0
56,224,127389,1,8
56,224,127711,2,0,L|96:128,1,95.9,2|2
200,64,128034,2,0,L|160:160,1,95.9,8|2
163,152,128356,5,4
163,152,128518,1,4
200,224,128679,6,0,L|168:288,2,63.9333333333333
256,280,129002,2,0,L|256:352,2,63.9333333333333
312,224,129324,2,0,L|344:288,2,63.9333333333333
384,192,129647,5,0
256,32,129969,1,0
128,192,130292,1,0
256,352,130614,1,0
256,352,130937,5,4
472,280,131260,1,8
472,280,131582,2,0,B|440:232|480:184,1,95.9,2|2
400,72,131905,2,0,B|432:120|392:168,1,95.9,8|2
472,280,132227,5,0
256,208,132550,1,8
256,208,132873,2,0,B|288:160|248:112,1,95.9,2|2
328,0,133195,2,0,B|296:48|336:96,1,95.9,8|2
256,208,133518,6,0,L|376:208|448:168,1,191.8,4|8
488,112,134002,1,2
488,112,134082,1,0
488,112,134163,1,0
416,88,134324,1,2
344,112,134485,1,8
272,88,134647,1,2
200,112,134808,2,0,L|80:112|8:152,1,191.8,0|8
72,208,135292,1,2
16,264,135453,1,0
72,320,135614,1,2
16,376,135776,1,10
128,144,136098,5,4
208,344,136421,1,8
128,144,136744,1,2
184,208,136905,1,2
240,144,137066,1,8
296,208,137227,1,2
352,144,137389,5,0
208,344,137711,1,8
352,144,138034,1,2
296,208,138195,1,2
240,144,138356,1,8
184,208,138518,1,2
128,144,138679,6,0,L|88:248|16:296,1,191.8,4|8
88,344,139163,1,2
88,344,139244,1,0
88,344,139324,1,0
168,304,139485,1,2
256,304,139647,1,8
168,304,139808,1,2
256,304,139969,2,0,L|296:200|368:152,1,191.8,0|8
440,192,140453,1,2
360,152,140614,1,2
360,152,140937,1,10
128,176,141260,6,0,B|48:104,1,95.9,4|2
184,88,141582,2,0,B|264:160,1,95.9,8|2
328,296,141905,2,0,B|248:224,1,95.9,2|0
384,208,142227,2,0,B|464:280,1,95.9,10|2
384,208,142550,5,2
288,160,142711,1,0
240,272,142873,1,2
211,270,142953,1,0
182,263,143034,1,0
155,251,143114,1,0
130,236,143195,1,2
108,216,143276,1,0
93,191,143356,1,0
82,164,143437,1,0
77,135,143518,1,6
72,40,143679,1,4
184,104,143840,6,0,B|264:32|368:72,1,191.8,6|8
248,176,144324,2,0,B|288:136|344:144,1,95.9,2|0
296,296,144647,2,0,B|304:240|360:216,2,95.9,0|10|2
200,288,145131,6,0,B|120:360|16:320,1,191.8,2|8
136,216,145614,2,0,B|96:256|40:248,1,95.9,2|0
88,96,145937,2,0,B|80:152|24:176,2,95.9,0|10|2
192,192,146421,5,0
256,256,146744,1,8
320,192,147066,1,0
256,128,147389,1,8
48,312,147711,5,2
144,304,147873,1,2
240,328,148034,1,8
384,208,148356,1,2
296,176,148518,1,2
224,112,148679,1,8
192,24,148840,1,10
72,136,149002,6,0,B|192:168|224:256,1,191.8,6|8
152,288,149485,1,2
176,360,149647,1,0
256,360,149808,1,2
288,288,149969,1,8
220,246,150131,1,2
88,216,150292,6,0,B|212:216|265:139,1,191.8,0|8
204,89,150776,1,2
246,26,150937,1,0
323,47,151098,1,2
335,125,151260,1,8
260,147,151421,1,2
160,208,151582,5,6
208,264,151744,1,2
216,336,151905,1,8
352,176,152227,1,2
304,120,152389,1,2
296,48,152550,1,8
296,48,152873,6,0,B|176:88,1,95.9,4|2
352,176,153195,2,0,B|312:272,1,95.9,8|2
160,208,153518,2,0,B|200:112,1,95.9,0|2
216,336,153840,2,0,B|336:296,1,95.9,8|2
216,336,154163,5,2
216,336,154485,1,2
216,336,154808,1,2
216,336,155131,1,0
128,296,155292,1,2
296,48,155615,1,2
384,88,155776,1,2
216,336,156098,1,0
240,240,156260,1,2
272,144,156421,1,8
296,48,156582,1,2
384,88,156744,5,2
384,88,157066,1,2
384,88,157389,1,2
384,88,157711,1,0
296,48,157873,2,0,B|184:32|136:128,1,191.8,2|2
56,152,158356,1,8
128,200,158518,1,2
208,168,158679,1,2
208,168,159002,5,8
208,168,159163,1,8
208,168,159324,2,0,B|312:144|384:224,1,191.8,2|8
472,168,159808,1,2
480,272,159969,1,0
384,320,160131,1,2
288,280,160292,1,8
288,176,160453,1,2
384,320,160615,6,0,B|280:344|208:264,1,191.8,2|8
120,320,161098,1,2
112,216,161260,1,0
208,168,161421,1,2
304,208,161582,1,8
304,312,161744,1,2
408,272,161905,5,4
344,128,162227,1,0
264,96,162389,1,4
208,264,162711,1,0
160,192,162873,1,4
40,352,163195,1,0
40,264,163356,1,4
40,56,163679,1,4
40,56,164002,5,0
40,56,164163,1,8
464,208,164485,2,0,B|464:230|452:309|339:377|282:298,2,191.8,2|8|2
416,48,165453,5,10
416,144,165615,1,0
80,336,165937,1,2
80,240,166098,1,8
256,192,166421,1,6
128,80,166744,6,0,B|48:80|48:0,2,95.9,8|0|2
128,80,167389,2,0,B|144:64|208:16|336:48|320:144,1,191.8,8|2
448,288,168034,5,10
304,288,168195,2,0,B|288:304|224:352|96:320|112:224,1,191.8,6|0
64,112,168679,2,0,B|176:48,1,95.9,10|10
148,64,169002,1,0
288,64,169163,2,0,B|400:128,1,95.9,0|10
372,111,169485,1,10
304,288,169647,6,0,B|288:304|224:352|96:320|112:224,1,191.8,2|8
128,80,170292,1,2
208,32,170453,1,2
208,128,170615,1,8
288,80,170776,2,0,B|304:64|368:16|496:48|480:144,1,191.8,4|2
464,80,171260,1,10
464,272,171582,5,2
464,272,171744,1,2
288,272,171905,1,8
288,272,172066,1,2
112,192,172389,5,2
176,64,172550,2,0,B|192:80|256:128|384:96|368:0,1,191.8,10|2
432,112,173034,2,0,B|416:128|368:192|400:320|496:304,1,191.8,2|2
352,320,173518,2,0,B|336:304|272:256|144:288|160:384,1,191.8,2|2
80,288,174002,2,0,B|96:272|144:208|112:80|16:96,1,191.8,2|2
160,64,174485,5,0
192,48,174566,1,0
224,64,174647,1,0
304,112,174808,2,0,B|288:128|240:192|272:320|368:304,2,191.8,2|8|2
64,144,175776,5,10
64,240,175937,1,0
448,240,176260,1,2
448,144,176421,1,8
256,192,176744,1,6
400,96,177066,6,0,B|431:22|504:53,2,95.9,8|0|2
224,288,177711,2,0,B|208:304|144:352|16:320|32:224,1,191.8,8|2
48,96,178356,5,10
48,96,178518,2,0,B|64:80|128:32|256:64|240:160,1,191.8,2|0
368,224,179002,2,0,B|256:288,1,95.9,10|10
285,271,179324,1,0
144,272,179485,2,0,B|32:208,1,95.9,0|10
61,224,179808,1,10
48,80,179969,6,0,B|64:64|128:16|256:48|240:144,1,191.8,14|8
448,240,180615,1,2
464,272,180695,1,0
448,304,180776,1,2
352,336,180937,1,0
352,336,181098,2,0,B|336:320|288:256|320:128|416:144,1,191.8,12|0
352,160,181582,1,2
80,64,181905,5,2
96,96,181985,1,0
80,128,182066,1,2
48,224,182227,2,8,B|16:272|80:336,1,95.9,2|10
448,320,182711,6,0,B|352:240,1,95.9,2|2
64,64,183195,2,0,B|160:144,1,95.9,2|2
448,64,183679,6,0,B|352:144,1,95.9,2|2
64,320,184163,2,0,B|160:240,1,95.9,2|2
256,112,184647,5,2
256,192,184808,1,0
184,192,185131,6,0,L|104:160,2,63.9333333333333
192,224,185453,2,0,L|112:240,2,63.9333333333333,8|0|0
208,256,185776,6,0,L|144:312,2,63.9333333333333
240,272,186098,2,0,L|216:336,2,63.9333333333333,8|0|0
272,272,186421,6,0,L|294:331,2,63.9333333333333
304,256,186744,2,0,L|352:298,2,63.9333333333333,8|0|0
320,224,187066,6,0,L|382:236,2,63.9333333333333
328,192,187389,2,0,L|387:168,2,63.9333333333333,8|0|0
296,160,187711,6,2,B|304:88|352:40|432:48,1,191.8,2|10
448,184,188195,2,2,B|424:288|328:328,1,191.8
180,326,188679,2,2,B|88:288|64:184,1,191.8,10|2
87,47,189163,2,2,B|160:40|208:88|216:160,1,191.8
256,288,189647,5,0
280,280,189727,1,0
304,272,189808,1,0
328,264,189889,1,0
352,256,189969,1,8
376,248,190050,1,0
400,240,190131,1,0
424,232,190211,1,0
448,224,190292,6,0,L|448:32,1,191.8,0|8
312,152,190937,2,0,L|312:56,1,95.9,0|0
312,56,191421,1,0
200,248,191744,2,0,L|200:152,1,95.9,0|8
200,152,192227,1,0
136,320,192550,1,8
48,288,192711,5,0
48,288,192792,1,0
48,288,192873,1,0
8,200,193034,1,0
8,200,193115,1,0
8,200,193195,1,8
56,120,193356,1,0
56,120,193437,1,0
56,120,193518,1,0
136,72,193679,1,0
160,72,193760,1,0
184,72,193840,1,8
208,72,193921,1,0
232,72,194002,1,0
256,72,194082,1,0
280,72,194163,6,0,L|472:72,1,191.8,0|8
352,152,194647,1,0
328,152,194727,1,0
304,152,194808,1,0
280,152,194889,1,0
256,152,194969,1,0
232,152,195050,1,0
208,152,195131,1,8
184,152,195211,1,0
160,152,195292,1,0
64,192,195453,5,2
56,216,195534,1,0
48,240,195615,1,0
40,264,195695,1,0
32,288,195776,1,10
160,344,195937,5,2
152,320,196018,1,0
144,296,196098,1,0
136,272,196179,1,0
128,248,196260,1,2
256,192,196421,5,10
248,216,196502,1,0
240,240,196582,1,0
232,264,196663,1,0
224,288,196744,1,2
352,344,196905,5,2
344,320,196985,1,0
336,296,197066,1,8
328,272,197147,1,0
320,248,197227,1,2
448,192,197389,5,2
440,216,197469,1,0
432,240,197550,1,0
424,264,197631,1,0
416,288,197711,1,10
240,288,197873,5,0
240,288,197953,1,0
240,288,198034,1,2
144,272,198195,1,0
144,272,198276,1,0
144,272,198356,1,10
88,192,198518,1,0
88,192,198598,1,0
88,192,198679,1,2
184,192,198840,1,0
208,192,198921,1,0
232,192,199002,1,10
256,192,199082,1,0
280,192,199163,1,0
304,192,199244,1,0
328,192,199324,1,2
424,192,199485,5,0
424,192,199566,1,0
424,192,199647,1,10
368,112,199808,1,0
368,112,199889,1,0
368,112,199969,1,2
272,96,200131,1,0
248,96,200211,1,0
224,96,200292,1,10
200,96,200373,1,0
176,96,200453,1,0
152,96,200534,1,0
128,96,200615,6,0,B|72:96,4,47.95,0|0|0|0|10
48,216,201098,6,0,B|112:184,4,47.95,0|0|0|0|2
152,312,201582,6,0,B|136:376,4,47.95,8|0|0|0|2
240,200,202066,6,0,B|208:136,4,47.95,0|0|8|0|2
288,336,202550,6,0,B|352:352,4,47.95,0|0|0|0|10
400,304,203034,5,0
424,296,203115,1,0
448,288,203195,1,0
472,280,203276,1,0
496,272,203356,1,2
312,192,203518,5,8
336,200,203598,1,0
360,208,203679,1,0
384,216,203760,1,0
408,224,203840,1,2
488,112,204002,5,0
464,120,204082,1,0
440,128,204163,1,8
416,136,204244,1,0
392,144,204324,1,2
256,144,204485,6,2,B|256:32,1,95.9
256,192,204727,8,4,205776
112,320,207066,5,4
112,320,207711,1,0
176,256,208034,5,0
176,256,208356,2,0,B|176:96,1,143.85,4|0
176,112,209002,1,4
256,176,209217,1,0
320,96,209432,1,0
240,32,209647,6,0,B|240:256,1,191.8,4|0
240,223,210615,1,0
368,352,210776,5,0
368,352,210937,2,0,B|368:304|368:304|336:256|336:256|336:208,1,143.85,4|0
448,192,211582,2,0,B|448:288,2,71.925
384,96,212227,2,0,B|384:-16,2,95.9,4|0|0
384,96,213518,5,4
160,336,214808,6,0,B|160:272|160:272|208:224|208:224|208:160,1,191.8,4|2
320,112,215668,1,2
304,240,215883,1,2
416,256,216098,6,0,B|464:208|464:208|464:144|464:144|416:96,1,191.8,4|8
352,160,216905,1,0
352,160,217066,1,0
96,32,217389,6,0,B|48:80|48:80|48:144|48:144|96:192,1,191.8,4|8
160,128,218195,1,0
160,128,218356,1,0
224,192,218518,5,0
224,192,218679,2,0,B|176:224|176:224|176:304|176:304|128:336,1,191.8,4|8
320,352,219647,1,0
320,352,219808,1,0
352,112,220131,5,0
432,176,220292,1,2
336,208,220453,1,0
352,304,220615,1,10
272,272,220776,1,0
224,352,220937,1,2
176,272,221098,1,2
96,320,221260,6,0,B|64:288|64:288|64:224|64:224|32:192,1,143.85,4|0
96,128,221905,1,8
96,128,222066,1,0
208,272,222389,1,0
288,96,222711,5,0
384,96,222873,2,0,B|448:96,2,47.95,8|0|0
368,192,223356,1,0
448,256,223518,1,0
432,272,223598,1,0
416,288,223679,1,0
400,304,223760,1,0
384,320,223840,6,0,B|304:320,1,63.9333333333333,14|8
256,256,224270,1,2
128,192,224485,2,0,B|208:192,1,63.9333333333333,14|8
256,128,224916,1,2
384,64,225131,6,0,B|304:64,1,63.9333333333333,14|8
256,0,225561,1,2
256,0,225776,1,10
256,128,225937,1,0
256,128,226018,1,0
256,128,226098,2,0,B|256:240,1,95.9
192,272,226421,6,0,L|112:325|1:252,1,191.8,6|10
112,144,226905,1,0
152,208,227066,2,0,L|112:234|63:203,1,95.9,0|2
176,96,227389,6,0,L|256:43|367:116,2,191.8,8|2|10
256,224,228195,1,0
296,160,228356,2,0,L|256:134|207:165,1,95.9,0|2
320,272,228679,6,0,L|400:325|511:252,2,191.8,8|2|8
400,144,229485,1,2
440,208,229647,2,0,L|400:234|351:203,1,95.9,0|0
400,144,229969,1,10
400,144,230292,6,0,L|307:82,1,95.9,2|0
320,90,230615,1,8
320,90,230776,1,2
112,144,231098,2,0,L|205:82,1,95.9,0|10
192,90,231421,1,8
336,192,231582,6,0,L|256:245|145:172,1,191.8,6|8
112,336,232066,1,2
224,320,232227,2,0,L|131:258,1,95.9,0|2
208,120,232550,2,0,L|115:58,1,95.9,8|2
176,192,232873,6,0,L|256:245|367:172,1,191.8,2|8
400,336,233356,1,2
288,320,233518,2,0,L|381:258,1,95.9,0|2
304,120,233840,2,0,L|397:58,1,95.9,8|2
128,128,234163,6,0,L|221:190,1,95.9,2|0
384,176,234485,2,0,L|291:238,1,95.9,8|2
64,224,234808,2,0,L|157:286,1,95.9,2|0
448,272,235131,2,0,L|355:334,1,95.9,8|2
272,368,235453,6,0,L|272:320|304:288|304:224,1,143.85,2|0
304,240,235776,1,8
304,144,235937,1,2
240,16,236098,5,0
240,16,236179,2,0,L|240:64|208:96|208:160,1,143.85,0|10
208,240,236582,1,8
48,192,236744,5,6
256,352,237066,1,10
464,192,237389,1,2
256,32,237711,1,8
256,32,237873,6,0,C|256:256,1,191.8,2|0
256,224,238356,1,10
416,320,238679,1,0
336,272,238840,2,0,C|336:144,2,95.9,2|8|0
464,192,239324,5,2
256,352,239647,1,10
48,192,239969,1,2
256,32,240292,1,8
256,32,240453,6,0,C|256:256,1,191.8,2|0
176,272,240937,2,0,C|176:144,2,95.9,10|0|0
352,176,241421,6,0,L|411:276,1,95.9,2|8
352,336,241744,1,2
256,352,241905,6,2,C|256:144,1,191.8,6|8
256,64,242389,1,2
256,64,242550,1,0
160,176,242711,6,0,L|101:276,1,95.9,2|8
160,336,243034,1,2
256,352,243195,6,2,C|256:144,1,191.8,6|8
256,64,243679,1,2
256,64,243840,1,0
352,176,244002,6,0,L|411:276,1,95.9,2|8
352,336,244324,1,2
256,352,244485,6,0,C|256:256,1,95.9,6|0
48,192,244969,1,2
256,32,245292,1,0
256,32,245453,1,2
464,192,245776,1,6
464,192,245937,1,0
256,352,246260,1,4
256,192,246582,5,2
256,192,246744,1,2
256,192,247066,5,4
256,192,254808,12,4,255937
256,288,256098,1,0
256,88,257227,5,0
256,184,257389,1,4
256,184,258195,1,0
344,144,258356,1,10
424,208,258518,6,0,B|424:272|424:272|376:320|376:320|376:384,1,191.8,4|2
272,208,259001,6,0,B|272:320,1,95.9,8|0
448,112,259324,1,2
464,16,259485,1,0
368,0,259647,1,8
352,96,259808,6,0,B|288:96|288:96|240:144|240:144|160:144,1,191.8,2|2
304,320,260292,2,0,B|304:208,1,95.9,10|0
144,16,260614,2,0,B|144:128,1,95.9,2|0
144,208,260937,1,8
80,288,261098,1,0
32,64,261259,6,0,B|64:112|64:112|224:112,1,191.8,6|10
256,192,261743,1,0
480,320,261905,2,0,B|448:272|448:272|288:272,1,191.8,2|10
208,352,262388,6,2,B|256:384|304:352,1,95.9,2|2
96,192,262872,5,8
32,272,263034,1,8
112,336,263195,1,2
176,256,263356,2,0,B|64:256,1,95.9,0|14
208,352,263679,1,10
320,256,263840,6,0,B|320:192|320:192|352:144|352:144|352:64,1,191.8,4|10
464,160,264324,1,0
400,288,264485,2,0,B|400:400,1,95.9,0|2
400,383,264808,1,8
208,160,264969,2,0,B|208:224|208:224|176:272|176:272|176:352,1,191.8,2|2
320,208,265453,6,0,B|320:96,1,95.9,10|0
128,16,265776,2,0,B|128:128,1,95.9,2|0
192,336,266098,1,10
256,256,266259,1,0
256,160,266421,5,4
168,200,266582,2,0,B|56:200,1,95.9,8|14
496,304,267066,2,0,B|384:304,1,95.9,10|8
336,224,267388,1,0
512,144,267550,2,0,B|400:144,1,95.9,10|14
336,224,267872,5,0
112,48,268034,2,0,B|240:48,1,95.9,10|0
400,48,268356,2,0,B|272:48,1,95.9,10|0
96,64,268679,2,8,B|224:64,1,95.9,10|10
416,160,269001,6,0,B|416:224|416:224|464:272|464:272|464:336,1,191.8,4|10
336,224,269485,2,0,B|224:224,1,95.9,0|2
48,304,269808,1,2
128,352,269969,1,8
128,256,270130,6,0,B|80:224|80:224|80:144|80:144|128:112,1,191.8,2|2
224,224,270614,2,0,B|224:352,1,95.9,10|0
385,190,270937,2,0,B|432:160|432:160|432:80|432:80|384:48,1,191.8,2|8
288,80,271421,6,0,B|288:208,1,95.9,2|4
448,352,271743,1,0
448,352,271905,2,0,B|448:240,1,95.9,10|0
208,160,272227,2,0,B|208:224|208:224|160:272|160:272|160:336,1,191.8,2|10
320,240,272711,6,2,B|352:192|320:144,1,95.9
128,48,273195,5,8
48,128,273356,1,8
48,240,273517,1,6
128,320,273679,1,0
240,304,273840,2,0,B|240:192,1,95.9,10|10
96,80,274163,6,0,B|96:192,1,95.9,4|0
96,175,274485,1,10
288,272,274647,2,0,B|288:160,1,95.9,0|2
288,176,274969,1,0
192,240,275130,1,8
384,368,275292,6,0,B|384:256,1,95.9,2|0
192,40,275614,1,0
192,40,275695,1,0
192,40,275776,2,2,B|192:136,1,95.9,10|0
288,272,276098,2,2,B|288:176,1,95.9,2|0
192,288,276421,2,0,B|192:384,1,95.9,10|2
400,264,276743,5,4
400,264,276905,2,0,L|339:358,1,95.9,10|0
112,168,277227,1,0
112,168,277388,2,0,L|173:262,1,95.9,14|0
400,64,277711,5,4
400,64,277872,1,8
400,64,278034,2,0,L|339:158,1,95.9,10|0
176,16,278356,5,4
176,16,278517,2,0,L|237:110,1,95.9,10|0
256,352,278840,5,0
256,352,279001,2,0,L|195:258,1,95.9,8|0
64,352,279324,2,0,L|11:272|84:161,1,191.8,6|8
160,192,279808,5,0
112,272,279969,2,0,L|173:366,2,95.9,2|0|8
208,112,280453,6,0,L|261:192|188:303,1,191.8,2|0
112,112,280937,2,0,L|51:18,1,95.9,10|0
59,31,281259,1,2
400,352,281582,5,8
400,352,281743,1,0
400,352,281905,2,0,L|459:252,1,95.9,2|0
352,32,282227,2,0,L|411:132,1,95.9,10|0
304,352,282550,2,0,L|363:252,1,95.9,2|0
256,32,282872,5,8
256,32,283034,2,2,L|153:203,1,191.8,2|0
64,32,283517,2,0,L|90:72|59:121,1,95.9,10|0
256,272,283840,2,0,L|230:232|261:183,1,95.9,2|0
448,32,284163,2,0,L|422:72|453:121,1,95.9,10|8
256,272,284485,6,0,L|464:272,1,191.8,2|8
448,272,284969,1,0
352,160,285130,2,0,L|291:66,2,95.9,2|0|8
352,160,285614,1,2
107,352,285937,5,0
107,352,286017,1,0
107,352,286098,2,0,L|168:258,1,95.9,10|0
404,80,286421,2,0,L|343:174,1,95.9,2|0
352,160,286743,1,8
160,272,286905,6,0,L|368:272,1,191.8,2|2
464,112,287388,2,0,L|411:192|484:303,1,191.8,8|2
352,112,287872,2,0,L|128:112,1,191.8,8|0
160,112,288356,1,2
352,112,288517,5,0
352,112,288679,2,0,L|411:12,1,95.9,10|0
416,224,289001,2,0,L|475:324,1,95.9,2|0
288,224,289324,2,0,L|160:224,1,95.9,10|8
448,32,289647,6,0,L|501:112|428:223,1,191.8,6|8
352,192,290130,1,0
400,112,290292,2,0,L|339:18,2,95.9,2|0|8
304,272,290776,6,0,L|251:192|324:81,1,191.8,2|0
400,272,291259,2,0,L|461:366,1,95.9,10|0
453,353,291582,1,2
112,32,291905,5,8
112,32,292066,1,0
112,32,292227,2,0,L|53:132,1,95.9,2|0
160,352,292550,2,0,L|101:252,1,95.9,10|0
208,32,292872,2,0,L|149:132,1,95.9,2|0
256,352,293195,5,8
256,352,293356,2,2,L|359:181,1,191.8,2|0
448,352,293840,2,0,L|422:312|453:263,1,95.9,10|0
256,112,294163,2,0,L|282:152|251:201,1,95.9,2|0
64,352,294485,2,0,L|90:312|59:263,1,95.9,10|8
256,112,294808,6,0,L|48:112,1,191.8,2|8
64,112,295292,1,0
160,224,295453,2,0,L|221:318,2,95.9,2|0|8
160,224,295937,1,2
405,32,296259,5,0
405,32,296340,1,0
405,32,296421,2,0,L|344:126,1,95.9,10|0
108,304,296743,2,0,L|169:210,1,95.9,2|0
160,224,297065,1,8
160,224,297227,1,2
448,304,297550,5,2
416,288,297711,1,8
64,80,298034,1,2
96,96,298195,1,8
432,64,298517,5,0
416,96,298679,1,10
80,320,299001,1,0
96,288,299163,1,10
256,192,299485,5,2
256,192,299647,1,8
64,32,299969,6,0,B|272:32,1,191.8,0|8
416,120,300614,2,0,B|288:120,1,95.9
192,120,300937,1,8
96,192,301098,2,0,B|208:192,1,95.9
320,192,301421,1,0
416,264,301582,2,0,B|304:264,1,95.9,8|0
192,264,301905,1,0
96,344,302066,2,0,B|-16:344,2,95.9,0|8|0
256,344,302550,6,0,B|480:344,1,191.8,0|8
472,128,303195,2,0,B|472:8,1,95.9
400,128,303517,1,8
328,264,303679,2,0,B|328:376,1,95.9
256,264,304001,1,0
184,120,304163,2,0,B|184:16,1,95.9,8|0
112,120,304485,1,0
40,256,304647,2,0,B|40:360,2,95.9,0|8|0
112,120,305130,6,0,B|192:200,2,95.9,0|0|8
200,48,305614,1,0
312,48,305776,1,0
400,120,305937,2,0,B|328:192,1,95.9,0|8
416,264,306259,1,0
416,376,306421,2,0,B|304:376,1,95.9
256,296,306743,1,8
96,376,306905,2,0,B|192:376,1,95.9
320,376,307227,2,0,B|416:376,2,95.9,0|8|0
256,296,307711,6,0,B|256:96,1,191.8,0|8
152,152,308195,2,0,B|72:72,2,95.9
256,104,308679,2,0,B|256:-16,2,95.9,8|0|0
360,152,309163,2,0,B|440:72,2,95.9,0|8|0
256,200,309647,5,0
256,224,309727,1,0
256,248,309808,1,0
256,272,309888,1,0
256,296,309969,1,0
352,232,310130,1,0
416,320,310292,5,0
328,376,310453,1,0
256,296,310614,1,8
184,376,310776,1,0
96,320,310937,1,0
160,232,311098,1,0
104,128,311259,1,8
40,48,311421,1,0
104,128,311582,5,0
176,56,311743,1,0
256,128,311905,1,8
336,56,312066,1,0
408,128,312227,1,0
328,208,312388,1,0
403,286,312550,1,8
478,212,312711,1,0
403,286,312872,5,0
328,211,313034,1,0
256,288,313195,1,8
181,213,313356,1,0
106,287,313517,1,0
31,212,313679,1,0
105,137,313840,1,8
179,62,314001,1,0
104,136,314163,5,0
192,192,314324,1,0
112,264,314485,1,8
200,320,314647,1,0
312,320,314808,1,0
400,264,314969,1,0
320,192,315130,1,8
408,136,315292,1,0
320,192,315453,5,0
256,272,315614,1,0
192,192,315776,1,8
96,144,315937,1,0
176,80,316098,1,0
256,8,316259,1,0
336,80,316421,1,8
416,144,316582,1,0
336,80,316743,5,0
296,176,316905,1,0
376,240,317066,1,8
312,320,317227,1,0
200,320,317388,5,0
136,240,317550,1,0
216,176,317711,1,8
176,80,317872,1,0
80,232,318034,6,0,B|80:360,1,95.9,4|0
16,168,318356,1,0
168,184,318517,2,0,B|168:312,1,95.9,4|0
104,120,318840,1,0
312,272,319001,6,0,B|312:400,1,95.9,4|0
248,208,319324,1,0
400,232,319485,2,0,B|400:360,1,95.9,4|0
336,168,319808,1,0
144,288,319969,6,4,B|144:168,1,95.9,4|0
368,96,320292,2,4,B|368:192,1,95.9,4|0
256,240,320614,6,0,B|256:120,2,95.9,0|0|4
