osu file format v14

[General]
AudioFilename: 13 - Providence.mp3
AudioLeadIn: 0
PreviewTime: 84250
Countdown: 0
SampleSet: Normal
StackLeniency: 0.7
Mode: 0
LetterboxInBreaks: 1
EpilepsyWarning: 1
WidescreenStoryboard: 0

[Editor]
Bookmarks: 19750,31800,34800,46800,70800,96300,109050,123300,138300
DistanceSpacing: 1.4
BeatDivisor: 4
GridSize: 4
TimelineZoom: 2

[Metadata]
Title:Providence
TitleUnicode:Providence
Artist:S.S.H.
ArtistUnicode:S.S.H.
Creator:[_ NORTOR _]
Version:eXceed
Source:eXceed3rd-JADE PENETRATE-BLACK PACKAGE
Tags:ssh speedcore tennen-sozai loli boss game Remedy STG NORTOR Video Game LonelyLost CaracalCaptain
BeatmapID:654924
BeatmapSetID:289590

[Difficulty]
HPDrainRate:6
CircleSize:4
OverallDifficulty:8
ApproachRate:9.7
SliderMultiplier:1.6
SliderTickRate:2

[Events]
//Background and Video events
0,0,"babg.jpg",0,0
//Break Periods
//Storyboard Layer 0 (Background)
//Storyboard Layer 1 (Fail)
//Storyboard Layer 2 (Pass)
//Storyboard Layer 3 (Foreground)
//Storyboard Sound Samples

[TimingPoints]
350,187.5,4,1,1,20,1,0
537,-100,4,1,1,27,0,0
725,-100,4,1,1,34,0,0
912,-100,4,1,1,41,0,0
1100,-100,4,1,1,48,0,0
1287,-100,4,1,1,55,0,0
1475,-100,4,1,1,62,0,0
1662,-100,4,1,1,69,0,0
1850,-100,4,1,1,63,0,1
1896,-100,4,1,1,63,0,0
7662,-100,4,1,1,30,0,0
7709,-100,4,1,1,63,0,0
7850,-133.333333333333,4,1,1,63,0,0
13850,-100,4,1,1,63,0,1
13896,-100,4,1,1,63,0,0
18350,-100,4,2,0,63,0,0
19006,-100,4,2,0,5,0,0
19100,-100,4,1,1,63,0,0
19850,-100,4,1,1,63,0,1
24350,-100,4,1,2,63,0,1
25475,-100,4,1,1,63,0,0
25756,-100,4,1,1,30,0,0
25850,-100,4,1,1,63,0,1
30350,-100,4,1,2,63,0,1
31475,-100,4,1,2,63,0,0
35037,-100,4,1,1,63,0,0
36912,-100,4,1,1,30,0,0
37287,-100,4,1,1,63,0,0
42912,-100,4,1,1,30,0,0
43287,-100,4,1,1,63,0,0
46850,-100,4,1,1,50,0,1
49850,-100,4,1,3,63,0,0
52850,-100,4,1,1,50,0,1
55850,-100,4,1,3,63,0,0
57350,-100,4,1,1,30,0,0
58100,-100,4,1,1,63,0,0
58850,-100,4,1,1,50,0,1
61100,-100,4,1,1,63,0,1
61850,-100,4,1,3,63,0,0
63975,-100,4,1,1,20,0,0
64037,-100,4,1,1,40,0,0
64100,-100,4,1,1,63,0,0
64850,-100,4,1,1,50,0,1
67850,-100,4,1,3,63,0,1
69350,-100,4,1,1,63,0,0
70850,-100,4,1,1,63,0,1
70896,-100,4,1,1,50,0,0
76850,-200,4,1,1,50,0,0
81350,-100,4,1,1,50,0,0
84350,-66.6666666666667,4,1,1,70,0,1
85287,-100,4,1,1,70,0,1
85662,-66.6666666666667,4,1,1,70,0,1
86787,-100,4,1,1,70,0,1
87162,-66.6666666666667,4,1,1,70,0,1
88287,-100,4,1,1,70,0,1
88662,-66.6666666666667,4,1,2,70,0,1
89600,-66.6666666666667,4,1,1,70,0,1
92506,-66.6666666666667,4,1,2,70,0,1
93162,-66.6666666666667,4,1,1,70,0,1
95600,-66.6666666666667,4,1,1,60,0,1
95787,-66.6666666666667,4,1,1,70,0,1
96303,-66.6666666666667,4,1,1,70,0,0
96350,-66.6666666666667,4,1,1,70,0,1
97287,-100,4,1,1,70,0,1
97662,-66.6666666666667,4,1,1,70,0,1
98787,-100,4,1,1,70,0,1
99162,-66.6666666666667,4,1,1,70,0,1
100287,-100,4,1,1,70,0,1
100662,-66.6666666666667,4,1,2,70,0,1
101600,-66.6666666666667,4,1,1,70,0,1
104506,-66.6666666666667,4,1,2,70,0,1
105162,-66.6666666666667,4,1,1,70,0,1
108912,-100,4,1,1,63,0,0
111350,-125,4,1,3,63,0,0
112475,-125,4,1,4,63,0,0
112521,-125,4,1,3,63,0,0
115475,-125,4,1,4,63,0,0
115568,-125,4,1,3,63,0,0
118475,-125,4,1,4,63,0,0
118568,-125,4,1,3,63,0,0
121475,-125,4,1,4,63,0,0
121568,-125,4,1,3,63,0,0
123256,-125,4,2,0,5,0,0
123303,-125,4,1,3,63,0,0
123725,-125,4,1,4,63,0,0
123818,-125,4,1,3,63,0,0
124475,-125,4,1,4,63,0,0
124568,-125,4,1,3,63,0,0
125225,-125,4,1,4,63,0,0
125318,-125,4,1,3,63,0,0
126350,-100,4,1,3,63,0,1
129725,-125,4,1,3,63,0,0
130850,-200,4,1,3,63,0,0
131600,-200,4,1,3,63,0,0
133100,-125,4,1,1,63,0,0
133475,-125,4,1,4,63,0,0
133568,-125,4,1,1,63,0,0
138350,-125,4,1,1,63,0,1
138396,-125,4,1,1,63,0,0

[Colours]
Combo1 : 128,0,0
Combo2 : 132,66,0
Combo3 : 255,0,0
Combo4 : 230,230,230
Combo5 : 128,128,128
Combo6 : 255,0,128
Combo7 : 128,0,128
Combo8 : 0,0,255

[HitObjects]
184,272,350,6,0,L|96:272,1,80
328,112,537,2,0,L|416:112,1,80
148,197,725,2,0,L|86:135,1,80
363,186,912,2,0,L|425:248,1,80
176,120,1100,2,0,L|176:32,1,80
336,264,1287,2,0,L|336:352,1,80
250,84,1475,2,0,L|312:22,1,80
261,299,1662,2,0,L|199:361,1,80
256,192,1850,5,12,0:0:0:0:
182,27,3162,6,0,B|206:11|206:11|310:11|310:11|342:35,1,160,12|12,0:0|0:0,0:0:0:0:
0,344,4287,5,12,0:0:0:0:
256,104,4568,1,12,0:0:0:0:
512,344,4850,1,12,0:0:0:0:
256,192,6162,5,12,0:0:0:0:
376,304,6350,2,4,B|456:224|384:144|472:72,1,240,12|12,0:0|0:0,0:0:0:0:
256,192,6912,1,12,0:0:0:0:
51,84,7100,1,12,0:0:0:0:
112,280,7287,1,8,0:0:0:0:
112,280,7381,1,8,0:0:0:0:
112,280,7475,2,6,P|144:320|272:344,1,160
256,48,7850,5,0,0:0:0:0:
328,67,8225,1,0,0:0:0:0:
380,120,8600,1,0,0:0:0:0:
400,191,8975,1,0,0:0:0:0:
399,191,9162,1,0,0:0:0:0:
112,191,9350,5,12,0:0:0:0:
380,264,9725,1,0,0:0:0:0:
328,316,10100,1,0,0:0:0:0:
255,336,10475,1,0,0:0:0:0:
256,336,10662,1,0,0:0:0:0:
255,48,10850,101,12,0:0:0:0:
184,316,11225,1,0,0:0:0:0:
131,264,11600,1,0,0:0:0:0:
112,192,11975,1,0,0:0:0:0:
112,192,12162,1,0,0:0:0:0:
400,192,12350,5,12,0:0:0:0:
131,120,12725,1,0,0:0:0:0:
184,67,13100,1,0,0:0:0:0:
255,48,13475,5,8,0:0:0:0:
256,120,13568,2,0,L|256:208,2,60.0000022888184,8|8|8,0:0|0:0|0:0,0:0:0:0:
152,264,13850,70,0,B|104:256|104:256|72:288|-24:288,1,160,4|8,0:0|0:0,0:0:0:0:
360,264,14225,6,0,B|408:256|408:256|440:288|536:288,1,160,4|8,0:0|0:0,0:0:0:0:
160,120,14600,102,0,B|112:128|112:128|64:120|64:120|-16:152,1,160,4|8,0:0|0:0,0:0:0:0:
352,120,14975,6,0,B|400:128|400:128|448:120|448:120|528:152,1,160,4|8,0:0|0:0,0:0:0:0:
160,224,15350,102,0,B|128:224|128:224|88:240|88:240|40:216|-16:256,1,160,4|8,0:0|0:0,0:0:0:0:
352,224,15725,6,0,B|384:224|384:224|424:240|424:240|472:216|528:256,1,160,4|8,0:0|0:0,0:0:0:0:
152,64,16100,102,0,B|104:56|104:56|88:32|88:32|0:0,1,160,4|8,0:0|0:0,0:0:0:0:
360,64,16475,6,0,B|408:56|408:56|424:32|424:32|512:0,1,160,4|8,0:0|0:0,0:0:0:0:
160,304,16850,102,0,B|104:312|104:312|64:336|64:336|8:352,1,160,4|8,0:0|0:0,0:0:0:0:
352,304,17225,6,0,B|408:312|408:312|448:336|448:336|504:352,1,160,4|8,0:0|0:0,0:0:0:0:
152,96,17600,102,0,B|88:64|40:104|40:104|0:96,1,160,4|8,0:0|0:0,0:0:0:0:
360,96,17975,6,0,B|424:64|472:104|472:104|512:96,1,160,4|8,0:0|0:0,0:0:0:0:
256,192,18350,70,0,L|256:224,3,20
256,192,18443,12,0,19006,0:0:0:0:
80,320,19100,6,0,L|160:384,1,80,8|8,0:0|0:0,0:0:0:0:
432,208,19287,2,0,L|352:272,1,80,8|8,0:0|0:0,0:0:0:0:
80,208,19475,2,0,L|160:272,1,80,8|8,0:0|0:0,0:0:0:0:
432,320,19662,2,0,L|352:384,1,80,8|8,0:0|0:0,0:0:0:0:
64,112,19850,6,0,B|136:112|136:112|168:64|232:48,1,160,6|8,0:0|0:0,0:0:0:0:
256,192,20131,1,0,0:0:0:0:
308,57,20225,2,0,B|348:71|376:112|376:112|448:112,1,160,6|8,0:0|0:0,0:0:0:0:
447,112,20506,1,0,0:0:0:0:
448,112,20600,2,0,L|414:184,1,80,4|0,0:0|0:0,0:0:0:0:
208,352,20787,2,0,L|208:264,1,80,8|0,0:0|0:0,0:0:0:0:
64,112,20975,2,0,L|104:200,1,80,4|0,0:0|0:0,0:0:0:0:
304,352,21162,2,0,L|304:272,1,80,8|0,0:0|0:0,0:0:0:0:
32,168,21350,6,0,B|64:112|64:112|112:160|184:144,1,160,6|8,0:0|0:0,0:0:0:0:
144,40,21631,2,0,L|248:40,1,80,2|4,0:0|0:0,0:0:0:0:
360,40,21818,1,0,0:0:0:0:
362,147,21912,2,0,B|400:160|448:112|448:112|480:168,1,160,10|4,0:0|0:0,0:0:0:0:
496,248,22193,1,0,0:0:0:0:
464,320,22287,2,0,L|360:368,1,80,10|0,0:0|0:0,0:0:0:0:
256,216,22475,2,0,L|256:312,1,80,6|0,0:0|0:0,0:0:0:0:
48,320,22662,2,0,L|152:368,1,80,10|8,0:0|0:0,0:0:0:0:
80,208,22850,102,0,B|152:160|152:160|152:112|152:112|144:80,1,160,6|8,0:0|0:0,0:0:0:0:
256,0,23131,1,0,0:0:0:0:
366,87,23225,2,0,B|360:112|360:112|360:160|360:160|432:208,1,160,6|8,0:0|0:0,0:0:0:0:
496,136,23506,1,0,0:0:0:0:
440,57,23600,2,0,L|360:89,1,80,4|0,0:0|0:0,0:0:0:0:
160,208,23787,2,0,L|80:208,1,80,8|0,0:0|0:0,0:0:0:0:
146,86,23975,2,0,L|72:57,1,80,4|0,0:0|0:0,0:0:0:0:
352,208,24162,2,0,L|432:208,1,80,8|0,0:0|0:0,0:0:0:0:
208,320,24350,6,0,B|96:320|96:320|48:288,1,160,10|0,0:0|0:0,0:0:0:0:
72,57,24631,2,0,B|160:104|160:104|248:104,1,160,10|0,0:0|0:0,0:0:0:0:
455,293,24912,2,0,B|416:320|416:320|304:320,1,160,10|0,0:0|0:0,0:0:0:0:
291,104,25193,2,0,B|352:104|352:104|440:57,1,160,10|0,0:0|0:0,0:0:0:0:
376,192,25475,2,2,L|136:192,1,240,10|2,0:0|0:0,0:0:0:0:
32,160,25850,102,0,P|81:99|158:85,1,160,6|8,0:0|0:0,0:0:0:0:
262,197,26131,1,0,0:0:0:0:
366,84,26225,2,0,P|442:99|491:160,1,160,6|8,0:0|0:0,0:0:0:0:
496,248,26506,1,0,0:0:0:0:
411,161,26600,2,0,L|491:161,1,80,4|0,0:0|0:0,0:0:0:0:
414,285,26787,2,0,L|334:285,1,80,8|0,0:0|0:0,0:0:0:0:
32,160,26975,2,0,L|144:160,1,80,4|0,0:0|0:0,0:0:0:0:
190,285,27162,2,0,L|78:285,1,80,8|0,0:0|0:0,0:0:0:0:
112,160,27350,6,0,B|128:112|128:112|176:128|176:128|224:88,1,160,6|8,0:0|0:0,0:0:0:0:
152,32,27631,2,0,L|240:16,1,80,2|4,0:0|0:0,0:0:0:0:
360,32,27818,1,0,0:0:0:0:
290,90,27912,2,0,B|336:128|336:128|384:112|384:112|400:160,1,160,10|4,0:0|0:0,0:0:0:0:
446,235,28193,1,0,0:0:0:0:
424,328,28287,2,0,L|352:264,1,80,10|0,0:0|0:0,0:0:0:0:
256,144,28475,2,0,L|256:240,1,80,6|0,0:0|0:0,0:0:0:0:
88,328,28662,2,0,L|160:264,1,80,10|8,0:0|0:0,0:0:0:0:
376,368,28850,102,0,P|440:296|440:208,1,160,6|8,0:0|0:0,0:0:0:0:
256,224,29131,1,0,0:0:0:0:
66,235,29225,2,0,P|80:313|136:368,1,160,6|8,0:0|0:0,0:0:0:0:
216,328,29506,1,0,0:0:0:0:
280,264,29600,2,0,P|336:256|376:232,1,80,4|0,0:0|0:0,0:0:0:0:
256,112,29787,2,0,P|208:120|176:144,1,80,8|0,0:0|0:0,0:0:0:0:
336,152,29975,2,0,P|360:96|360:64,1,80,4|0,0:0|0:0,0:0:0:0:
176,232,30162,2,0,P|152:288|152:320,1,80,8|0,0:0|0:0,0:0:0:0:
488,360,30350,6,0,P|456:288|360:256,1,160,10|0,0:0|0:0,0:0:0:0:
320,56,30631,2,0,L|472:120,1,160,10|0,0:0|0:0,0:0:0:0:
192,56,30912,2,0,L|40:120,1,160,10|0,0:0|0:0,0:0:0:0:
24,360,31193,2,0,P|56:288|152:256,1,160,10|0,0:0|0:0,0:0:0:0:
232,312,31475,69,2,0:0:0:0:
232,312,31568,1,0,0:0:0:0:
232,312,31662,2,0,L|288:384,1,80,8|0,0:0|0:0,0:0:0:0:
328,272,31850,1,0,0:0:0:0:
328,272,31943,2,0,L|424:304,1,80,8|0,0:0|0:0,0:0:0:0:
362,178,32131,1,0,0:0:0:0:
362,178,32224,2,0,L|444:118,1,80,8|0,0:0|0:0,0:0:0:0:
306,96,32412,5,0,0:0:0:0:
306,96,32506,2,0,L|303:-4,1,80,8|0,0:0|0:0,0:0:0:0:
207,96,32693,1,0,0:0:0:0:
207,96,32787,2,0,L|122:40,1,80,8|0,0:0|0:0,0:0:0:0:
149,176,32975,2,0,L|72:208,2,80,8|0|0,0:0|0:0|0:0,0:0:0:0:
182,270,33256,101,0,0:0:0:0:
187,283,33350,1,0,0:0:0:0:
200,300,33443,1,0,0:0:0:0:
219,316,33537,1,0,0:0:0:0:
244,328,33631,1,0,0:0:0:0:
284,336,33725,1,0,0:0:0:0:
328,328,33818,1,0,0:0:0:0:
376,300,33912,1,0,0:0:0:0:
412,243,34006,1,0,0:0:0:0:
416,175,34100,6,2,L|512:136,1,80,10|0,0:0|2:0,0:0:0:0:
368,128,34381,2,2,L|464:88,1,80,10|0,0:0|2:0,0:0:0:0:
304,88,34662,2,2,L|408:40,2,80,10|0|6,0:0|0:0|0:0,0:0:0:0:
216,48,35037,38,0,L|272:0,2,40
136,112,35225,2,0,L|-16:224,1,160,8|0,0:0|0:0,0:0:0:0:
216,136,35787,2,0,L|272:88,2,40
136,200,35975,2,0,L|-16:312,1,160,8|0,0:0|0:0,0:0:0:0:
216,224,36537,2,0,L|272:176,2,40
136,288,36725,2,0,L|-16:400,1,160,8|0,0:0|0:0,0:0:0:0:
304,336,37287,54,0,B|344:272|344:272|344:176,1,160,2|8,0:0|0:0,0:0:0:0:
256,120,37568,2,0,L|176:56,1,80,2|0,0:0|0:0,0:0:0:0:
154,173,37756,2,0,L|242:245,1,80,8|2,0:0|0:0,0:0:0:0:
296,48,38037,54,0,L|240:0,2,40
376,112,38225,2,0,L|528:224,1,160,8|0,0:0|0:0,0:0:0:0:
296,136,38787,2,0,L|240:88,2,40
376,200,38975,2,0,L|528:312,1,160,8|0,0:0|0:0,0:0:0:0:
296,224,39537,2,0,L|240:176,2,40
376,288,39725,2,0,L|528:400,1,160,8|0,0:0|0:0,0:0:0:0:
256,40,40193,54,0,L|192:104,1,80,8|2,0:0|0:0,0:0:0:0:
256,144,40381,1,0,0:0:0:0:
256,224,40475,2,0,L|200:280,1,80,8|2,0:0|0:0,0:0:0:0:
264,336,40662,1,0,0:0:0:0:
346,362,40756,2,0,L|378:282,1,80,0|2,0:0|0:0,0:0:0:0:
376,152,41037,54,0,L|321:102,2,40
438,226,41225,2,0,P|461:313|398:368,1,160,8|0,0:0|0:0,0:0:0:0:
230,315,41787,2,0,L|300:293,2,40
135,332,41975,2,0,P|48:309|32:227,1,160,8|0,0:0|0:0,0:0:0:0:
240,152,42537,2,0,L|190:206,2,40
314,89,42725,2,0,P|401:65|456:128,1,160,8|0,0:0|0:0,0:0:0:0:
464,240,43287,54,0,L|288:240,1,160,2|8,0:0|0:0,0:0:0:0:
200,240,43568,1,2,0:0:0:0:
96,240,43662,2,0,L|16:240,2,80,0|8|2,0:0|0:0|0:0,0:0:0:0:
58,89,44037,54,0,L|2:89,2,40
154,89,44225,2,0,L|338:89,1,160,8|0,0:0|0:0,0:0:0:0:
432,320,44787,2,0,L|488:320,2,40
336,320,44975,2,0,L|152:320,1,160,8|0,0:0|0:0,0:0:0:0:
104,40,45537,2,0,L|48:40,2,40
200,40,45725,2,0,L|384:40,1,160,8|0,0:0|0:0,0:0:0:0:
112,160,46100,70,0,L|64:256,1,80,10|0,0:0|0:0,0:0:0:0:
256,168,46381,2,0,L|256:264,1,80,10|0,0:0|0:0,0:0:0:0:
400,160,46662,2,0,L|448:256,1,80,10|0,0:0|0:0,0:0:0:0:
200,104,46850,102,0,B|232:88|232:88|272:80,5,53.3333333333333,4|0|0|0|0|0,0:0|0:0|0:0|0:0|0:0|0:0,0:0:0:0:
136,160,47225,2,0,B|112:128|112:128|112:96,5,53.3333333333333,8|0|0|0|0|0,0:0|0:0|0:0|0:0|0:0|0:0,0:0:0:0:
184,224,47600,5,4,0:0:0:0:
204,258,47662,1,0,0:0:0:0:
235,282,47725,1,0,0:0:0:0:
273,293,47787,1,0,0:0:0:0:
313,289,47850,1,0,0:0:0:0:
348,271,47912,1,0,0:0:0:0:
374,241,47975,1,8,0:0:0:0:
387,203,48037,1,0,0:0:0:0:
385,164,48100,1,0,0:0:0:0:
369,127,48162,1,0,0:0:0:0:
340,100,48225,1,0,0:0:0:0:
303,85,48287,1,0,0:0:0:0:
232,72,48350,102,0,B|240:48|240:48|264:24,5,53.3333333333333,4|0|0|0|0|0,0:0|0:0|0:0|0:0|0:0|0:0,0:0:0:0:
168,128,48725,2,0,B|184:144|184:144|240:168,5,53.3333333333333,8|0|0|0|0|0,0:0|0:0|0:0|0:0|0:0|0:0,0:0:0:0:
88,148,49100,5,4,0:0:0:0:
60,176,49162,1,0,0:0:0:0:
45,213,49225,1,0,0:0:0:0:
43,253,49287,1,0,0:0:0:0:
55,291,49350,1,0,0:0:0:0:
78,322,49412,1,0,0:0:0:0:
112,344,49475,1,8,0:0:0:0:
151,353,49537,1,0,0:0:0:0:
190,348,49600,1,0,0:0:0:0:
226,330,49662,1,0,0:0:0:0:
256,296,49725,1,0,0:0:0:0:
284,252,49787,1,0,0:0:0:0:
312,200,49850,102,0,P|344:136|224:16,1,240,4|0,0:0|0:0,0:0:0:0:
208,16,50225,1,12,0:0:0:0:
176,48,50318,2,0,B|144:72|144:72|96:72,1,80
234,139,50600,2,0,P|163:143|119:307,1,240,4|0,0:0|0:0,0:0:0:0:
127,321,50975,1,12,0:0:0:0:
171,333,51068,2,0,B|208:348|208:348|232:390,1,80
221,236,51350,2,0,P|260:296|424:252,1,240,4|0,0:0|0:0,0:0:0:0:
432,238,51725,1,12,0:0:0:0:
420,194,51818,2,0,B|415:155|415:155|439:113,1,80
416,88,52100,5,8,0:0:0:0:
328,72,52193,1,0,0:0:0:0:
240,112,52287,1,0,0:0:0:0:
184,192,52381,1,8,0:0:0:0:
208,288,52475,1,0,0:0:0:0:
280,352,52568,1,0,0:0:0:0:
368,368,52662,1,8,0:0:0:0:
456,336,52756,1,0,0:0:0:0:
464,248,52850,102,0,B|432:240|432:240|392:192,5,53.3333333333333,4|0|0|0|0|0,0:0|0:0|0:0|0:0|0:0|0:0,0:0:0:0:
472,160,53225,2,0,B|488:120|488:120|488:96,5,53.3333333333333,8|0|0|0|0|0,0:0|0:0|0:0|0:0|0:0|0:0,0:0:0:0:
412,96,53600,5,4,0:0:0:0:
402,57,53662,1,0,0:0:0:0:
376,26,53725,1,0,0:0:0:0:
341,10,53787,1,0,0:0:0:0:
301,10,53850,1,0,0:0:0:0:
265,27,53912,1,0,0:0:0:0:
240,57,53975,1,8,0:0:0:0:
230,96,54037,1,0,0:0:0:0:
238,135,54100,1,0,0:0:0:0:
261,167,54162,1,0,0:0:0:0:
296,185,54225,1,0,0:0:0:0:
336,188,54287,1,0,0:0:0:0:
404,224,54350,102,0,B|432:244|432:244|460:284,5,53.3333333333333,4|0|0|0|0|0,0:0|0:0|0:0|0:0|0:0|0:0,0:0:0:0:
372,304,54725,2,0,B|392:336|392:336|400:384,5,53.3333333333333,8|0|0|0|0|0,0:0|0:0|0:0|0:0|0:0|0:0,0:0:0:0:
324,360,55100,5,4,0:0:0:0:
280,348,55162,1,0,0:0:0:0:
236,356,55225,1,0,0:0:0:0:
197,369,55287,1,0,0:0:0:0:
159,379,55350,1,0,0:0:0:0:
119,373,55412,1,0,0:0:0:0:
86,351,55475,1,8,0:0:0:0:
65,318,55537,1,0,0:0:0:0:
60,278,55600,1,0,0:0:0:0:
71,240,55662,1,0,0:0:0:0:
97,210,55725,1,0,0:0:0:0:
133,194,55787,1,0,0:0:0:0:
160,176,55850,102,0,P|184:72|72:48,1,240,4|0,0:0|0:0,0:0:0:0:
48,112,56225,1,12,0:0:0:0:
64,192,56318,1,0,0:0:0:0:
119,243,56412,2,0,P|200:248|240:176,1,160,0|4,0:0|0:0,0:0:0:0:
296,48,56881,1,0,0:0:0:0:
368,96,56975,1,12,0:0:0:0:
384,184,57068,1,0,0:0:0:0:
256,192,57350,6,0,L|256:144,16,40,0|0|0|0|0|0|0|0|0|0|0|0|0|0|0|0|8,0:0|0:0|0:0|0:0|0:0|0:0|0:0|0:0|0:0|0:0|0:0|0:0|0:0|0:0|0:0|0:0|0:0,0:0:0:0:
256,192,58193,1,0,0:0:0:0:
384,200,58381,2,0,L|464:112,1,80,8|0,0:0|0:0,0:0:0:0:
416,304,58662,2,0,L|512:304,1,80,8|0,0:0|0:0,0:0:0:0:
380,348,58850,101,4,0:0:0:0:
332,356,58912,1,0,0:0:0:0:
288,360,58975,1,0,0:0:0:0:
244,361,59037,1,0,0:0:0:0:
205,354,59100,1,0,0:0:0:0:
170,334,59162,1,0,0:0:0:0:
144,304,59225,1,8,0:0:0:0:
129,267,59287,1,0,0:0:0:0:
136,228,59350,1,0,0:0:0:0:
152,180,59412,6,0,B|120:164|120:164|80:116,8,53.3333333333333,0|0|0|4|0|0|0|0|0,0:0|0:0|0:0|0:0|0:0|0:0|0:0|0:0|0:0,0:0:0:0:
160,104,59975,101,8,0:0:0:0:
159,64,60037,1,0,0:0:0:0:
184,33,60100,1,0,0:0:0:0:
222,24,60162,1,0,0:0:0:0:
258,39,60225,1,0,0:0:0:0:
276,74,60287,1,0,0:0:0:0:
269,113,60350,1,4,0:0:0:0:
276,156,60412,1,0,0:0:0:0:
308,188,60475,1,0,0:0:0:0:
384,200,60537,6,0,B|372:228|372:228|340:272,8,53.3333333333333,0|0|0|8|0|0|0|0|0,0:0|0:0|0:0|0:0|0:0|0:0|0:0|0:0|0:0,0:0:0:0:
424,216,61100,102,0,L|504:192,1,80
432,168,61287,2,0,L|504:104,1,80
432,120,61475,2,0,L|448:40,1,80,8|0,0:0|0:0,0:0:0:0:
384,96,61662,2,0,L|368:16,1,80
280,40,61850,6,0,P|192:72|256:200,1,240,4|0,0:0|0:0,0:0:0:0:
264,216,62225,1,12,0:0:0:0:
304,240,62318,2,0,L|400:288,1,80
448,200,62600,2,0,P|472:320|368:380,1,240,4|0,0:0|0:0,0:0:0:0:
344,384,62975,1,12,0:0:0:0:
296,384,63068,2,0,L|208:384,1,80
224,280,63350,101,12,0:0:0:0:
256,192,63443,1,8,0:0:0:0:
336,144,63537,1,8,0:0:0:0:
424,152,63631,1,8,0:0:0:0:
488,216,63725,1,12,0:0:0:0:
480,304,63818,1,8,0:0:0:0:
424,368,63912,1,8,0:0:0:0:
336,368,63975,6,0,B|352:328|352:328|376:296,13,53.3333333333333,0|0|0|0|0|0|0|0|8|0|0|0|0|0,0:0|0:0|0:0|0:0|0:0|0:0|0:0|0:0|0:0|0:0|0:0|0:0|0:0|0:0,0:0:0:0:
272,340,64850,101,4,0:0:0:0:
232,347,64912,1,0,0:0:0:0:
193,345,64975,1,0,0:0:0:0:
155,332,65037,1,0,0:0:0:0:
122,309,65100,1,0,0:0:0:0:
96,279,65162,1,0,0:0:0:0:
79,243,65225,1,8,0:0:0:0:
72,203,65287,1,0,0:0:0:0:
76,164,65350,1,0,0:0:0:0:
90,126,65412,1,0,0:0:0:0:
114,94,65475,1,0,0:0:0:0:
145,69,65537,1,0,0:0:0:0:
192,48,65600,6,0,B|208:24|208:24|256:0,5,53.3333333333333,4|0|0|0|0|0,0:0|0:0|0:0|0:0|0:0|0:0,0:0:0:0:
256,96,65975,2,0,B|248:128|248:128|256:176,5,53.3333333333333,8|0|0|0|0|0,0:0|0:0|0:0|0:0|0:0|0:0,0:0:0:0:
328,128,66350,101,4,0:0:0:0:
367,120,66412,1,0,0:0:0:0:
406,128,66475,1,0,0:0:0:0:
439,150,66537,1,0,0:0:0:0:
461,183,66600,1,0,0:0:0:0:
469,222,66662,1,0,0:0:0:0:
461,261,66725,1,8,0:0:0:0:
439,294,66787,1,0,0:0:0:0:
407,317,66850,1,0,0:0:0:0:
368,325,66912,1,0,0:0:0:0:
329,318,66975,1,0,0:0:0:0:
295,297,67037,1,0,0:0:0:0:
248,240,67100,6,0,B|216:240|216:240|184:224,5,53.3333333333333,4|0|0|0|0|0,0:0|0:0|0:0|0:0|0:0|0:0,0:0:0:0:
280,168,67475,2,0,B|256:144|256:144|240:104,5,53.3333333333333,8|0|0|0|0|0,0:0|0:0|0:0|0:0|0:0|0:0,0:0:0:0:
280,168,67850,101,4,0:0:0:0:
384,128,68037,2,0,P|392:192|384:232,2,80,0|0|12,0:0|0:0|0:0,0:0:0:0:
280,168,68412,1,0,0:0:0:0:
144,224,68600,1,4,0:0:0:0:
48,288,68787,2,0,P|72:320|120:336,2,80,0|0|12,0:0|0:0|0:0,0:0:0:0:
67,201,69068,2,0,L|147:225,1,80
92,132,69350,21,6,0:0:0:0:
152,312,69537,2,0,L|168:376,3,53.3333333333333,0|0|0|6,0:0|0:0|0:0|0:0,0:0:0:0:
304,280,69912,2,0,L|352:360,2,53.3333333333333,0|0|0,0:0|0:0|0:0,0:0:0:0:
256,192,70100,1,2,0:0:0:0:
416,144,70381,1,2,0:0:0:0:
304,16,70662,1,2,0:0:0:0:
304,16,70709,2,0,L|368:16,2,40
256,32,70850,6,0,L|256:192,1,160,6|8,0:0|0:0,0:0:0:0:
128,120,71225,1,2,0:0:0:0:
32,120,71318,1,0,0:0:0:0:
32,216,71412,1,8,0:0:0:0:
200,296,71600,2,0,P|296:320|352:288,1,160,2|8,0:0|0:0,0:0:0:0:
472,296,71881,1,0,0:0:0:0:
403,187,71975,2,0,P|331:163|251:195,1,160,2|8,0:0|0:0,0:0:0:0:
256,312,72350,102,0,B|224:344|224:344|176:352,1,80,6|0,0:0|0:0,0:0:0:0:
164,269,72537,2,0,B|118:265|118:265|82:233,1,80,10|0,0:0|0:0,0:0:0:0:
137,171,72725,2,0,B|111:134|111:134|112:85,1,80,2|0,0:0|0:0,0:0:0:0:
196,88,72912,2,0,B|207:44|207:44|245:13,1,80,10|0,0:0|0:0,0:0:0:0:
297,79,73100,2,0,B|338:60|338:60|385:69,1,80,2|0,0:0|0:0,0:0:0:0:
368,150,73287,2,0,B|409:170|409:170|433:212,1,80,10|0,0:0|0:0,0:0:0:0:
359,252,73475,2,0,B|371:295|371:295|354:341,1,80,2|0,0:0|0:0,0:0:0:0:
276,310,73662,2,0,B|250:347|250:347|204:363,2,80,10|0|6,0:0|0:0|0:0,0:0:0:0:
256,192,74037,5,8,0:0:0:0:
120,192,74225,1,2,0:0:0:0:
96,192,74318,1,0,0:0:0:0:
72,192,74412,1,8,0:0:0:0:
256,192,74600,1,2,0:0:0:0:
392,192,74787,1,8,0:0:0:0:
416,192,74880,1,0,0:0:0:0:
440,192,74974,1,2,0:0:0:0:
464,192,75068,1,0,0:0:0:0:
488,192,75162,1,8,0:0:0:0:
512,192,75256,1,0,0:0:0:0:
496,104,75350,101,6,0:0:0:0:
416,72,75443,1,2,0:0:0:0:
336,104,75537,1,10,0:0:0:0:
256,72,75631,2,2,L|0:72,1,240,2|8,0:0|0:0,0:0:0:0:
0,288,76100,5,6,0:0:0:0:
80,320,76193,1,2,0:0:0:0:
160,288,76287,1,10,0:0:0:0:
240,320,76381,2,2,L|496:320,1,240,2|8,0:0|0:0,0:0:0:0:
448,184,76756,1,0,0:0:0:0:
408,176,76850,70,2,P|352:160|328:136,1,80,6|8,0:0|0:0,0:0:0:0:
320,128,77131,1,0,0:0:0:0:
296,104,77225,1,2,0:0:0:0:
276,76,77318,1,0,0:0:0:0:
260,45,77411,1,8,0:0:0:0:
234,21,77505,1,0,0:0:0:0:
203,6,77599,1,2,0:0:0:0:
168,4,77693,1,0,0:0:0:0:
134,8,77786,1,8,0:0:0:0:
103,24,77880,1,0,0:0:0:0:
79,50,77974,1,2,0:0:0:0:
64,81,78068,1,0,0:0:0:0:
60,116,78161,1,8,0:0:0:0:
66,150,78255,1,0,0:0:0:0:
80,176,78350,6,2,P|112:208|160:224,1,80,6|8,0:0|0:0,0:0:0:0:
173,225,78630,1,0,0:0:0:0:
208,219,78724,1,2,0:0:0:0:
236,204,78818,1,0,0:0:0:0:
264,182,78911,1,8,0:0:0:0:
297,171,79005,1,0,0:0:0:0:
332,170,79099,1,2,0:0:0:0:
365,180,79193,1,0,0:0:0:0:
394,200,79286,1,8,0:0:0:0:
415,227,79380,1,0,0:0:0:0:
427,260,79475,1,2,0:0:0:0:
427,295,79568,1,0,0:0:0:0:
417,329,79661,1,8,0:0:0:0:
392,348,79756,1,0,0:0:0:0:
357,367,79850,102,2,P|314:366|269:351,1,80,6|8,0:0|0:0,0:0:0:0:
248,344,80131,1,0,0:0:0:0:
216,328,80224,1,2,0:0:0:0:
184,312,80318,1,0,0:0:0:0:
160,292,80411,1,8,0:0:0:0:
130,274,80505,1,0,0:0:0:0:
104,251,80599,1,2,0:0:0:0:
83,222,80693,1,0,0:0:0:0:
68,191,80786,1,8,0:0:0:0:
60,157,80880,1,0,0:0:0:0:
59,122,80974,1,2,0:0:0:0:
64,87,81068,1,0,0:0:0:0:
77,55,81161,1,8,0:0:0:0:
96,32,81350,6,0,P|160:8|208:96,1,160,2|0,0:0|0:0,0:0:0:0:
212,70,81631,1,2,0:0:0:0:
256,192,81818,1,0,0:0:0:0:
256,192,81912,1,2,0:0:0:0:
368,232,82100,1,4,0:0:0:0:
256,80,82381,1,4,0:0:0:0:
160,232,82662,1,4,0:0:0:0:
340,288,82850,22,0,L|452:248,1,80,8|8,0:0|0:0,0:0:0:0:
352,108,83037,2,0,L|312:-4,1,80,8|8,0:0|0:0,0:0:0:0:
172,96,83225,2,0,L|60:136,1,80,8|8,0:0|0:0,0:0:0:0:
160,276,83412,2,0,L|200:388,1,80,8|8,0:0|0:0,0:0:0:0:
432,336,83600,1,8,0:0:0:0:
432,336,83693,1,8,0:0:0:0:
256,192,83881,1,8,0:0:0:0:
256,192,83975,1,8,0:0:0:0:
204,16,84162,1,8,0:0:0:0:
204,16,84255,1,8,0:0:0:0:
32,56,84350,54,0,B|96:44|96:44|124:72|168:80,1,120.000004577637,6|0,0:0|0:0,0:0:0:0:
92,192,84537,2,0,B|56:252|56:252|64:308,1,120.000004577637,10|0,0:0|0:0,0:0:0:0:
184,352,84725,1,6,0:0:0:0:
328,352,84818,1,0,0:0:0:0:
448,301,84912,2,0,B|456:252|456:252|420:192,1,120.000004577637,10|0,0:0|0:0,0:0:0:0:
369,73,85100,2,0,B|388:72|416:44|416:44|480:56,1,120.000004577637,6|0,0:0|0:0,0:0:0:0:
336,167,85287,1,10,0:0:0:0:
256,252,85381,1,0,0:0:0:0:
176,167,85475,1,0,0:0:0:0:
256,96,85568,86,0,L|256:16,2,80,0|10|0,0:0|0:0|0:0,0:0:0:0:
32,100,85850,22,0,B|104:80|104:80|120:128,1,120.000004577637,6|0,0:0|0:0,0:0:0:0:
80,288,86037,2,0,B|32:248|32:248|32:176,1,120.000004577637,10|0,0:0|0:0,0:0:0:0:
176,167,86225,1,6,0:0:0:0:
336,167,86318,1,0,0:0:0:0:
480,190,86412,2,0,B|480:248|480:248|432:288,1,120.000004577637,10|0,0:0|0:0,0:0:0:0:
393,122,86600,2,0,B|408:80|408:80|480:100,1,120.000004577637,6|0,0:0|0:0,0:0:0:0:
360,256,86787,1,10,0:0:0:0:
256,328,86881,1,0,0:0:0:0:
152,256,86975,1,0,0:0:0:0:
256,192,87068,86,0,L|256:304,2,80,0|10|0,0:0|0:0|0:0,0:0:0:0:
99,46,87350,22,0,P|43:64|8:112,1,120.000004577637,6|0,0:0|0:0,0:0:0:0:
32,272,87537,2,0,P|96:248|120:200,1,120.000004577637,10|0,0:0|0:0,0:0:0:0:
176,167,87725,1,6,0:0:0:0:
336,167,87818,1,0,0:0:0:0:
503,112,87912,2,0,P|468:64|412:46,1,120.000004577637,10|0,0:0|0:0,0:0:0:0:
392,204,88100,2,0,P|423:254|480:272,1,120.000004577637,6|0,0:0|0:0,0:0:0:0:
344,96,88287,1,10,0:0:0:0:
256,16,88381,1,0,0:0:0:0:
168,96,88475,1,0,0:0:0:0:
256,192,88568,86,0,L|256:288,2,80,0|10|0,0:0|0:0|0:0,0:0:0:0:
16,136,88850,22,0,P|120:168|160:312,1,240.000009155274,6|8,0:0|0:0,0:0:0:0:
256,376,89131,1,0,0:0:0:0:
345,282,89225,2,0,P|386:173|496:136,1,240.000009155274,6|8,0:0|0:0,0:0:0:0:
496,120,89506,1,0,0:0:0:0:
432,9,89600,2,8,P|377:31|336:74,1,120.000004577637,14|0,0:0|0:0,0:0:0:0:
176,74,89787,2,8,P|104:16|64:8,1,120.000004577637,10|0,0:0|0:0,0:0:0:0:
256,136,89975,2,10,L|256:384,1,240.000009155274,14|0,0:0|0:0,0:0:0:0:
320,208,90350,86,0,B|320:159|320:159|352:95,1,120.000004577637,14|0,0:0|0:0,0:0:0:0:
416,175,90537,2,0,B|416:223|416:223|384:287,1,120.000004577637,0|14,0:0|0:0,0:0:0:0:
128,287,90725,2,0,B|96:223|96:223|96:143,1,120.000004577637
160,95,90912,2,0,B|192:159|192:159|192:239,1,120.000004577637,10|0,0:0|0:0,0:0:0:0:
336,240,91100,22,0,B|376:272|424:256|424:256|464:272,1,120.000004577637,6|0,0:0|0:0,0:0:0:0:
176,240,91287,2,0,B|136:272|88:256|88:256|48:272,1,120.000004577637,8|0,0:0|0:0,0:0:0:0:
416,352,91475,2,0,B|359:352|359:352|311:312,1,120.000004577637,6|0,0:0|0:0,0:0:0:0:
96,352,91662,2,0,B|154:352|154:352|202:312,1,120.000004577637,10|0,0:0|0:0,0:0:0:0:
200,112,91850,2,0,P|104:128|64:168,1,120.000004577637,6|0,0:0|0:0,0:0:0:0:
312,111,92037,2,0,P|371:112|424:139,1,120.000004577637,8|0,0:0|0:0,0:0:0:0:
317,178,92225,2,0,L|181:178,1,120.000004577637,6|0,0:0|0:0,0:0:0:0:
87,140,92412,2,0,B|56:88|56:88|136:32|136:32|232:32,1,240.000009155274,10|0,0:0|0:0,0:0:0:0:
425,140,92693,1,0,0:0:0:0:
425,140,92787,2,2,B|456:88|456:88|376:32|376:32|280:32,1,240.000009155274,10|0,0:0|0:0,0:0:0:0:
256,192,93162,85,10,0:0:0:0:
256,192,93256,1,10,0:0:0:0:
200,248,93350,22,0,B|144:248|144:248|128:272|56:280,1,120.000004577637,6|0,0:0|0:0,0:0:0:0:
312,248,93537,2,0,B|368:248|368:248|384:272|456:280,1,120.000004577637,10|0,0:0|0:0,0:0:0:0:
200,352,93725,2,0,B|144:352|144:352|128:376|56:384,1,120.000004577637,6|0,0:0|0:0,0:0:0:0:
312,352,93912,2,0,B|368:352|368:352|384:376|456:384,1,120.000004577637,10|0,0:0|0:0,0:0:0:0:
496,272,94100,86,0,L|496:144,1,120.000004577637,6|0,0:0|0:0,0:0:0:0:
368,152,94287,2,0,B|328:96|328:96|328:32,1,120.000004577637,10|0,0:0|0:0,0:0:0:0:
184,44,94475,2,0,B|184:96|184:96|144:152,1,120.000004577637,6|0,0:0|0:0,0:0:0:0:
16,152,94662,2,0,L|16:272,1,120.000004577637,10|0,0:0|0:0,0:0:0:0:
88,384,94850,22,0,B|129:381|145:357|145:357|201:357,1,120.000004577637,6|0,0:0|0:0,0:0:0:0:
424,272,95037,2,0,B|384:269|368:245|368:245|312:245,1,120.000004577637,10|0,0:0|0:0,0:0:0:0:
88,272,95225,2,0,B|129:269|145:245|145:245|201:245,1,120.000004577637,6|0,0:0|0:0,0:0:0:0:
424,384,95412,2,0,B|384:381|368:357|368:357|312:357,1,120.000004577637,10|0,0:0|0:0,0:0:0:0:
256,192,95600,86,8,L|256:256,4,60.0000022888184,12|8|8|8|8,0:0|0:0|0:0|0:0|0:0,0:0:0:0:
256,176,95881,1,8,0:0:0:0:
256,160,95975,1,12,0:0:0:0:
256,144,96068,1,8,0:0:0:0:
256,128,96162,1,8,0:0:0:0:
256,112,96256,1,8,0:0:0:0:
432,64,96350,22,0,B|384:80|384:80|368:104|368:104|312:128,1,120.000004577637,6|0,0:0|0:0,0:0:0:0:
80,64,96537,2,0,B|128:80|128:80|144:104|144:104|200:128,1,120.000004577637,10|0,0:0|0:0,0:0:0:0:
432,320,96725,2,0,B|384:304|384:304|368:280|368:280|312:256,1,120.000004577637,6|0,0:0|0:0,0:0:0:0:
80,320,96912,2,0,B|128:304|128:304|144:280|144:280|200:256,1,120.000004577637,10|0,0:0|0:0,0:0:0:0:
336,192,97100,1,6,0:0:0:0:
176,192,97193,1,0,0:0:0:0:
144,80,97287,1,10,0:0:0:0:
256,16,97381,1,0,0:0:0:0:
368,80,97475,1,0,0:0:0:0:
256,112,97568,86,0,L|256:208,2,80,0|10|0,0:0|0:0|0:0,0:0:0:0:
392,56,97850,22,0,B|416:112|416:112|432:128|432:128|448:160,1,120.000004577637,6|0,0:0|0:0,0:0:0:0:
120,56,98037,2,0,B|96:112|96:112|80:128|80:128|64:160,1,120.000004577637,10|0,0:0|0:0,0:0:0:0:
444,248,98225,2,0,B|396:264|396:264|348:264|348:264|300:284,1,120.000004577637,6|0,0:0|0:0,0:0:0:0:
68,248,98412,2,0,B|116:264|116:264|164:264|164:264|212:284,1,120.000004577637,10|0,0:0|0:0,0:0:0:0:
336,336,98600,1,6,0:0:0:0:
176,336,98693,1,0,0:0:0:0:
144,224,98787,1,10,0:0:0:0:
256,160,98881,1,0,0:0:0:0:
368,224,98975,1,0,0:0:0:0:
256,256,99068,86,0,L|256:352,2,80,0|10|0,0:0|0:0|0:0,0:0:0:0:
392,104,99350,22,0,P|448:160|456:240,1,120.000004577637,6|0,0:0|0:0,0:0:0:0:
120,104,99537,2,0,P|64:160|56:240,1,120.000004577637,10|0,0:0|0:0,0:0:0:0:
392,256,99725,2,0,P|432:344|421:389,1,120.000004577637,6|0,0:0|0:0,0:0:0:0:
120,256,99912,2,0,P|80:344|91:389,1,120.000004577637,10|0,0:0|0:0,0:0:0:0:
256,296,100100,1,6,0:0:0:0:
360,180,100193,1,0,0:0:0:0:
256,80,100287,1,10,0:0:0:0:
152,180,100381,1,0,0:0:0:0:
256,264,100475,1,0,0:0:0:0:
256,160,100568,86,0,L|256:64,2,80,0|10|0,0:0|0:0|0:0,0:0:0:0:
32,128,100850,22,0,B|32:56|32:56|88:16|88:16|240:16,1,240.000009155274,6|8,0:0|0:0,0:0:0:0:
256,80,101131,1,0,0:0:0:0:
324,16,101225,2,0,B|424:16|424:16|480:56|480:56|480:128,1,240.000009155274,6|8,0:0|0:0,0:0:0:0:
480,144,101506,1,0,0:0:0:0:
432,281,101600,2,0,L|300:233,1,120.000004577637,14|0,0:0|0:0,0:0:0:0:
80,281,101787,2,0,L|212:233,1,120.000004577637,14|0,0:0|0:0,0:0:0:0:
256,40,101975,2,2,L|256:280,1,240.000009155274,14|0,0:0|0:0,0:0:0:0:
144,192,102350,86,0,B|112:176|112:176|64:96,1,120.000004577637,14|0,0:0|0:0,0:0:0:0:
128,32,102537,2,0,B|176:112|176:112|224:144,1,120.000004577637,0|14,0:0|0:0,0:0:0:0:
368,192,102725,2,0,B|400:176|400:176|448:96,1,120.000004577637
384,32,102912,2,0,B|336:112|336:112|288:144,1,120.000004577637,10|0,0:0|0:0,0:0:0:0:
136,216,103100,22,0,L|120:348,1,120.000004577637,6|0,0:0|0:0,0:0:0:0:
56,128,103287,2,0,L|72:0,1,120.000004577637,8|0,0:0|0:0,0:0:0:0:
196,80,103475,2,0,L|332:80,1,120.000004577637,6|0,0:0|0:0,0:0:0:0:
316,304,103662,2,0,L|180:304,1,120.000004577637,10|0,0:0|0:0,0:0:0:0:
441,8,103850,2,0,L|456:128,1,120.000004577637,6|0,0:0|0:0,0:0:0:0:
390,335,104037,2,0,L|376:216,1,120.000004577637,8|0,0:0|0:0,0:0:0:0:
256,127,104225,2,0,L|256:248,1,120.000004577637,6|0,0:0|0:0,0:0:0:0:
196,304,104412,2,0,B|160:224|160:224|160:160|160:160|196:79,1,240.000009155274,10|0,0:0|0:0,0:0:0:0:
315,79,104693,1,0,0:0:0:0:
315,79,104787,2,2,B|352:160|352:160|352:224|352:224|316:304,1,240.000009155274,10|0,0:0|0:0,0:0:0:0:
256,192,105162,85,10,0:0:0:0:
256,192,105256,1,10,0:0:0:0:
112,48,105350,22,0,P|68:100|64:176,1,120.000004577637,6|0,0:0|0:0,0:0:0:0:
112,336,105537,2,0,P|68:284|64:200,1,120.000004577637,10|0,0:0|0:0,0:0:0:0:
240,96,105725,2,0,P|156:128|144:152,1,120.000004577637,6|0,0:0|0:0,0:0:0:0:
240,288,105912,2,0,P|156:256|144:224,1,120.000004577637,10|0,0:0|0:0,0:0:0:0:
344,96,106100,86,0,L|472:160,1,120.000004577637,6|0,0:0|0:0,0:0:0:0:
344,288,106287,2,0,L|451:234,1,120.000004577637,10|0,0:0|0:0,0:0:0:0:
344,0,106475,2,0,L|472:64,1,120.000004577637,6|0,0:0|0:0,0:0:0:0:
344,384,106662,2,0,L|451:330,1,120.000004577637,10|0,0:0|0:0,0:0:0:0:
88,16,106850,22,8,L|120:152,1,120.000004577637,14|8,0:0|0:0,0:0:0:0:
432,16,107037,2,8,L|392:152,1,120.000004577637,10|8,0:0|0:0,0:0:0:0:
0,112,107225,2,8,L|96:240,1,120.000004577637,14|8,0:0|0:0,0:0:0:0:
512,112,107412,2,8,L|424:232,1,120.000004577637,10|8,0:0|0:0,0:0:0:0:
256,360,107600,2,0,L|336:248,1,120.000004577637,14|0,0:0|0:0,0:0:0:0:
480,32,107881,86,0,L|352:32,1,120.000004577637,14|0,0:0|0:0,0:0:0:0:
32,32,108162,21,14,0:0:0:0:
256,360,108350,85,14,0:0:0:0:
480,32,108631,21,14,0:0:0:0:
32,32,108912,86,2,L|280:128,1,240,14|0,0:0|0:0,0:0:0:0:
256,192,109287,38,0,L|256:240,3,40
256,192,109475,1,8,0:0:0:0:
120,260,109662,21,0,0:0:0:0:
44,224,109756,1,0,0:0:0:0:
36,140,109850,2,0,B|96:164|144:136|144:136|216:32|336:96,1,320
376,204,110600,2,0,L|408:256,1,40,8|0,0:0|0:0,0:0:0:0:
192,232,110881,2,0,L|168:288,1,40,8|0,0:0|0:0,0:0:0:0:
296,288,111162,2,0,L|308:332,1,40,8|0,0:0|0:0,0:0:0:0:
268,144,111350,6,0,P|220:92|32:136,1,256,6|4,0:0|0:0,0:0:0:0:
148,212,111912,1,0,0:0:0:0:
148,212,112006,1,0,0:0:0:0:
148,212,112100,2,0,L|320:320,2,192,10|8|8,0:0|0:0|0:0,0:0:0:0:
76,112,112850,2,0,P|160:88|248:144,1,192,14|8,0:0|0:0,0:0:0:0:
328,152,113225,102,0,L|400:152,1,64,4|0,0:0|0:0,0:0:0:0:
364,232,113412,1,0,0:0:0:0:
364,232,113506,1,0,0:0:0:0:
364,232,113600,2,0,L|424:296,1,64,8|0,0:0|0:0,0:0:0:0:
224,236,113787,1,0,0:0:0:0:
224,236,113881,1,0,0:0:0:0:
224,236,113975,2,0,L|280:304,1,64,12|0,0:0|0:0,0:0:0:0:
80,252,114162,1,0,0:0:0:0:
80,252,114256,1,0,0:0:0:0:
80,252,114350,2,0,L|120:312,1,64,14|0,0:0|0:0,0:0:0:0:
44,160,114537,1,0,0:0:0:0:
44,160,114631,1,0,0:0:0:0:
44,160,114725,2,0,L|104:88,1,64,4|0,0:0|0:0,0:0:0:0:
140,132,115006,6,0,B|224:168,1,64,0|8,0:0|0:0,0:0:0:0:
236,56,115381,2,0,B|288:80|288:80|312:140|312:140|376:176,1,192,8|8,0:0|0:0,0:0:0:0:
432,92,115850,2,0,P|468:148|368:280,2,256,6|6|14,0:0|0:0|0:0,0:0:0:0:
368,176,116693,2,0,L|288:240,1,96
432,92,116975,1,10,0:0:0:0:
368,176,117068,2,0,L|288:240,1,96
256,120,117350,102,2,P|304:68|424:64,1,192,6|0,0:0|0:0,0:0:0:0:
432,92,117725,1,4,0:0:0:0:
364,212,117912,1,0,0:0:0:0:
364,212,118006,1,0,0:0:0:0:
364,212,118100,2,0,L|184:320,2,192,8|8|8,0:0|0:0|0:0,0:0:0:0:
436,112,118850,2,0,P|352:88|256:144,1,192,14|8,0:0|0:0,0:0:0:0:
184,152,119225,2,0,L|96:152,1,64,4|0,0:0|0:0,0:0:0:0:
148,232,119412,5,0,0:0:0:0:
148,232,119506,1,0,0:0:0:0:
148,232,119600,2,0,L|88:296,1,64,8|0,0:0|0:0,0:0:0:0:
288,236,119787,1,0,0:0:0:0:
288,236,119881,1,0,0:0:0:0:
288,236,119975,2,0,L|232:304,1,64,8|0,0:0|0:0,0:0:0:0:
432,252,120162,1,0,0:0:0:0:
432,252,120256,1,0,0:0:0:0:
432,252,120350,2,0,L|392:304,1,64,14|0,0:0|0:0,0:0:0:0:
484,160,120537,1,0,0:0:0:0:
484,160,120631,1,0,0:0:0:0:
372,132,120818,1,0,0:0:0:0:
372,132,121006,102,0,B|296:160,1,64,0|12,0:0|0:0,0:0:0:0:
272,56,121381,2,0,B|220:80|220:80|196:140|196:140|124:184,1,192,8|8,0:0|0:0,0:0:0:0:
256,192,121850,12,0,123256,0:0:0:0:
256,192,123350,6,0,L|432:272,2,192,12|8|8,0:0|0:0|0:0,0:0:0:0:
416,40,124100,2,0,B|272:16|248:160|40:80,1,384,8|0,0:0|0:0,0:0:0:0:
47,82,124756,1,0,0:0:0:0:
47,82,124850,2,0,B|158:100|206:216|402:216,1,384,12|0,0:0|0:0,0:0:0:0:
429,244,125600,69,8,0:0:0:0:
374,246,125693,1,0,0:0:0:0:
321,265,125787,1,0,0:0:0:0:
271,290,125881,1,0,0:0:0:0:
221,314,125975,1,4,0:0:0:0:
168,334,126068,1,0,0:0:0:0:
114,344,126162,1,0,0:0:0:0:
58,344,126256,1,0,0:0:0:0:
72,264,126350,6,0,L|152:248,5,53.3333333333333,4|0|0|0|0|0,0:0|0:0|0:0|0:0|0:0|0:0,0:0:0:0:
56,184,126725,2,0,L|-8:200,5,53.3333333333333,4|0|0|0|0|0,0:0|0:0|0:0|0:0|0:0|0:0,0:0:0:0:
112,144,127100,101,8,0:0:0:0:
133,128,127162,1,0,0:0:0:0:
158,119,127225,1,0,0:0:0:0:
185,115,127287,1,0,0:0:0:0:
211,116,127350,1,0,0:0:0:0:
237,120,127412,1,0,0:0:0:0:
261,132,127475,1,4,0:0:0:0:
281,143,127537,1,0,0:0:0:0:
300,160,127600,1,0,0:0:0:0:
320,180,127662,1,0,0:0:0:0:
332,196,127725,1,0,0:0:0:0:
356,216,127787,1,0,0:0:0:0:
376,232,127850,6,0,P|466:242|383:107,2,320,4|4|8,0:0|0:0|0:0,0:0:0:0:
348,180,128740,101,0,0:0:0:0:
360,120,128881,1,0,0:0:0:0:
348,60,129021,1,0,0:0:0:0:
296,36,129162,1,0,0:0:0:0:
240,48,129256,2,0,L|152:68,1,80,0|4,0:0|0:0,0:0:0:0:
120,96,129412,2,0,L|104:40,5,40
120,136,129725,6,0,B|176:200|260:184|352:240,2,256,4|8|4,0:0|0:0|0:0,0:0:0:0:
232,104,130850,101,0,0:0:0:0:
238,81,130912,1,0,0:0:0:0:
251,62,130975,1,0,0:0:0:0:
270,48,131037,1,0,0:0:0:0:
292,41,131100,1,0,0:0:0:0:
315,41,131162,1,0,0:0:0:0:
337,48,131225,1,4,0:0:0:0:
355,63,131287,1,0,0:0:0:0:
368,82,131350,1,0,0:0:0:0:
374,104,131412,1,0,0:0:0:0:
373,127,131475,1,0,0:0:0:0:
364,149,131537,1,0,0:0:0:0:
356,168,131600,6,0,L|320:192,1,40,12|0,0:0|0:0,0:0:0:0:
320,224,131787,2,0,L|312:280,1,40
344,289,131975,2,0,L|376:320,1,40,4|0,0:0|0:0,0:0:0:0:
409,309,132162,2,0,L|448:312,1,40
468,280,132350,101,0,0:0:0:0:
489,270,132412,1,0,0:0:0:0:
504,253,132475,1,0,0:0:0:0:
512,231,132537,1,0,0:0:0:0:
510,208,132600,1,0,0:0:0:0:
499,187,132662,1,0,0:0:0:0:
481,173,132725,1,4,0:0:0:0:
459,166,132787,1,0,0:0:0:0:
436,169,132850,1,0,0:0:0:0:
416,181,132912,1,0,0:0:0:0:
402,200,132975,1,0,0:0:0:0:
397,223,133037,1,0,0:0:0:0:
400,240,133100,6,0,B|394:158|456:144|432:56,2,192,8|0|0,0:0|0:0|0:0,0:0:0:0:
256,192,133850,1,12,0:0:0:0:
56,192,134225,1,12,0:0:0:0:
120,308,134475,101,0,0:0:0:0:
120,308,134537,1,0,0:0:0:0:
120,308,134600,2,0,L|104:240,1,42.6666666666667,8|0,0:0|0:0,0:0:0:0:
128,108,134850,2,0,L|128:48,1,42.6666666666667,8|0,0:0|0:0,0:0:0:0:
344,88,135100,2,0,L|384:48,1,42.6666666666667,8|0,0:0|0:0,0:0:0:0:
256,192,135350,12,4,136850,0:0:0:0:
256,92,137225,101,4,0:0:0:0:
176,252,137600,85,4,0:0:0:0:
336,252,137975,21,4,0:0:0:0:
256,192,138350,85,14,0:0:0:0:
