osu file format v14

[General]
AudioFilename: 13 - Providence.mp3
AudioLeadIn: 0
PreviewTime: 84250
Countdown: 0
SampleSet: Normal
StackLeniency: 0.7
Mode: 0
LetterboxInBreaks: 1
EpilepsyWarning: 1
WidescreenStoryboard: 0

[Editor]
Bookmarks: 19750,31800,34800,46800,70800,96300,109050,123300,138300
DistanceSpacing: 1.4
BeatDivisor: 4
GridSize: 8
TimelineZoom: 2.2

[Metadata]
Title:Providence
TitleUnicode:Providence
Artist:S.S.H.
ArtistUnicode:S.S.H.
Creator:[_ NORTOR _]
Version:Insane
Source:eXceed3rd-JADE PENETRATE-BLACK PACKAGE
Tags:ssh speedcore tennen-sozai loli boss game Remedy STG NORTOR Video Game LonelyLost CaracalCaptain
BeatmapID:660978
BeatmapSetID:289590

[Difficulty]
HPDrainRate:6
CircleSize:3.5
OverallDifficulty:7
ApproachRate:9
SliderMultiplier:1.4
SliderTickRate:2

[Events]
//Background and Video events
0,0,"babg.jpg",0,0
//Break Periods
//Storyboard Layer 0 (Background)
//Storyboard Layer 1 (Fail)
//Storyboard Layer 2 (Pass)
//Storyboard Layer 3 (Foreground)
//Storyboard Sound Samples

[TimingPoints]
350,187.5,4,1,1,20,1,0
537,-100,4,1,1,27,0,0
725,-100,4,1,1,34,0,0
912,-100,4,1,1,41,0,0
1100,-100,4,1,1,48,0,0
1287,-100,4,1,1,55,0,0
1475,-100,4,1,1,62,0,0
1662,-100,4,1,1,69,0,0
1850,-100,4,1,1,63,0,1
1896,-100,4,1,1,63,0,0
7662,-100,4,1,1,30,0,0
7709,-100,4,1,1,63,0,0
7850,-133.333333333333,4,1,1,63,0,0
13475,-133.333333333333,4,1,1,5,0,0
13568,-133.333333333333,4,1,1,63,0,0
13850,-100,4,1,1,63,0,1
13896,-100,4,1,1,63,0,0
18350,-100,4,2,0,63,0,0
19006,-100,4,2,0,5,0,0
19100,-100,4,1,1,63,0,0
19850,-100,4,1,1,63,0,1
24350,-100,4,1,2,63,0,1
25475,-100,4,1,1,63,0,0
25756,-100,4,1,1,30,0,0
25850,-100,4,1,1,63,0,1
30350,-100,4,1,2,63,0,1
31475,-200,4,1,1,63,0,0
33256,-200,4,1,1,5,0,0
33350,-200,4,1,1,63,0,0
46100,-100,4,1,1,63,0,0
49850,-133.333333333333,4,1,3,63,0,0
52850,-100,4,1,1,63,0,0
55850,-100,4,1,3,63,0,0
57350,-100,4,1,1,40,0,0
58100,-100,4,1,1,63,0,0
61850,-133.333333333333,4,1,3,63,0,0
63725,-133.333333333333,4,1,3,40,0,0
64006,-100,4,1,1,63,0,0
67850,-100,4,1,3,63,0,0
69350,-100,4,1,1,63,0,0
70850,-100,4,1,1,63,0,1
70896,-100,4,1,1,50,0,0
76850,-200,4,1,1,50,0,0
81350,-100,4,1,1,50,0,0
84350,-66.6666666666667,4,1,1,70,0,1
85287,-100,4,1,1,70,0,1
85662,-66.6666666666667,4,1,1,70,0,1
86787,-100,4,1,1,70,0,1
87162,-66.6666666666667,4,1,1,70,0,1
88287,-100,4,1,1,70,0,1
88662,-66.6666666666667,4,1,1,70,0,1
96303,-66.6666666666667,4,1,1,70,0,0
96350,-66.6666666666667,4,1,1,70,0,1
97287,-100,4,1,1,70,0,1
97662,-66.6666666666667,4,1,1,70,0,1
98787,-100,4,1,1,70,0,1
99162,-66.6666666666667,4,1,1,70,0,1
100287,-100,4,1,1,70,0,1
100662,-66.6666666666667,4,1,1,70,0,1
108912,-100,4,1,1,63,0,0
111350,-125,4,1,3,63,0,0
123256,-125,4,2,0,5,0,0
123303,-125,4,1,3,63,0,0
123725,-125,4,1,4,63,0,0
123818,-125,4,1,3,63,0,0
124100,-166.666666666667,4,1,1,63,0,0
124475,-166.666666666667,4,1,4,63,0,0
124568,-166.666666666667,4,1,3,63,0,0
125225,-166.666666666667,4,1,4,63,0,0
125318,-166.666666666667,4,1,3,63,0,0
125600,-100,4,1,3,63,0,0
126350,-100,4,1,3,63,0,0
129725,-125,4,1,3,63,0,0
130850,-100,4,1,3,63,0,0
131600,-200,4,1,3,63,0,0
132350,-100,4,1,3,63,0,0
138350,-125,4,1,1,63,0,1
138396,-125,4,1,1,63,0,0

[Colours]
Combo1 : 128,0,0
Combo2 : 132,66,0
Combo3 : 255,0,0
Combo4 : 238,238,238
Combo5 : 128,128,128
Combo6 : 255,0,128
Combo7 : 128,0,128
Combo8 : 0,0,255

[HitObjects]
256,128,350,6,0,L|256:40,1,70
256,256,537,2,0,L|256:344,1,70
301,146,725,2,0,L|363:84,1,70
210,237,912,2,0,L|148:299,1,70
320,192,1100,2,0,L|408:192,1,70
192,192,1287,2,0,L|104:192,1,70
301,237,1475,2,0,L|363:299,1,70
210,146,1662,2,0,L|148:84,1,70
256,192,1850,101,12,0:0:0:0:
80,120,3162,54,12,L|80:272,1,140
432,120,4287,1,12,0:0:0:0:
432,260,4568,1,12,0:0:0:0:
432,120,4850,1,12,0:0:0:0:
256,48,6162,1,12,0:0:0:0:
256,192,6350,1,12,0:0:0:0:
144,304,6631,1,12,0:0:0:0:
368,304,6912,1,12,0:0:0:0:
256,192,7100,1,12,0:0:0:0:
208,120,7287,101,8,0:0:0:0:
304,120,7381,1,8,0:0:0:0:
256,192,7475,2,2,L|256:368,1,140,6|2,0:0|0:0,0:0:0:0:
256,192,7850,12,0,9350,0:0:0:0:
256,192,9443,12,0,10850,0:0:0:0:
256,192,10943,12,0,12350,0:0:0:0:
256,192,12443,12,0,13475,2:0:0:0:
256,176,13568,5,8,0:0:0:0:
256,176,13662,1,8,0:0:0:0:
256,176,13756,1,8,0:0:0:0:
264,104,13850,102,0,B|320:96|360:128|360:128|432:128,1,140,4|8,0:0|0:0,0:0:0:0:
168,176,14225,2,0,B|160:120|192:80|192:80|192:8,1,140,4|8,0:0|0:0,0:0:0:0:
240,280,14600,2,0,B|184:288|144:256|144:256|72:256,1,140,4|8,0:0|0:0,0:0:0:0:
344,208,14975,2,0,B|352:264|320:304|320:304|320:376,1,140,4|8,0:0|0:0,0:0:0:0:
264,104,15350,6,0,B|320:96|360:128|360:128|432:128,1,140,4|8,0:0|0:0,0:0:0:0:
168,176,15725,2,0,B|160:120|192:80|192:80|192:8,1,140,4|8,0:0|0:0,0:0:0:0:
240,280,16100,2,0,B|184:288|144:256|144:256|72:256,1,140,4|8,0:0|0:0,0:0:0:0:
344,208,16475,2,0,B|352:264|320:304|320:304|320:376,1,140,4|8,0:0|0:0,0:0:0:0:
105,256,16850,102,0,B|144:256|144:256|184:288|240:280,1,140,4|8,0:0|0:0,0:0:0:0:
192,41,17225,2,0,B|192:80|192:80|160:120|168:176,1,140,4|8,0:0|0:0,0:0:0:0:
398,128,17600,2,8,B|360:128|360:128|320:96|264:104,1,140,4|8,0:0|0:0,0:0:0:0:
320,342,17975,2,0,B|320:304|320:304|352:264|344:208,1,140,4|8,0:0|0:0,0:0:0:0:
256,192,18350,12,0,19006,0:0:0:0:
352,216,19100,6,8,P|320:280|280:320,3,70
160,216,19475,102,8,P|192:280|232:320,3,70
96,368,19850,22,0,P|40:288|48:224,1,140,2|8,0:0|0:0,0:0:0:0:
160,216,20131,1,0,0:0:0:0:
244,155,20225,2,0,P|188:115|120:112,1,140,2|8,0:0|0:0,0:0:0:0:
200,352,20600,2,0,L|304:352,1,70
336,256,20787,2,0,L|240:256,1,70,8|0,0:0|0:0,0:0:0:0:
344,152,20975,2,0,L|448:152,1,70
480,56,21162,2,0,L|384:56,1,70,8|0,0:0|0:0,0:0:0:0:
288,32,21350,6,0,B|224:64|224:64|208:16|152:0,1,140,2|8,0:0|0:0,0:0:0:0:
120,112,21631,1,2,0:0:0:0:
128,272,21818,1,0,0:0:0:0:
181,371,21912,2,0,B|208:368|224:320|224:320|288:352,1,140,10|0,0:0|0:0,0:0:0:0:
406,256,22287,2,0,L|310:256,1,70,10|0,0:0|0:0,0:0:0:0:
184,200,22475,2,0,L|280:200,1,70,2|0,0:0|0:0,0:0:0:0:
414,152,22662,2,0,L|318:152,1,70,10|0,0:0|0:0,0:0:0:0:
216,80,22850,102,0,P|280:40|360:32,1,140,2|8,0:0|0:0,0:0:0:0:
344,152,23131,1,0,0:0:0:0:
342,281,23225,2,0,P|274:269|216:232,1,140,2|8,0:0|0:0,0:0:0:0:
0,56,23600,2,0,L|80:56,1,70
112,152,23787,2,0,L|16:152,1,70,8|0,0:0|0:0,0:0:0:0:
80,248,23975,2,0,L|168:248,1,70
192,344,24162,2,0,L|96:344,1,70,8|0,0:0|0:0,0:0:0:0:
232,288,24350,6,0,L|216:136,1,140,10|0,0:0|0:0,0:0:0:0:
288,232,24631,2,0,L|304:88,1,140,10|0,0:0|0:0,0:0:0:0:
360,184,24912,2,0,L|408:40,1,140,10|0,0:0|0:0,0:0:0:0:
440,160,25193,2,0,L|520:24,1,140,10|0,0:0|0:0,0:0:0:0:
404,51,25475,70,2,B|324:43|292:115|188:139,1,210,10|0,0:0|0:0,0:0:0:0:
168,24,25850,22,0,B|128:16|88:80|32:72,1,140,2|8,0:0|0:0,0:0:0:0:
16,184,26131,1,0,0:0:0:0:
40,296,26225,2,0,B|88:288|128:352|168:344,1,140,2|8,0:0|0:0,0:0:0:0:
392,336,26600,2,0,L|312:280,1,70
304,128,26787,2,0,L|384:184,1,70,8|0,0:0|0:0,0:0:0:0:
242,276,26975,2,0,L|298:196,1,70
450,188,27162,2,0,L|394:268,1,70,8|0,0:0|0:0,0:0:0:0:
392,336,27350,6,0,B|336:296|336:296|320:352|272:360,1,140,2|8,0:0|0:0,0:0:0:0:
242,276,27631,1,2,0:0:0:0:
304,128,27818,1,0,0:0:0:0:
250,51,27912,2,0,B|226:52|210:108|210:108|154:68,1,140,10|0,0:0|0:0,0:0:0:0:
16,112,28287,2,0,L|96:176,1,70,10|0,0:0|0:0,0:0:0:0:
112,296,28475,2,0,L|112:200,1,70,2|0,0:0|0:0,0:0:0:0:
208,112,28662,2,0,L|128:176,1,70,10|0,0:0|0:0,0:0:0:0:
242,276,28850,102,0,B|296:224|296:224|352:224|376:184,1,140,2|8,0:0|0:0,0:0:0:0:
304,128,29131,1,0,0:0:0:0:
208,112,29225,2,0,B|208:184|208:184|168:208|152:248,1,140,2|8,0:0|0:0,0:0:0:0:
304,344,29600,2,0,L|392:344,1,70
472,232,29787,2,0,L|392:232,1,70,8|0,0:0|0:0,0:0:0:0:
304,128,29975,2,0,L|400:128,1,70
472,16,30162,2,0,L|376:16,1,70,8|0,0:0|0:0,0:0:0:0:
248,32,30350,6,2,B|208:112|208:112|152:160,1,140,10|0,0:0|0:0,0:0:0:0:
96,200,30631,2,2,B|176:240|176:240|224:296,1,140,10|0,0:0|0:0,0:0:0:0:
264,352,30912,2,2,B|304:272|304:272|360:224,1,140,10|0,0:0|0:0,0:0:0:0:
416,183,31193,2,2,B|336:144|336:144|288:88,1,140,10|0,0:0|0:0,0:0:0:0:
256,192,31475,69,6,0:0:0:0:
166,261,31850,2,4,P|256:308|352:252,1,210,6|6,0:0|0:0,0:0:0:0:
256,192,32506,12,2,33256,2:0:0:0:
184,200,33350,6,0,B|296:192|296:320|416:312,1,262.5,2|0,0:0|2:0,0:0:0:0:
416,288,34100,102,0,L|496:224,1,87.5,2|0,0:0|2:0,0:0:0:0:
424,224,34381,2,0,L|464:136,1,87.5,2|0,0:0|0:0,2:0:0:0:
408,168,34662,1,2,0:0:0:0:
96,80,34850,54,0,L|144:184,1,105,6|0,0:0|0:0,0:0:0:0:
160,216,35225,1,4,0:0:0:0:
184,264,35318,1,0,0:0:0:0:
200,304,35412,1,0,0:0:0:0:
192,80,35600,2,0,L|240:184,1,105,4|0,0:0|0:0,0:0:0:0:
256,216,35975,1,4,0:0:0:0:
280,264,36068,1,0,0:0:0:0:
296,304,36162,1,0,0:0:0:0:
288,80,36350,2,0,L|336:184,1,105,4|0,0:0|0:0,0:0:0:0:
352,216,36725,1,4,0:0:0:0:
480,320,37287,54,2,L|480:200,1,105
416,80,37850,54,0,L|368:184,1,105,6|0,0:0|0:0,0:0:0:0:
352,216,38225,1,4,0:0:0:0:
328,264,38318,1,0,0:0:0:0:
312,304,38412,1,0,0:0:0:0:
320,80,38600,2,0,L|272:184,1,105,4|0,0:0|0:0,0:0:0:0:
256,216,38975,1,4,0:0:0:0:
232,264,39068,1,0,0:0:0:0:
216,304,39162,1,0,0:0:0:0:
224,80,39350,2,0,L|176:184,1,105,4|0,0:0|0:0,0:0:0:0:
160,216,39725,1,4,0:0:0:0:
32,320,40287,54,2,L|32:200,1,105
48,48,40850,54,0,L|152:48,1,105,6|0,0:0|0:0,0:0:0:0:
200,48,41225,1,4,0:0:0:0:
248,48,41318,1,0,0:0:0:0:
296,48,41412,1,0,0:0:0:0:
464,144,41600,2,0,L|360:144,1,105,4|0,0:0|0:0,0:0:0:0:
312,144,41975,1,4,0:0:0:0:
264,144,42068,1,0,0:0:0:0:
216,144,42162,1,0,0:0:0:0:
48,240,42350,2,0,L|152:240,1,105,4|0,0:0|0:0,0:0:0:0:
200,240,42725,1,4,0:0:0:0:
312,144,43287,54,2,L|384:240,1,105
464,336,43850,54,0,L|360:336,1,105,6|0,0:0|0:0,0:0:0:0:
312,336,44225,1,4,0:0:0:0:
264,336,44318,1,0,0:0:0:0:
216,336,44412,1,0,0:0:0:0:
48,240,44600,2,0,L|152:240,1,105,4|0,0:0|0:0,0:0:0:0:
200,240,44975,1,4,0:0:0:0:
248,240,45068,1,0,0:0:0:0:
296,240,45162,1,0,0:0:0:0:
464,144,45350,2,0,L|360:144,1,105,4|0,0:0|0:0,0:0:0:0:
312,144,45725,1,4,0:0:0:0:
120,112,46100,54,8,P|176:56|320:32,2,210
208,256,46850,85,4,0:0:0:0:
240,256,46943,1,0,0:0:0:0:
272,256,47037,1,0,0:0:0:0:
304,256,47131,1,0,0:0:0:0:
336,256,47225,2,0,L|400:320,3,70,8|0|0|0,0:0|0:0|0:0|0:0,0:0:0:0:
336,224,47600,1,4,0:0:0:0:
336,192,47693,1,0,0:0:0:0:
336,160,47787,1,0,0:0:0:0:
336,128,47881,1,0,0:0:0:0:
336,96,47975,2,0,L|400:32,3,70,8|0|0|0,0:0|0:0|0:0|0:0,0:0:0:0:
304,96,48350,69,4,0:0:0:0:
272,96,48443,1,0,0:0:0:0:
240,96,48537,1,0,0:0:0:0:
208,96,48631,1,0,0:0:0:0:
176,96,48725,2,0,L|112:32,3,70,8|0|0|0,0:0|0:0|0:0|0:0,0:0:0:0:
176,128,49100,1,4,0:0:0:0:
176,160,49193,1,0,0:0:0:0:
176,192,49287,1,0,0:0:0:0:
176,224,49381,1,0,0:0:0:0:
176,256,49475,2,0,L|112:320,3,70,8|0|0|0,0:0|0:0|0:0|0:0,0:0:0:0:
256,352,49850,38,0,P|336:272|328:216,1,157.500006008148,4|0,0:0|0:0,0:0:0:0:
334,235,50225,1,12,0:0:0:0:
334,235,50318,2,0,L|396:207,1,52.5000020027161
394,112,50600,2,0,P|285:82|240:117,1,157.500006008148,4|0,0:0|0:0,0:0:0:0:
254,102,50975,1,12,0:0:0:0:
254,102,51068,2,0,L|199:62,1,52.5000020027161
117,112,51350,2,0,P|146:221|199:242,1,157.500006008148,4|0,0:0|0:0,0:0:0:0:
179,238,51725,1,12,0:0:0:0:
179,238,51818,2,0,L|171:305,1,52.5000020027161
256,192,52100,69,8,0:0:0:0:
256,208,52193,1,0,0:0:0:0:
256,224,52287,1,0,0:0:0:0:
256,240,52381,1,8,0:0:0:0:
256,256,52475,1,0,0:0:0:0:
256,272,52568,1,0,0:0:0:0:
256,288,52662,1,8,0:0:0:0:
256,304,52756,1,8,0:0:0:0:
288,320,52850,37,4,0:0:0:0:
320,288,52943,1,0,0:0:0:0:
352,256,53037,1,0,0:0:0:0:
384,224,53131,1,0,0:0:0:0:
416,192,53225,2,0,L|512:192,3,70,8|0|0|0,0:0|0:0|0:0|0:0,0:0:0:0:
384,160,53600,1,4,0:0:0:0:
352,128,53693,1,0,0:0:0:0:
320,96,53787,1,0,0:0:0:0:
288,64,53881,1,0,0:0:0:0:
256,32,53975,2,0,L|256:160,3,70,8|0|0|0,0:0|0:0|0:0|0:0,0:0:0:0:
224,64,54350,69,4,0:0:0:0:
192,96,54443,1,0,0:0:0:0:
160,128,54537,1,0,0:0:0:0:
128,160,54631,1,0,0:0:0:0:
96,192,54725,2,0,L|0:192,3,70,8|0|0|0,0:0|0:0|0:0|0:0,0:0:0:0:
128,224,55100,1,4,0:0:0:0:
160,256,55193,1,0,0:0:0:0:
192,288,55287,1,0,0:0:0:0:
224,320,55381,1,0,0:0:0:0:
256,352,55475,2,0,L|256:256,3,70,8|0|0|0,0:0|0:0|0:0|0:0,0:0:0:0:
256,192,55850,37,4,0:0:0:0:
352,144,56131,2,0,L|352:64,1,70,8|4,0:0|0:0,0:0:0:0:
256,52,56412,2,0,L|256:192,1,140,8|12,0:0|0:0,0:0:0:0:
64,192,56975,1,12,0:0:0:0:
448,192,57350,70,0,L|448:288,7,70
416,352,58100,1,8,0:0:0:0:
320,256,58381,1,8,0:0:0:0:
352,96,58662,1,8,0:0:0:0:
136,120,58850,37,4,0:0:0:0:
136,168,58943,1,0,0:0:0:0:
136,216,59037,1,0,0:0:0:0:
136,264,59131,1,0,0:0:0:0:
136,312,59225,2,0,L|72:376,3,70,8|0|0|0,0:0|0:0|0:0|0:0,0:0:0:0:
184,312,59600,1,4,0:0:0:0:
232,312,59693,1,0,0:0:0:0:
280,312,59787,1,0,0:0:0:0:
328,312,59881,1,0,0:0:0:0:
376,312,59975,2,0,L|440:376,3,70,8|0|0|0,0:0|0:0|0:0|0:0,0:0:0:0:
376,264,60350,69,4,0:0:0:0:
376,216,60443,1,0,0:0:0:0:
376,168,60537,1,0,0:0:0:0:
376,120,60631,1,0,0:0:0:0:
376,72,60725,2,0,L|440:8,3,70,8|0|0|0,0:0|0:0|0:0|0:0,0:0:0:0:
328,72,61100,1,4,0:0:0:0:
280,72,61193,1,0,0:0:0:0:
232,72,61287,1,0,0:0:0:0:
184,72,61381,1,0,0:0:0:0:
136,72,61475,2,0,L|72:8,3,70,8|0|0|0,0:0|0:0|0:0|0:0,0:0:0:0:
56,112,61850,38,0,P|104:200|80:272,1,157.500006008148,4|0,0:0|0:0,0:0:0:0:
92,251,62225,1,12,0:0:0:0:
92,251,62318,2,0,P|72:304|64:312,1,52.5000020027161
168,336,62600,2,0,P|256:288|328:312,1,157.500006008148,4|0,0:0|0:0,0:0:0:0:
307,299,62975,1,12,0:0:0:0:
307,299,63068,2,0,P|359:319|367:327,1,52.5000020027161
392,168,63350,69,12,0:0:0:0:
383,161,63443,1,8,0:0:0:0:
371,153,63537,1,8,0:0:0:0:
358,138,63631,1,0,0:0:0:0:
344,120,63725,1,4,0:0:0:0:
331,99,63818,1,0,0:0:0:0:
322,71,63912,1,0,0:0:0:0:
320,42,64006,2,0,P|276:69|226:73,8,70
204,52,64849,37,4,0:0:0:0:
153,88,64943,1,0,0:0:0:0:
102,121,65037,1,0,0:0:0:0:
50,153,65131,1,0,0:0:0:0:
0,192,65224,2,0,L|96:192,3,70,8|0|0|0,0:0|0:0|0:0|0:0,0:0:0:0:
50,231,65600,1,4,0:0:0:0:
102,263,65694,1,0,0:0:0:0:
153,296,65788,1,0,0:0:0:0:
204,332,65882,1,0,0:0:0:0:
256,368,65975,2,0,L|256:288,3,70,8|0|0|0,0:0|0:0|0:0|0:0,0:0:0:0:
308,332,66350,69,4,0:0:0:0:
359,296,66444,1,0,0:0:0:0:
410,263,66538,1,0,0:0:0:0:
462,231,66632,1,0,0:0:0:0:
512,192,66725,2,0,L|416:192,3,70,8|0|0|0,0:0|0:0|0:0|0:0,0:0:0:0:
462,153,67101,1,4,0:0:0:0:
410,121,67193,1,0,0:0:0:0:
359,88,67287,1,0,0:0:0:0:
308,52,67381,1,0,0:0:0:0:
256,16,67476,2,0,L|256:96,3,70,8|0|0|0,0:0|0:0|0:0|0:0,0:0:0:0:
192,128,67850,37,4,0:0:0:0:
192,256,68037,2,0,L|192:336,2,70,0|0|12,0:0|0:0|0:0,0:0:0:0:
320,128,68412,1,0,0:0:0:0:
320,256,68600,2,0,L|320:336,2,70,4|0|0,0:0|0:0|0:0,0:0:0:0:
256,192,68881,1,0,0:0:0:0:
192,128,68975,2,0,L|96:128,2,70,12|0|0,0:0|0:0|0:0,0:0:0:0:
416,288,69350,69,8,0:0:0:0:
96,96,69725,1,8,0:0:0:0:
176,272,70100,1,8,0:0:0:0:
336,112,70381,1,8,0:0:0:0:
256,192,70662,70,0,L|256:136,3,35
256,192,70850,6,0,L|256:336,1,140,14|8,0:0|0:0,0:0:0:0:
368,352,71225,1,2,0:0:0:0:
368,352,71318,1,0,0:0:0:0:
368,352,71412,1,8,0:0:0:0:
408,240,71600,2,0,P|376:192|400:96,1,140,6|8,0:0|0:0,0:0:0:0:
320,40,71881,1,0,0:0:0:0:
219,44,71975,2,0,P|180:101|114:118,1,140,2|8,0:0|0:0,0:0:0:0:
64,168,72350,101,6,0:0:0:0:
80,208,72443,1,2,0:0:0:0:
112,248,72537,1,10,0:0:0:0:
152,272,72631,1,2,0:0:0:0:
192,280,72725,2,2,L|192:360,1,70
232,288,72912,2,2,L|232:376,1,70,10|2,0:0|0:0,0:0:0:0:
280,288,73100,5,2,0:0:0:0:
320,280,73193,1,2,0:0:0:0:
360,272,73287,1,10,0:0:0:0:
400,248,73381,1,2,0:0:0:0:
432,208,73475,2,2,B|472:208|472:208|504:200,1,70
448,168,73662,2,2,B|480:160|480:160|512:128,1,70,10|2,0:0|0:0,0:0:0:0:
448,128,73850,102,0,P|392:168|312:160,1,140,6|8,0:0|0:0,0:0:0:0:
352,40,74225,1,2,0:0:0:0:
352,40,74318,1,0,0:0:0:0:
352,40,74412,1,8,0:0:0:0:
240,112,74600,2,0,P|232:200|280:248,1,140,6|8,0:0|0:0,0:0:0:0:
448,128,74975,1,2,0:0:0:0:
448,128,75068,1,0,0:0:0:0:
448,128,75162,1,8,0:0:0:0:
408,288,75350,6,2,L|488:288,2,70,6|2|10,0:0|0:0|0:0,0:0:0:0:
328,288,75631,2,2,L|96:288,1,210,2|8,0:0|0:0,0:0:0:0:
104,192,76100,102,2,L|24:192,2,70,6|2|10,0:0|0:0|0:0,0:0:0:0:
184,192,76381,2,2,L|416:192,1,210,2|8,0:0|0:0,0:0:0:0:
394,192,76756,1,0,0:0:0:0:
416,176,76850,5,6,0:0:0:0:
415,141,76943,1,0,0:0:0:0:
403,108,77037,1,8,0:0:0:0:
381,81,77131,1,0,0:0:0:0:
351,63,77225,1,2,0:0:0:0:
317,56,77318,1,0,0:0:0:0:
282,61,77412,1,8,0:0:0:0:
251,77,77506,1,0,0:0:0:0:
227,103,77600,101,2,0:0:0:0:
213,134,77693,1,0,0:0:0:0:
211,169,77787,1,8,0:0:0:0:
220,203,77881,1,0,0:0:0:0:
240,231,77975,1,2,0:0:0:0:
268,252,78068,1,0,0:0:0:0:
301,262,78162,1,8,0:0:0:0:
336,260,78256,1,0,0:0:0:0:
368,256,78350,6,0,L|408:320,1,70,6|8,0:0|0:0,0:0:0:0:
376,328,78631,1,0,0:0:0:0:
342,336,78724,1,2,0:0:0:0:
307,338,78818,1,0,0:0:0:0:
272,333,78912,1,8,0:0:0:0:
239,321,79006,1,0,0:0:0:0:
209,303,79099,101,2,0:0:0:0:
183,279,79193,1,0,0:0:0:0:
162,251,79287,1,8,0:0:0:0:
147,220,79381,1,0,0:0:0:0:
139,186,79474,1,2,0:0:0:0:
137,151,79568,1,0,0:0:0:0:
142,116,79662,1,8,0:0:0:0:
154,84,79756,1,0,0:0:0:0:
168,56,79850,6,0,L|112:8,1,70,6|8,0:0|0:0,0:0:0:0:
104,32,80131,1,0,0:0:0:0:
87,62,80224,1,2,0:0:0:0:
74,95,80318,1,0,0:0:0:0:
67,129,80412,1,8,0:0:0:0:
64,164,80506,1,0,0:0:0:0:
67,199,80599,101,2,0:0:0:0:
74,233,80693,1,0,0:0:0:0:
87,265,80787,1,8,0:0:0:0:
104,296,80881,1,0,0:0:0:0:
125,324,80974,1,2,0:0:0:0:
150,348,81068,1,0,0:0:0:0:
179,368,81162,1,8,0:0:0:0:
216,384,81256,1,0,0:0:0:0:
256,344,81350,85,14,0:0:0:0:
160,176,81537,1,0,0:0:0:0:
160,176,81631,1,14,0:0:0:0:
344,176,81818,1,0,0:0:0:0:
344,176,81912,1,14,0:0:0:0:
160,264,82100,1,12,0:0:0:0:
256,112,82381,1,12,0:0:0:0:
344,264,82662,1,12,0:0:0:0:
256,192,82756,12,0,83412,0:0:0:0:
416,32,83600,102,8,L|416:112,1,70
256,192,83881,2,8,L|256:112,1,70
96,32,84162,2,8,L|96:112,1,70
64,192,84350,22,0,P|144:224|160:256,1,105.000004005432,6|0,0:0|0:0,0:0:0:0:
128,368,84537,2,0,P|80:304|80:272,1,105.000004005432,10|0,0:0|0:0,0:0:0:0:
192,176,84725,1,6,0:0:0:0:
320,176,84818,1,0,0:0:0:0:
433,281,84912,2,0,P|421:332|384:368,1,105.000004005432,10|0,0:0|0:0,0:0:0:0:
359,236,85099,2,0,P|396:200|448:192,1,105.000004005432,6|0,0:0|0:0,0:0:0:0:
288,280,85287,2,0,L|200:280,3,70,10|0|0|0,0:0|0:0|0:0|0:0,0:0:0:0:
218,280,85662,85,10,0:0:0:0:
16,160,85850,22,0,B|16:224|16:224|56:280,1,105.000004005432,6|0,0:0|0:0,0:0:0:0:
128,240,86037,2,0,L|128:128,1,105.000004005432,10|0,0:0|0:0,0:0:0:0:
192,48,86225,1,6,0:0:0:0:
320,48,86318,1,0,0:0:0:0:
384,135,86412,2,0,L|384:240,1,105.000004005432,10|0,0:0|0:0,0:0:0:0:
472,256,86600,2,0,B|496:223|496:223|496:159,1,105.000004005432,6|0,0:0|0:0,0:0:0:0:
292,192,86787,2,0,L|220:192,3,70,10|0|0|0,0:0|0:0|0:0|0:0,0:0:0:0:
222,192,87162,85,10,0:0:0:0:
160,144,87350,22,0,P|128:112|32:112,1,105.000004005432,6|0,0:0|0:0,0:0:0:0:
56,224,87537,2,0,B|56:272|56:272|120:336,1,105.000004005432,10|0,0:0|0:0,0:0:0:0:
200,352,87725,1,6,0:0:0:0:
312,352,87818,1,0,0:0:0:0:
415,312,87912,2,0,B|456:272|456:272|456:224,1,105.000004005432,10|0,0:0|0:0,0:0:0:0:
440,99,88099,2,0,P|389:108|352:144,1,105.000004005432,6|0,0:0|0:0,0:0:0:0:
256,192,88287,2,0,L|256:96,3,70,10|0|0|0,0:0|0:0|0:0|0:0,0:0:0:0:
256,122,88662,85,10,0:0:0:0:
64,80,88850,22,0,P|64:192|160:272,1,210.000008010865,6|8,0:0|0:0,0:0:0:0:
256,280,89131,1,0,0:0:0:0:
384,259,89225,2,0,P|451:182|448:80,1,210.000008010865,6|8,0:0|0:0,0:0:0:0:
176,80,89600,2,0,L|176:192,1,105.000004005432,2|0,0:0|0:0,0:0:0:0:
336,184,89787,2,0,L|336:79,1,105.000004005432,10|0,0:0|0:0,0:0:0:0:
256,144,89975,2,2,L|256:368,1,210.000008010865,2|8,0:0|0:0,0:0:0:0:
112,320,90350,86,12,B|176:320|176:320|256:256|336:320|336:320|416:320,2,315.000012016297,14|14|14,0:0|0:0|0:0,0:0:0:0:
0,224,91100,22,0,L|144:224,1,105.000004005432,6|0,0:0|0:0,0:0:0:0:
192,144,91287,2,0,L|48:144,1,105.000004005432,10|0,0:0|0:0,0:0:0:0:
96,32,91475,2,0,L|256:32,1,105.000004005432,6|0,0:0|0:0,0:0:0:0:
416,32,91662,2,0,L|256:32,1,105.000004005432,10|0,0:0|0:0,0:0:0:0:
320,144,91850,2,0,L|464:144,1,105.000004005432,6|0,0:0|0:0,0:0:0:0:
512,224,92037,2,0,L|368:224,1,105.000004005432,10|0,0:0|0:0,0:0:0:0:
400,352,92225,1,6,0:0:0:0:
112,352,92412,86,12,P|256:224|400:352,1,420.000016021729,14|14,0:0|0:0,0:0:0:0:
256,336,93162,53,10,0:0:0:0:
256,336,93256,1,10,0:0:0:0:
192,272,93350,86,0,L|64:272,1,105.000004005432,4|0,0:0|0:0,0:0:0:0:
16,192,93537,2,0,L|144:192,1,105.000004005432,10|0,0:0|0:0,0:0:0:0:
224,112,93725,2,0,L|64:112,1,105.000004005432,6|0,0:0|0:0,0:0:0:0:
80,16,93912,2,0,L|224:16,1,105.000004005432,10|0,0:0|0:0,0:0:0:0:
432,16,94100,86,0,L|288:16,1,105.000004005432,4|0,0:0|0:0,0:0:0:0:
288,112,94287,2,0,L|448:112,1,105.000004005432,10|0,0:0|0:0,0:0:0:0:
496,192,94475,2,0,L|368:192,1,105.000004005432,6|0,0:0|0:0,0:0:0:0:
320,272,94662,2,0,L|448:272,1,105.000004005432,10|0,0:0|0:0,0:0:0:0:
400,368,94850,22,0,L|272:368,1,105.000004005432,4|0,0:0|0:0,0:0:0:0:
112,368,95037,2,0,L|240:368,1,105.000004005432,10|0,0:0|0:0,0:0:0:0:
400,272,95225,2,0,L|287:272,1,105.000004005432,6|0,0:0|0:0,0:0:0:0:
112,272,95412,2,0,L|217:272,1,105.000004005432,10|0,0:0|0:0,0:0:0:0:
256,192,95600,86,8,L|256:128,3,52.5000020027161
256,192,95787,1,8,0:0:0:0:
256,192,95881,1,8,0:0:0:0:
256,192,95975,1,8,0:0:0:0:
256,192,96068,1,8,0:0:0:0:
256,192,96162,1,8,0:0:0:0:
256,192,96256,1,8,0:0:0:0:
217,272,96350,22,0,P|201:336|169:368,1,105.000004005432,6|0,0:0|0:0,0:0:0:0:
112,272,96537,2,0,P|128:208|192:176,1,105.000004005432,10|0,0:0|0:0,0:0:0:0:
354,185,96725,2,0,P|391:221|399:273,1,105.000004005432,6|0,0:0|0:0,0:0:0:0:
336,368,96912,2,0,P|304:328|295:277,1,105.000004005432,10|0,0:0|0:0,0:0:0:0:
312,128,97100,1,6,0:0:0:0:
200,128,97193,1,0,0:0:0:0:
224,16,97287,2,0,L|304:16,3,70,10|0|0|0,0:0|0:0|0:0|0:0,0:0:0:0:
294,16,97662,85,10,0:0:0:0:
456,216,97850,22,0,P|408:264|344:264,1,105.000004005432,6|0,0:0|0:0,0:0:0:0:
132,184,98037,2,0,L|240:256,1,105.000004005432,10|0,0:0|0:0,0:0:0:0:
380,184,98225,2,0,L|272:256,1,105.000004005432,6|0,0:0|0:0,0:0:0:0:
56,216,98412,2,0,P|104:264|168:264,1,105.000004005432,10|0,0:0|0:0,0:0:0:0:
320,336,98600,1,6,0:0:0:0:
192,336,98693,1,0,0:0:0:0:
256,224,98787,2,0,L|256:128,3,70,10|0|0|0,0:0|0:0|0:0|0:0,0:0:0:0:
256,154,99162,85,10,0:0:0:0:
180,74,99350,22,0,P|129:63|80:80,1,105.000004005432,6|0,0:0|0:0,0:0:0:0:
132,184,99537,2,0,P|128:240|176:304,1,105.000004005432,10|0,0:0|0:0,0:0:0:0:
362,282,99725,2,0,P|384:235|380:184,1,105.000004005432,6|0,0:0|0:0,0:0:0:0:
331,74,99912,2,0,P|382:63|432:80,1,105.000004005432,10|0,0:0|0:0,0:0:0:0:
320,144,100100,1,6,0:0:0:0:
192,144,100193,1,0,0:0:0:0:
219,219,100287,2,0,L|315:219,3,70,10|0|0|0,0:0|0:0|0:0|0:0,0:0:0:0:
289,219,100662,85,10,0:0:0:0:
24,152,100850,22,0,P|40:248|152:296,1,210.000008010865,6|8,0:0|0:0,0:0:0:0:
256,304,101131,1,0,0:0:0:0:
378,297,101225,2,0,P|469:251|488:152,1,210.000008010865,6|8,0:0|0:0,0:0:0:0:
208,168,101600,2,0,P|150:200|144:240,1,105.000004005432,2|0,0:0|0:0,0:0:0:0:
368,232,101787,2,0,P|351:185|302:170,1,105.000004005432,10|0,0:0|0:0,0:0:0:0:
256,105,101975,2,2,L|256:316,1,210.000008010865,2|8,0:0|0:0,0:0:0:0:
128,104,102350,86,12,P|255:26|391:120,2,315.000012016297,14|14|14,0:0|0:0|0:0,0:0:0:0:
16,192,103100,22,0,L|16:312,1,105.000004005432,6|0,0:0|0:0,0:0:0:0:
112,368,103287,2,0,L|112:240,1,105.000004005432,10|0,0:0|0:0,0:0:0:0:
208,192,103475,2,0,L|208:312,1,105.000004005432,6|0,0:0|0:0,0:0:0:0:
304,296,103662,2,0,L|304:191,1,105.000004005432,10|0,0:0|0:0,0:0:0:0:
400,256,103850,2,0,L|400:361,1,105.000004005432,6|0,0:0|0:0,0:0:0:0:
496,296,104037,2,0,L|496:191,1,105.000004005432,10|0,0:0|0:0,0:0:0:0:
399,119,104225,1,6,0:0:0:0:
112,120,104412,86,12,B|208:32|208:32|256:96|256:96|304:32|304:32|424:142,1,420.000016021729,14|14,0:0|0:0,0:0:0:0:
256,192,105162,53,10,0:0:0:0:
256,192,105255,1,10,0:0:0:0:
120,248,105350,86,0,B|176:264|176:264|224:272,1,105.000004005432,4|0,0:0|0:0,0:0:0:0:
408,344,105537,2,0,B|344:352|344:352|288:352,1,105.000004005432,10|0,0:0|0:0,0:0:0:0:
104,344,105725,2,0,B|168:352|168:352|224:352,1,105.000004005432,6|0,0:0|0:0,0:0:0:0:
392,248,105912,2,0,B|336:264|336:264|288:272,1,105.000004005432,10|0,0:0|0:0,0:0:0:0:
152,168,106100,86,0,P|184:112|232:88,1,105.000004005432,4|0,0:0|0:0,0:0:0:0:
360,168,106287,2,0,P|328:112|280:88,1,105.000004005432,10|0,0:0|0:0,0:0:0:0:
128,56,106475,2,0,P|186:17|243:9,1,105.000004005432,6|4,0:0|0:0,0:0:0:0:
384,56,106662,2,0,P|326:17|269:9,1,105.000004005432,10|0,0:0|0:0,0:0:0:0:
152,168,106850,22,0,P|200:224|200:280,1,105.000004005432,4|0,0:0|0:0,0:0:0:0:
360,168,107037,2,0,P|312:224|312:280,1,105.000004005432,10|0,0:0|0:0,0:0:0:0:
120,248,107225,2,0,P|144:313|214:332,1,105.000004005432,6|0,0:0|0:0,0:0:0:0:
392,248,107412,2,0,P|368:313|298:332,1,105.000004005432,10|0,0:0|0:0,0:0:0:0:
80,344,107600,85,14,0:0:0:0:
256,104,107975,21,14,0:0:0:0:
432,344,108162,85,14,0:0:0:0:
80,344,108350,21,14,0:0:0:0:
256,104,108631,85,14,0:0:0:0:
432,344,108912,2,2,P|320:304|240:200,1,210,14|0,0:0|0:0,0:0:0:0:
176,192,109287,6,0,L|96:192,2,70
336,192,109662,2,0,L|416:192,2,70
256,192,110225,1,4,0:0:0:0:
152,288,110600,2,4,L|392:288,2,210
96,256,111256,1,0,0:0:0:0:
112,192,111350,70,0,B|160:128|256:224|320:128,1,224,6|4,0:0|0:0,0:0:0:0:
427,127,112100,2,0,P|379:47|251:47,1,224,0|4,0:0|0:0,0:0:0:0:
315,134,112850,2,0,B|332:243|428:195|444:323,1,224,6|4,0:0|0:0,0:0:0:0:
320,320,113600,101,12,0:0:0:0:
320,320,113725,1,0,0:0:0:0:
320,320,113850,1,0,0:0:0:0:
232,192,113975,1,12,0:0:0:0:
232,192,114100,1,0,0:0:0:0:
232,192,114225,1,0,0:0:0:0:
160,64,114350,2,0,B|144:176|32:128|32:256,1,224,6|0,0:0|0:0,0:0:0:0:
160,300,115100,2,0,B|200:308|268:312|244:248|284:232|336:232|376:260,1,224,6|6,0:0|0:0,0:0:0:0:
480,112,115850,6,0,L|272:192,1,196,6|0,0:0|2:0,0:0:0:0:
304,128,116225,2,0,L|96:128,1,196,6|0,0:0|2:0,0:0:0:0:
80,80,116600,1,8,0:0:0:0:
80,80,116725,1,0,0:0:0:0:
80,80,116850,1,0,0:0:0:0:
0,176,116975,1,8,0:0:0:0:
0,176,117100,1,0,0:0:0:0:
0,176,117225,1,0,0:0:0:0:
112,192,117350,102,2,B|160:256|256:160|320:256,1,224,6|4,0:0|0:0,0:0:0:0:
427,257,118100,2,0,P|379:337|251:337,1,224,0|4,0:0|0:0,0:0:0:0:
315,250,118850,2,0,B|332:140|428:188|444:60,1,224,6|4,0:0|0:0,0:0:0:0:
320,64,119600,5,8,0:0:0:0:
320,64,119725,1,0,0:0:0:0:
320,64,119850,1,0,0:0:0:0:
224,184,119975,1,8,0:0:0:0:
224,184,120100,1,0,0:0:0:0:
224,184,120225,1,0,0:0:0:0:
160,320,120350,2,0,B|144:208|32:256|32:128,1,224,6|0,0:0|0:0,0:0:0:0:
160,84,121100,2,8,B|200:76|268:72|244:136|284:152|336:152|376:124,1,224,10|14,0:0|0:0,0:0:0:0:
256,192,121850,12,0,123256,0:0:0:0:
256,160,123350,102,0,P|328:168|424:104,2,168,12|8|8,0:0|0:0|0:0,0:0:0:0:
256,256,124100,6,0,B|160:256|160:144|64:96,1,251.999992309571,8|0,0:0|0:0,0:0:0:0:
69,99,124756,1,2,0:0:0:0:
69,99,124850,2,0,B|128:176|80:240|176:336,1,251.999992309571,12|0,0:0|0:0,0:0:0:0:
304,312,125600,101,8,0:0:0:0:
304,312,125725,1,0,0:0:0:0:
304,312,125850,1,0,0:0:0:0:
400,248,125975,1,12,0:0:0:0:
400,248,126100,1,0,0:0:0:0:
400,248,126225,1,0,0:0:0:0:
416,128,126350,102,0,L|480:64,3,70,4|0|0|0,0:0|0:0|0:0|0:0,0:0:0:0:
368,144,126725,1,4,0:0:0:0:
320,160,126818,1,0,0:0:0:0:
272,160,126912,1,0,0:0:0:0:
224,160,127006,1,0,0:0:0:0:
176,144,127100,102,0,L|96:80,3,70,8|0|0|0,0:0|0:0|0:0|0:0,0:0:0:0:
72,96,127475,1,4,0:0:0:0:
32,128,127568,1,0,0:0:0:0:
8,168,127662,1,0,0:0:0:0:
0,216,127756,1,0,0:0:0:0:
8,264,127850,6,0,P|72:336|80:216,1,280,4|4,0:0|0:0,0:0:0:0:
200,240,128600,5,8,0:0:0:0:
200,240,128725,1,0,0:0:0:0:
200,240,128850,1,0,0:0:0:0:
312,248,128975,1,12,0:0:0:0:
312,248,129100,1,0,0:0:0:0:
312,248,129225,1,0,0:0:0:0:
432,272,129350,6,0,B|480:256|480:256|448:240|448:240|296:104,1,280,4|4,0:0|0:0,0:0:0:0:
408,88,130100,2,0,B|352:40|352:40|280:0|184:32,1,224,8|4,0:0|0:0,0:0:0:0:
101,72,130850,70,0,L|144:128,3,70
176,168,131225,1,4,0:0:0:0:
208,208,131318,1,0,0:0:0:0:
240,248,131412,1,0,0:0:0:0:
272,288,131506,1,0,0:0:0:0:
320,312,131600,6,0,L|368:328,1,35,12|0,0:0|0:0,0:0:0:0:
368,280,131787,2,0,L|416:272,1,35
392,232,131975,2,0,L|424:200,1,35,4|0,0:0|0:0,0:0:0:0:
384,176,132162,2,0,L|392:136,1,35
408,88,132350,102,0,L|338:88,3,70
288,88,132725,1,4,0:0:0:0:
240,88,132818,1,0,0:0:0:0:
192,88,132912,1,0,0:0:0:0:
144,88,133006,1,0,0:0:0:0:
96,104,133100,6,0,P|40:152|136:304,1,280,8|4,0:0|0:0,0:0:0:0:
122,303,133662,1,0,0:0:0:0:
176,184,133850,1,8,0:0:0:0:
424,336,134225,1,8,0:0:0:0:
320,208,134475,86,0,L|368:144,2,46.6666666666667,0|0|8,0:0|0:0|0:0,0:0:0:0:
224,304,134850,85,8,0:0:0:0:
176,184,135100,21,8,0:0:0:0:
256,192,135350,12,0,136850,0:0:0:0:
256,192,137225,85,0,0:0:0:0:
256,192,137600,21,0,0:0:0:0:
256,192,137975,85,0,0:0:0:0:
256,192,138350,21,14,0:0:0:0:
