osu file format v14

[General]
AudioFilename: 13 - Providence.mp3
AudioLeadIn: 0
PreviewTime: 84250
Countdown: 0
SampleSet: Normal
StackLeniency: 0.7
Mode: 0
LetterboxInBreaks: 1
EpilepsyWarning: 1
WidescreenStoryboard: 0

[Editor]
Bookmarks: 19750,31800,34800,46800,70800,89600,96300,109050,123300,138300
DistanceSpacing: 1.4
BeatDivisor: 4
GridSize: 16
TimelineZoom: 2

[Metadata]
Title:Providence
TitleUnicode:Providence
Artist:S.S.H.
ArtistUnicode:S.S.H.
Creator:[_ NORTOR _]
Version:Hard
Source:eXceed3rd-JADE PENETRATE-BLACK PACKAGE
Tags:ssh speedcore tennen-sozai loli boss game Remedy STG NORTOR Video Game LonelyLost CaracalCaptain
BeatmapID:669679
BeatmapSetID:289590

[Difficulty]
HPDrainRate:5
CircleSize:3
OverallDifficulty:6
ApproachRate:8
SliderMultiplier:1
SliderTickRate:2

[Events]
//Background and Video events
0,0,"babg.jpg",0,0
//Break Periods
//Storyboard Layer 0 (Background)
//Storyboard Layer 1 (Fail)
//Storyboard Layer 2 (Pass)
//Storyboard Layer 3 (Foreground)
//Storyboard Sound Samples

[TimingPoints]
350,187.5,4,1,1,20,1,0
537,-100,4,1,1,27,0,0
725,-100,4,1,1,34,0,0
912,-100,4,1,1,41,0,0
1100,-100,4,1,1,48,0,0
1287,-100,4,1,1,55,0,0
1475,-100,4,1,1,62,0,0
1662,-100,4,1,1,69,0,0
1850,-100,4,1,1,63,0,1
1896,-100,4,1,1,63,0,0
7662,-100,4,1,1,30,0,0
7709,-100,4,1,1,63,0,0
7850,-133.333333333333,4,1,1,63,0,0
13850,-100,4,1,1,63,0,1
13896,-100,4,1,1,63,0,0
18350,-100,4,2,0,63,0,0
19006,-100,4,2,0,5,0,0
19100,-100,4,1,1,63,0,0
19850,-100,4,1,1,63,0,1
25475,-100,4,1,1,63,0,0
25756,-100,4,1,1,30,0,0
25850,-100,4,1,1,63,0,1
31475,-200,4,1,1,63,0,0
34850,-100,4,1,1,63,0,0
46803,-100,4,1,3,63,0,0
70850,-100,4,1,1,63,0,1
70896,-100,4,1,1,50,0,0
76850,-100,4,1,1,50,0,0
81350,-100,4,1,1,50,0,0
84350,-76.9230769230769,4,1,1,70,0,1
96303,-76.9230769230769,4,1,1,70,0,0
96350,-76.9230769230769,4,1,1,70,0,1
108912,-100,4,1,1,63,0,0
111350,-125,4,1,3,63,0,0
123256,-125,4,2,3,5,0,0
123350,-125,4,1,1,63,0,0
138350,-125,4,1,1,63,0,1
138396,-125,4,1,1,63,0,0

[Colours]
Combo1 : 128,0,0
Combo2 : 132,66,0
Combo3 : 255,0,0
Combo4 : 228,228,228
Combo5 : 128,128,128
Combo6 : 255,0,128
Combo7 : 128,0,128
Combo8 : 0,0,255

[HitObjects]
146,160,350,6,0,L|96:160,3,50
203,89,725,2,0,L|176:48,3,50
308,89,1100,2,0,L|336:48,3,50
366,160,1475,2,0,L|416:160,3,50
256,192,1850,5,8,0:0:0:0:
256,192,3162,6,0,L|256:304,1,100,8|8,0:0|0:0,0:0:0:0:
112,160,4287,5,8,0:0:0:0:
256,64,4568,1,8,0:0:0:0:
400,160,4850,1,8,0:0:0:0:
256,192,6162,101,0,0:0:0:0:
200,288,6350,2,0,L|40:288,1,150,8|8,0:0|0:0,0:0:0:0:
312,288,6912,1,8,0:0:0:0:
462,288,7100,1,0,0:0:0:0:
376,136,7287,1,0,0:0:0:0:
344,112,7381,1,0,0:0:0:0:
312,96,7475,2,0,P|256:80|208:88,1,100,8|0,0:0|0:0,0:0:0:0:
256,192,7850,12,0,13100,0:0:0:0:
256,192,13475,5,0,0:0:0:0:
256,96,13662,2,0,L|224:64,1,37.5000014305115
144,104,13850,6,0,B|120:136|120:136|112:160|112:160|64:192,1,100,4|8,0:0|0:0,0:0:0:0:
168,304,14225,2,0,B|200:328|200:328|224:336|224:336|256:384,1,100,4|8,0:0|0:0,0:0:0:0:
368,280,14600,2,0,B|392:248|392:248|400:224|400:224|448:192,1,100,4|8,0:0|0:0,0:0:0:0:
344,80,14975,2,0,B|312:56|312:56|288:48|288:48|256:0,1,100,4|8,0:0|0:0,0:0:0:0:
160,208,15350,6,0,L|48:208,1,100,4|8,0:0|0:0,0:0:0:0:
208,96,15725,2,0,L|104:96,1,100,4|8,0:0|0:0,0:0:0:0:
304,96,16100,2,0,L|408:96,1,100,4|8,0:0|0:0,0:0:0:0:
352,208,16475,2,0,L|464:208,1,100,4|8,0:0|0:0,0:0:0:0:
216,336,16850,102,0,B|168:320|168:320|136:328|136:328|112:328,1,100,4|8,0:0|0:0,0:0:0:0:
112,152,17225,2,0,B|128:104|128:104|120:72|120:72|120:48,1,100,4|8,0:0|0:0,0:0:0:0:
296,48,17600,2,0,B|344:64|344:64|376:56|376:56|400:56,1,100,4|8,0:0|0:0,0:0:0:0:
400,232,17975,2,0,B|384:280|384:280|392:312|392:312|392:336,1,100,4|8,0:0|0:0,0:0:0:0:
256,192,18350,12,0,19006,0:0:0:0:
304,200,19100,86,0,L|304:264,2,50
208,200,19475,2,0,L|208:264,2,50
112,192,19850,22,0,P|128:144|184:104,1,100,2|8,0:0|0:0,0:0:0:0:
256,80,20131,1,0,0:0:0:0:
348,111,20225,2,0,P|384:144|400:192,1,100,2|10,0:0|0:0,0:0:0:0:
448,344,20600,2,0,L|384:344,2,50,2|0|8,0:0|0:0|0:0,0:0:0:0:
312,304,20975,2,0,P|360:256|408:248,1,100,2|10,0:0|0:0,0:0:0:0:
432,160,21350,5,2,0:0:0:0:
328,72,21537,1,10,0:0:0:0:
328,72,21631,1,0,0:0:0:0:
256,160,21818,1,0,0:0:0:0:
256,160,21912,1,10,0:0:0:0:
184,72,22100,2,0,L|128:160,1,100,0|10,0:0|0:0,0:0:0:0:
381,156,22475,2,0,L|328:72,1,100,2|10,0:0|0:0,0:0:0:0:
130,156,22850,102,0,B|170:180|170:180|170:252,1,100,2|8,0:0|0:0,0:0:0:0:
256,272,23131,1,0,0:0:0:0:
342,233,23225,2,0,B|342:180|342:180|382:156,1,100,2|10,0:0|0:0,0:0:0:0:
184,72,23600,2,0,L|112:72,2,50,2|0|8,0:0|0:0|0:0,0:0:0:0:
320,72,23975,2,0,L|432:72,1,100,2|10,0:0|0:0,0:0:0:0:
480,152,24350,6,10,B|464:256|464:256|448:304,1,150
256,136,24912,1,10,0:0:0:0:
32,152,25193,2,10,B|48:256|48:256|64:304,1,150
312,296,25850,102,0,B|312:224|312:224|336:192,1,100,2|8,0:0|0:0,0:0:0:0:
256,136,26131,1,0,0:0:0:0:
183,201,26225,2,0,B|200:224|200:224|200:296,1,100,2|10,0:0|0:0,0:0:0:0:
96,304,26600,2,0,L|96:376,2,50,2|0|8,0:0|0:0|0:0,0:0:0:0:
96,176,26975,2,0,P|112:144|176:104,1,100,2|10,0:0|0:0,0:0:0:0:
304,208,27350,5,2,0:0:0:0:
408,144,27537,1,10,0:0:0:0:
408,144,27631,1,0,0:0:0:0:
392,288,27818,1,0,0:0:0:0:
392,288,27912,1,10,0:0:0:0:
256,304,28100,2,0,P|216:264|200:208,1,100,0|10,0:0|0:0,0:0:0:0:
232,80,28475,2,0,B|288:80|288:80|328:48,1,100,2|10,0:0|0:0,0:0:0:0:
432,120,28850,102,0,B|360:192|360:192,1,100,2|8,0:0|0:0,0:0:0:0:
256,192,29131,1,0,0:0:0:0:
150,190,29225,2,0,B|152:192|80:120,1,100,2|10,0:0|0:0,0:0:0:0:
48,224,29600,2,0,L|48:288,2,50,2|0|8,0:0|0:0|0:0,0:0:0:0:
80,120,29975,2,0,P|120:96|176:96,1,100,2|10,0:0|0:0,0:0:0:0:
304,48,30350,6,10,B|368:64|368:64|432:120,1,150
400,312,30912,1,10,0:0:0:0:
207,335,31193,2,10,B|144:320|144:320|80:264,1,150
256,192,31662,12,0,33350,0:0:0:0:
256,192,34100,69,2,0:0:0:0:
256,192,34381,1,2,0:0:0:0:
256,192,34662,1,2,0:0:0:0:
344,304,34850,54,0,L|184:304,1,150,6|0,0:0|0:0,0:0:0:0:
144,304,35225,1,8,0:0:0:0:
308,59,35600,2,0,L|388:198,1,150,4|0,0:0|0:0,0:0:0:0:
408,232,35975,1,8,0:0:0:0:
115,212,36350,2,0,L|195:73,1,150,4|0,0:0|0:0,0:0:0:0:
216,40,36725,1,8,0:0:0:0:
320,176,37287,54,2,P|312:232|216:256,1,150
216,260,37662,1,0,0:0:0:0:
200,252,37756,1,0,0:0:0:0:
184,240,37850,54,0,P|136:192|120:112,1,150,6|0,0:0|0:0,0:0:0:0:
128,64,38225,1,8,0:0:0:0:
250,105,38600,2,0,P|316:88|393:114,1,150,4|0,0:0|0:0,0:0:0:0:
432,152,38975,1,8,0:0:0:0:
333,230,39350,2,0,P|316:295|254:349,1,150,4|0,0:0|0:0,0:0:0:0:
208,352,39725,1,8,0:0:0:0:
263,141,40100,54,0,L|319:180,2,50,0|0|2,0:0|0:0|0:0,0:0:0:0:
176,192,40381,2,0,L|128:232,2,50,0|0|2,0:0|0:0|0:0,0:0:0:0:
136,104,40662,1,0,0:0:0:0:
136,104,40756,1,0,0:0:0:0:
136,104,40850,54,0,B|200:64|200:64|288:48,1,150,6|0,0:0|0:0,0:0:0:0:
336,56,41225,1,8,0:0:0:0:
239,339,41600,2,0,B|173:304|173:304|115:236,1,150,4|0,0:0|0:0,0:0:0:0:
112,184,41975,1,8,0:0:0:0:
392,132,42350,2,0,B|394:207|394:207|364:291,1,150,4|0,0:0|0:0,0:0:0:0:
320,312,42725,1,8,0:0:0:0:
232,264,43287,54,0,L|280:120,1,150,2|2,0:0|0:0,0:0:0:0:
272,104,43662,1,0,0:0:0:0:
256,96,43756,1,0,0:0:0:0:
240,96,43850,54,0,L|96:160,1,150,6|0,0:0|0:0,0:0:0:0:
40,184,44225,1,8,0:0:0:0:
180,253,44600,2,0,L|308:346,1,150,4|0,0:0|0:0,0:0:0:0:
352,376,44975,1,8,0:0:0:0:
347,226,45350,2,0,L|363:69,1,150,4|0,0:0|0:0,0:0:0:0:
368,8,45725,1,8,0:0:0:0:
239,96,46100,53,0,0:0:0:0:
181,253,46381,1,0,0:0:0:0:
347,226,46662,1,0,0:0:0:0:
336,136,46850,86,0,L|384:120,2,50,4|0|0,0:0|0:0|0:0,0:0:0:0:
214,103,47225,2,0,L|207:53,2,50,12|0|0,0:0|0:0|0:0,0:0:0:0:
161,217,47600,2,0,L|111:215,2,50,4|0|0,0:0|0:0|0:0,0:0:0:0:
264,289,47975,2,0,L|254:338,2,50,8|0|0,0:0|0:0|0:0,0:0:0:0:
353,200,48350,2,0,L|400:219,2,50,4|0|0,0:0|0:0|0:0,0:0:0:0:
281,97,48725,2,0,L|307:54,2,50,8|0|0,0:0|0:0|0:0,0:0:0:0:
167,150,49100,2,0,L|129:117,2,50,4|0|0,0:0|0:0|0:0,0:0:0:0:
199,271,49475,2,0,L|160:303,2,50,12|0|0,0:0|0:0|0:0,0:0:0:0:
325,261,49850,22,0,B|352:192|352:192|432:160,1,150,4|0,0:0|0:0,0:0:0:0:
424,128,50225,2,0,L|424:72,1,50,8|0,0:0|0:0,0:0:0:0:
186,261,50600,2,0,B|160:192|160:192|80:160,1,150,4|0,0:0|0:0,0:0:0:0:
88,128,50975,2,0,L|88:72,1,50,8|0,0:0|0:0,0:0:0:0:
256,32,51350,2,0,L|256:200,1,150,4|0,0:0|0:0,0:0:0:0:
256,216,51725,2,0,L|256:280,1,50,8|0,0:0|0:0,0:0:0:0:
368,280,52100,1,8,0:0:0:0:
480,224,52381,1,8,0:0:0:0:
480,224,52475,1,8,0:0:0:0:
360,96,52662,1,8,0:0:0:0:
152,96,52850,22,0,L|96:64,2,50,4|0|0,0:0|0:0|0:0,0:0:0:0:
360,288,53225,2,0,L|416:320,2,50,12|0|0,0:0|0:0|0:0,0:0:0:0:
152,288,53600,2,0,L|96:320,2,50,4|0|0,0:0|0:0|0:0,0:0:0:0:
360,96,53975,2,0,L|416:64,2,50,8|0|0,0:0|0:0|0:0,0:0:0:0:
104,192,54350,2,0,L|48:192,2,50,4|0|0,0:0|0:0|0:0,0:0:0:0:
408,192,54725,2,0,L|464:192,2,50,8|0|0,0:0|0:0|0:0,0:0:0:0:
256,56,55100,2,0,L|256:0,2,50,4|0|0,0:0|0:0|0:0,0:0:0:0:
256,328,55475,2,0,L|256:384,2,50,12|0|0,0:0|0:0|0:0,0:0:0:0:
160,96,55850,85,4,0:0:0:0:
344,240,56131,1,0,0:0:0:0:
344,240,56225,2,0,L|384:280,1,50,8|0,0:0|0:0,0:0:0:0:
352,96,56600,1,4,0:0:0:0:
168,240,56881,1,0,0:0:0:0:
168,240,56975,2,0,L|128:280,1,50,8|0,0:0|0:0,0:0:0:0:
256,192,57350,12,0,58100,0:0:0:0:
256,208,58381,5,8,0:0:0:0:
256,264,58662,1,8,0:0:0:0:
384,320,58850,70,0,L|440:320,2,50,4|0|0,0:0|0:0|0:0,0:0:0:0:
456,168,59225,2,0,L|392:168,2,50,12|0|0,0:0|0:0|0:0,0:0:0:0:
288,96,59600,2,0,L|304:40,2,50,4|0|0,0:0|0:0|0:0,0:0:0:0:
256,264,59975,2,0,L|256:328,2,50,8|0|0,0:0|0:0|0:0,0:0:0:0:
120,176,60350,2,0,L|48:176,2,50,4|0|0,0:0|0:0|0:0,0:0:0:0:
288,96,60725,2,0,L|352:96,2,50,8|0|0,0:0|0:0|0:0,0:0:0:0:
80,40,61100,2,0,L|8:40,2,50,4|0|0,0:0|0:0|0:0,0:0:0:0:
256,176,61475,2,0,L|328:176,2,50,12|0|0,0:0|0:0|0:0,0:0:0:0:
160,328,61850,22,0,B|208:320|208:320|328:320,1,150,4|0,0:0|0:0,0:0:0:0:
352,320,62225,2,0,L|416:320,1,50,8|0,0:0|0:0,0:0:0:0:
405,168,62600,2,0,B|357:176|357:176|245:176,1,150,4|0,0:0|0:0,0:0:0:0:
205,176,62975,2,0,L|149:176,1,50,8|0,0:0|0:0,0:0:0:0:
55,35,63350,2,0,L|104:48,5,50,0|0|0|0|8|0,0:0|0:0|0:0|0:0|0:0|0:0,0:0:0:0:
112,96,63912,2,0,L|232:88,1,100
288,95,64193,1,0,0:0:0:0:
256,248,64475,1,8,0:0:0:0:
256,248,64662,1,8,0:0:0:0:
448,192,64850,22,0,L|520:192,2,50,4|0|0,0:0|0:0|0:0,0:0:0:0:
360,344,65225,2,0,L|288:344,2,50,12|0|0,0:0|0:0|0:0,0:0:0:0:
384,96,65600,2,0,L|440:96,2,50,4|0|0,0:0|0:0|0:0,0:0:0:0:
344,256,65975,2,0,L|408:256,2,50,8|0|0,0:0|0:0|0:0,0:0:0:0:
168,256,66350,2,0,L|104:256,2,50,4|0|0,0:0|0:0|0:0,0:0:0:0:
128,96,66725,2,0,L|72:96,2,50,8|0|0,0:0|0:0|0:0,0:0:0:0:
152,344,67100,2,0,L|224:344,2,50,4|0|0,0:0|0:0|0:0,0:0:0:0:
64,192,67475,2,0,L|-8:192,2,50,12|0|0,0:0|0:0|0:0,0:0:0:0:
232,104,67850,86,0,B|296:88|296:88|400:88,1,150,4|0,0:0|0:0,0:0:0:0:
376,136,68225,2,0,L|408:176,1,50,8|0,0:0|0:0,0:0:0:0:
280,280,68600,2,0,B|216:296|216:296|112:296,1,150,4|0,0:0|0:0,0:0:0:0:
136,248,68975,2,0,L|104:208,1,50,8|0,0:0|0:0,0:0:0:0:
232,104,69350,1,8,0:0:0:0:
280,280,69725,1,8,0:0:0:0:
320,96,70100,1,8,0:0:0:0:
256,192,70381,1,8,0:0:0:0:
192,288,70662,1,8,0:0:0:0:
192,288,70756,1,8,0:0:0:0:
192,288,70850,54,2,P|232:320|384:320,1,200,2|10,0:0|0:0,0:0:0:0:
480,224,71600,2,2,P|392:184|296:208,1,200,2|10,0:0|0:0,0:0:0:0:
160,144,72350,102,0,L|160:256,1,100,0|8,0:0|0:0,0:0:0:0:
224,336,72725,1,2,0:0:0:0:
224,336,72818,1,0,0:0:0:0:
224,336,72912,1,10,0:0:0:0:
272,240,73100,2,0,L|272:128,1,100,0|8,0:3|0:3,0:3:0:0:
224,48,73475,1,2,0:0:0:0:
224,48,73568,1,0,0:0:0:0:
224,48,73662,1,10,0:0:0:0:
331,82,73850,6,10,P|416:192|328:304,2,300
192,80,75350,102,0,L|192:16,2,50
192,80,75631,2,2,L|192:240,1,150,2|0,0:0|2:0,0:0:0:0:
320,304,76100,2,0,L|320:368,2,50
320,304,76381,2,2,L|320:144,1,150,2|0,0:0|2:0,0:0:0:0:
272,160,76756,1,0,0:0:0:0:
224,136,76850,6,0,P|240:88|288:48,1,100,2|0,0:0|0:0,0:0:0:0:
200,224,77225,2,0,P|152:208|112:160,1,100,10|0,0:0|0:0,0:0:0:0:
288,248,77600,2,0,P|272:296|224:336,1,100,2|0,0:0|0:0,0:0:0:0:
312,160,77975,2,0,P|360:176|400:224,1,100,10|0,0:0|0:0,0:0:0:0:
285,327,78350,102,0,P|306:283|305:233,1,100,2|0,0:0|0:0,0:0:0:0:
120,221,78725,2,0,P|164:242|214:241,1,100,10|0,0:0|0:0,0:0:0:0:
226,56,79100,2,0,P|205:100|206:150,1,100,2|0,0:0|0:0,0:0:0:0:
391,162,79475,2,0,P|347:141|297:142,1,100,10|0,0:0|0:0,0:0:0:0:
336,288,79850,6,0,P|400:312|440:304,1,100,2|0,0:0|0:0,0:0:0:0:
376,144,80225,2,0,P|332:123|282:124,1,100,10|0,0:0|0:0,0:0:0:0:
352,304,80600,2,0,P|416:328|456:320,1,100,2|0,0:0|0:0,0:0:0:0:
360,128,80975,2,0,P|316:107|266:108,1,100,10|0,0:0|0:0,0:0:0:0:
176,112,81350,101,8,0:0:0:0:
168,304,81537,1,8,0:0:0:0:
168,304,81631,1,8,0:0:0:0:
352,304,81818,1,8,0:0:0:0:
352,304,81912,1,8,0:0:0:0:
336,112,82100,2,8,L|224:224,2,150
256,192,82850,12,12,83600,0:0:0:0:
320,192,83881,69,12,0:0:0:0:
192,192,84162,1,12,0:0:0:0:
32,256,84350,102,0,B|80:256|80:256|96:304|144:320,1,129.999994049073,2|8,0:0|0:0,0:0:0:0:
256,336,84631,1,0,0:0:0:0:
379,315,84725,2,0,B|416:304|432:256|432:256|480:256,1,129.999994049073,2|8,0:0|0:0,0:0:0:0:
432,144,85006,2,0,L|496:144,2,64.9999970245363,0|2|0,0:0|0:0|0:0,0:0:0:0:
384,48,85287,86,0,L|112:48,1,259.999988098145,10|10,0:0|0:0,0:0:0:0:
96,192,85850,22,0,B|112:224|112:224|160:240|176:288,1,129.999994049073,2|8,0:0|0:0,0:0:0:0:
256,368,86131,1,0,0:0:0:0:
336,288,86225,2,0,B|352:240|400:224|400:224|416:192,1,129.999994049073,2|8,0:0|0:0,0:0:0:0:
416,80,86506,2,0,L|416:0,2,64.9999970245363,0|2|0,0:0|0:0|0:0,0:0:0:0:
319,149,86787,86,0,P|256:240|200:136,1,259.999988098145,10|10,0:0|0:0,0:0:0:0:
64,128,87350,22,0,P|80:80|152:24,1,129.999994049073,2|8,0:0|0:0,0:0:0:0:
256,16,87631,1,0,0:0:0:0:
373,28,87725,2,0,P|423:68|448:128,1,129.999994049073,2|8,0:0|0:0,0:0:0:0:
432,240,88006,2,0,L|504:240,2,64.9999970245363,0|2|0,0:0|0:0|0:0,0:0:0:0:
376,332,88287,86,0,P|256:372|128:324,1,259.999988098145,10|10,0:0|0:0,0:0:0:0:
192,136,88850,22,8,P|256:232|312:208,2,194.999991073609,10|10|10,0:0|0:0|0:0,0:0:0:0:
336,120,89600,2,10,L|408:120,1,64.9999970245363,10|10,0:0|0:0,0:0:0:0:
432,240,89787,2,10,L|512:240,1,64.9999970245363,10|10,0:0|0:0,0:0:0:0:
376,332,89975,2,8,L|216:332,1,129.999994049073,10|0,0:0|0:0,0:0:0:0:
120,344,90350,86,8,P|144:256|232:208,2,194.999991073609,10|10|10,0:0|0:0|0:0,0:0:0:0:
8,304,91100,22,0,L|56:160,1,129.999994049073,2|8,0:0|0:0,0:0:0:0:
144,96,91381,1,2,0:0:0:0:
368,96,91568,1,2,0:0:0:0:
462,180,91662,2,0,L|504:304,1,129.999994049073,10|2,0:0|0:0,0:0:0:0:
408,368,91943,2,2,L|328:368,1,64.9999970245363,2|10,0:0|0:0,0:0:0:0:
320,256,92131,2,0,B|264:264|232:328|232:328|152:328,1,194.999991073609,2|10,0:0|0:0,0:0:0:0:
160,296,92459,2,0,P|256:192|344:172,1,227.499989585877,0|10,2:0|0:0,0:0:0:0:
256,128,93162,85,10,0:0:0:0:
256,128,93256,1,10,0:0:0:0:
256,128,93350,2,0,B|328:128|328:128|400:160,1,129.999994049073,2|10,0:0|0:0,0:0:0:0:
496,264,93725,22,0,L|496:344,1,64.9999970245363,2|0,0:0|0:0,0:0:0:0:
376,368,93912,2,0,L|376:280,1,64.9999970245363,10|0,0:0|0:0,0:0:0:0:
288,224,94100,86,0,B|256:272|256:272|256:352,1,129.999994049073,2|10,0:0|0:0,0:0:0:0:
128,328,94475,22,0,L|128:248,1,64.9999970245363,2|0,0:0|0:0,0:0:0:0:
16,232,94662,2,0,L|16:144,1,64.9999970245363,10|0,0:0|0:0,0:0:0:0:
48,32,94850,86,0,P|104:56|152:128,1,129.999994049073,2|10,0:0|0:0,0:0:0:0:
288,224,95225,22,0,L|376:224,1,64.9999970245363,2|0,0:0|0:0,0:0:0:0:
440,96,95412,2,0,L|368:96,1,64.9999970245363,10|0,0:0|0:0,0:0:0:0:
320,112,95600,86,2,L|160:112,1,129.999994049073,2|8,0:0|0:0,0:0:0:0:
136,128,95881,2,8,L|48:128,3,64.9999970245363
48,264,96350,22,0,B|96:312|96:312|184:328,1,129.999994049073,2|8,0:0|0:0,0:0:0:0:
256,336,96631,1,0,0:0:0:0:
354,323,96725,2,0,B|416:312|416:312|464:264,1,129.999994049073,2|8,0:0|0:0,0:0:0:0:
408,184,97006,2,0,L|344:248,2,64.9999970245363,0|2|0,0:0|0:0|0:0,0:0:0:0:
352,104,97287,86,0,B|256:192|256:192|152:96,1,259.999988098145,10|10,0:0|0:0,0:0:0:0:
80,184,97850,22,0,P|144:200|184:256,1,129.999994049073,2|8,0:0|0:0,0:0:0:0:
256,336,98131,1,0,0:0:0:0:
330,248,98225,2,0,P|369:198|432:184,1,129.999994049073,2|8,0:0|0:0,0:0:0:0:
424,288,98506,2,0,L|504:288,2,64.9999970245363,0|2|0,0:0|0:0|0:0,0:0:0:0:
352,360,98787,86,0,B|256:336|256:336|200:232|264:168,1,259.999988098145,10|10,0:0|0:0,0:0:0:0:
431,183,99350,22,0,B|383:143|383:143|359:71,1,129.999994049073,2|8,0:0|0:0,0:0:0:0:
256,48,99631,1,0,0:0:0:0:
150,78,99725,2,0,B|129:143|129:143|81:183,1,129.999994049073,2|8,0:0|0:0,0:0:0:0:
120,288,100006,2,0,L|48:344,2,64.9999970245363,0|2|0,0:0|0:0|0:0,0:0:0:0:
232,328,100287,86,0,P|304:320|248:192,1,259.999988098145,10|10,0:0|0:0,0:0:0:0:
336,88,100850,22,8,P|408:144|448:264,2,194.999991073609,10|10|10,0:0|0:0|0:0,0:0:0:0:
192,184,101600,2,10,L|120:184,1,64.9999970245363,10|10,0:0|0:0,0:0:0:0:
55,288,101787,2,10,L|143:288,1,64.9999970245363,10|10,0:0|0:0,0:0:0:0:
232,328,101975,2,10,L|368:328,1,129.999994049073,10|0,0:0|0:0,0:0:0:0:
360,192,102350,86,8,P|440:128|424:24,2,194.999991073609,10|10|10,0:0|0:0|0:0,0:0:0:0:
336,88,103100,22,0,L|192:88,1,129.999994049073,2|8,0:0|0:0,0:0:0:0:
80,104,103381,1,2,0:0:0:0:
80,280,103568,1,2,0:0:0:0:
206,296,103662,2,0,L|336:296,1,129.999994049073,10|2,0:0|0:0,0:0:0:0:
432,272,103943,2,2,L|432:176,1,64.9999970245363,2|10,0:0|0:0,0:0:0:0:
320,184,104131,2,0,P|240:112|272:16,1,194.999991073609,2|10,0:0|0:0,0:0:0:0:
196,28,104459,2,0,B|168:80|196:152|196:152|160:188|160:188|144:240,1,227.499989585877,0|10,2:0|0:0,0:0:0:0:
256,264,105162,85,10,0:0:0:0:
256,264,105256,1,10,0:0:0:0:
256,264,105350,2,0,P|296:260|320:184,1,129.999994049073,2|10,0:0|0:0,0:0:0:0:
168,64,105725,21,2,0:0:0:0:
120,48,105818,1,0,0:0:0:0:
72,56,105912,1,10,0:0:0:0:
32,88,106006,1,0,0:0:0:0:
16,136,106100,86,0,B|16:216|16:216|64:264,1,129.999994049073,2|10,0:0|0:0,0:0:0:0:
308,364,106475,21,2,0:0:0:0:
356,364,106568,1,0,0:0:0:0:
404,348,106662,1,10,0:0:0:0:
436,312,106756,1,0,0:0:0:0:
456,268,106850,86,0,P|440:176|400:144,1,129.999994049073,2|10,0:0|0:0,0:0:0:0:
160,160,107225,21,2,0:0:0:0:
128,192,107318,1,0,0:0:0:0:
96,224,107412,1,10,0:0:0:0:
64,256,107506,1,0,0:0:0:0:
32,288,107600,85,12,0:0:0:0:
360,192,107975,21,12,0:0:0:0:
208,192,108162,85,12,0:0:0:0:
96,16,108350,21,12,0:0:0:0:
256,264,108631,85,12,0:0:0:0:
416,16,108912,21,12,0:0:0:0:
256,192,109100,12,0,110600,0:0:0:0:
256,192,110881,21,0,0:0:0:0:
256,192,111162,1,0,0:0:0:0:
336,248,111350,2,0,B|256:312|168:240|16:296,1,320,6|8,0:0|0:0,0:0:0:0:
80,176,112475,1,0,0:0:0:0:
208,128,112662,1,0,0:0:0:0:
128,48,112850,2,0,B|208:-16|296:56|448:0,1,320,6|10,0:0|0:0,0:0:0:0:
480,88,113725,102,0,L|416:104,1,53.3333333333333
352,160,113975,1,10,0:0:0:0:
448,200,114100,2,0,L|504:216,1,53.3333333333333
480,320,114350,2,0,B|328:336|344:192|176:216,1,320,6|8,0:0|0:0,0:0:0:0:
190,214,115475,1,0,0:0:0:0:
96,144,115662,1,0,0:0:0:0:
72,256,115850,2,0,P|144:336|216:344,2,160,6|6|10,0:0|0:0|0:0,0:0:0:0:
96,144,116725,6,0,L|160:120,1,53.3333333333333
190,214,116975,1,10,0:0:0:0:
224,312,117100,2,0,L|296:344,1,53.3333333333333
384,336,117350,2,2,P|464:288|488:208,1,160,6|0,0:0|0:0,0:0:0:0:
352,184,118100,2,0,P|320:104|248:56,1,160,10|2,0:0|0:0,0:0:0:0:
152,56,118662,1,2,0:0:0:0:
64,136,118850,2,0,P|152:176|224:152,1,160,6|0,0:0|0:0,0:0:0:0:
152,280,119600,102,0,L|192:328,1,53.3333333333333,10|0,0:0|0:0,0:0:0:0:
296,328,119850,1,0,0:0:0:0:
408,320,119975,2,0,L|440:264,1,53.3333333333333,10|0,0:0|0:0,0:0:0:0:
328,208,120225,1,0,0:0:0:0:
224,152,120350,2,0,L|288:88|296:80,1,80,6|0,0:0|0:0,0:0:0:0:
312,72,120631,1,0,0:0:0:0:
144,72,120912,2,0,L|72:136,1,80,0|10,0:0|0:0,0:0:0:0:
144,72,121381,2,0,P|112:160|120:192,1,120,2|2,0:0|0:0,0:0:0:0:
256,192,121850,12,0,123256,0:0:0:0:
256,208,123350,21,2,0:0:0:0:
328,352,123725,1,2,0:0:0:0:
368,224,124100,2,0,L|456:368,1,160,8|2,0:0|0:0,0:0:0:0:
480,200,124850,1,2,0:0:0:0:
312,136,125225,1,2,0:0:0:0:
224,16,125600,2,0,P|176:72|168:160,1,160,8|2,0:0|0:0,0:0:0:0:
166,155,126162,1,0,0:0:0:0:
96,248,126350,6,0,L|48:248,6,40
192,312,127100,2,0,L|216:360,6,40,8|0|0|0|0|0|0,0:0|0:0|0:0|0:0|0:0|0:0|0:0,0:0:0:0:
208,208,127850,2,0,P|304:176|360:184,1,160,2|2,0:0|0:0,0:0:0:0:
472,304,128600,1,8,0:0:0:0:
304,336,128975,1,8,0:0:0:0:
208,208,129350,102,0,L|184:248,2,40
208,208,129725,1,0,0:0:0:0:
264,72,130100,2,0,P|328:128|352:200,1,160,8|0,0:0|0:0,0:0:0:0:
248,288,130850,2,0,L|288:320,6,40,2|0|0|0|2|0|0,0:0|0:0|0:0|0:0|0:0|0:0|0:0,0:0:0:0:
208,176,131600,2,0,L|208:120,6,40,8|0|0|0|2|0|0,0:0|0:0|0:0|0:0|0:0|0:0|0:0,0:0:0:0:
136,272,132350,2,0,L|88:288,6,40,2|0|0|0|2|0|0,0:0|0:0|0:0|0:0|0:0|0:0|0:0,0:0:0:0:
208,176,133100,6,0,P|240:104|216:16,1,160,8|2,0:0|0:0,0:0:0:0:
223,27,133662,1,2,0:0:0:0:
336,136,133850,2,0,P|376:176|360:280,1,160,2|2,0:0|0:0,0:0:0:0:
208,176,134537,54,0,L|184:208,1,26.6666666666667,0|12,0:0|0:0,0:0:0:0:
304,328,134850,1,12,0:0:0:0:
408,208,135100,1,12,0:0:0:0:
256,192,135350,12,12,136850,0:0:0:0:
256,160,137225,85,12,0:0:0:0:
256,256,137600,21,12,0:0:0:0:
256,128,137975,85,12,0:0:0:0:
256,296,138350,21,14,0:0:0:0:
