osu file format v14

[General]
AudioFilename: 13 - Providence.mp3
AudioLeadIn: 0
PreviewTime: 84250
Countdown: 0
SampleSet: Normal
StackLeniency: 0.7
Mode: 0
LetterboxInBreaks: 1
EpilepsyWarning: 1
WidescreenStoryboard: 0

[Editor]
Bookmarks: 19750,31800,34800,46800,70800,96300,109050,123300,138300
DistanceSpacing: 1
BeatDivisor: 1
GridSize: 8
TimelineZoom: 0.5999997

[Metadata]
Title:Providence
TitleUnicode:Providence
Artist:S.S.H.
ArtistUnicode:S.S.H.
Creator:[_ NORTOR _]
Version:Easy
Source:eXceed3rd-JADE PENETRATE-BLACK PACKAGE
Tags:ssh speedcore tennen-sozai loli boss game Remedy STG NORTOR Video Game LonelyLost CaracalCaptain
BeatmapID:669321
BeatmapSetID:289590

[Difficulty]
HPDrainRate:3
CircleSize:2
OverallDifficulty:4
ApproachRate:3
SliderMultiplier:0.500000005960464
SliderTickRate:1

[Events]
//Background and Video events
0,0,"babg.jpg",0,0
//Break Periods
//Storyboard Layer 0 (Background)
//Storyboard Layer 1 (Fail)
//Storyboard Layer 2 (Pass)
//Storyboard Layer 3 (Foreground)
//Storyboard Sound Samples

[TimingPoints]
350,187.5,4,1,1,65,1,0
84162,-100,4,2,1,5,0,0
84350,-100,4,1,1,65,0,1
109100,-100,4,1,1,65,0,0

[Colours]
Combo1 : 128,0,0
Combo2 : 132,66,0
Combo3 : 255,0,0
Combo4 : 234,234,234
Combo5 : 128,128,128
Combo6 : 255,0,128
Combo7 : 128,0,128
Combo8 : 0,0,255

[HitObjects]
256,192,350,12,8,1850,0:0:0:0:
256,48,3162,6,0,L|256:104,1,50.0000005960464,8|8,0:0|0:0,0:0:0:0:
256,192,4287,2,8,L|256:272,2,75.0000008940696
360,192,6162,1,8,0:0:0:0:
360,192,6350,2,8,L|360:92,3,100.000001192093
472,48,7850,54,0,L|472:352,1,300.000003576278
384,344,9350,6,0,L|384:40,1,300.000003576278
296,48,10850,102,0,L|296:352,1,300.000003576278
208,344,12350,6,0,L|208:40,1,300.000003576278
72,16,13850,38,0,L|72:120,3,100.000001192093,0|8|0|8,0:0|0:0|0:0|0:0,0:0:0:0:
72,268,15350,2,0,L|72:368,3,100.000001192093,0|8|0|8,0:0|0:0|0:0|0:0,0:0:0:0:
192,368,16850,2,0,L|192:264,3,100.000001192093,0|8|0|8,0:0|0:0|0:0|0:0,0:0:0:0:
256,192,18350,12,2,19850,0:0:0:0:
256,192,20600,53,2,0:0:0:0:
336,56,21350,2,0,L|440:56,1,100.000001192093,2|2,0:0|0:0,0:0:0:0:
436,56,22100,2,0,L|492:56,4,50.0000005960464,0|0|0|0|2,0:0|0:0|0:0|0:0|0:0,0:0:0:0:
256,192,23600,5,2,0:0:0:0:
96,56,24350,2,0,L|16:56,4,75.0000008940696,2|2|2|2|0,0:0|0:0|0:0|0:0|0:0,0:0:0:0:
96,56,25850,1,2,0:0:0:0:
256,192,26600,101,2,0:0:0:0:
176,328,27350,2,0,L|72:328,1,100.000001192093,2|2,0:0|0:0,0:0:0:0:
76,328,28100,2,0,L|20:328,4,50.0000005960464,0|0|0|0|2,0:0|0:0|0:0|0:0|0:0,0:0:0:0:
256,192,29600,5,2,0:0:0:0:
416,328,30350,2,0,L|496:328,4,75.0000008940696,2|2|2|2|0,0:0|0:0|0:0|0:0|0:0,0:0:0:0:
416,328,31850,70,0,L|256:328,1,150.000001788139
256,192,33350,1,0,0:0:0:0:
208,104,34850,54,0,L|104:104,1,100.000001192093,0|8,0:0|0:0,0:0:0:0:
104,192,35600,2,0,L|208:192,1,100.000001192093,0|8,0:0|0:0,0:0:0:0:
208,280,36350,2,0,L|104:280,1,100.000001192093,0|8,0:0|0:0,0:0:0:0:
300,280,37850,54,0,L|400:280,1,100.000001192093,0|8,0:0|0:0,0:0:0:0:
404,192,38600,2,0,L|304:192,1,100.000001192093,0|8,0:0|0:0,0:0:0:0:
300,104,39350,2,0,L|400:104,1,100.000001192093,0|8,0:0|0:0,0:0:0:0:
208,104,40850,54,0,L|104:104,1,100.000001192093,0|8,0:0|0:0,0:0:0:0:
104,192,41600,2,0,L|208:192,1,100.000001192093,0|8,0:0|0:0,0:0:0:0:
208,280,42350,2,0,L|104:280,1,100.000001192093,0|8,0:0|0:0,0:0:0:0:
300,280,43850,54,0,L|400:280,1,100.000001192093,0|8,0:0|0:0,0:0:0:0:
404,192,44600,2,0,L|304:192,1,100.000001192093,0|8,0:0|0:0,0:0:0:0:
300,104,45350,2,0,L|400:104,1,100.000001192093,0|8,0:0|0:0,0:0:0:0:
64,96,46850,6,0,L|64:200,8,100.000001192093,0|8|0|8|0|8|0|8|0,0:0|0:0|0:0|0:0|0:0|0:0|0:0|0:0|0:0,0:0:0:0:
160,96,50600,101,0,0:0:0:0:
256,96,51350,1,0,0:0:0:0:
352,96,52100,1,0,0:0:0:0:
448,96,52850,6,0,L|448:200,8,100.000001192093,0|8|0|8|0|8|0|8|0,0:0|0:0|0:0|0:0|0:0|0:0|0:0|0:0|0:0,0:0:0:0:
352,64,56600,101,0,0:0:0:0:
256,32,57350,1,0,0:0:0:0:
160,64,58100,1,0,0:0:0:0:
64,96,58850,6,0,P|84:145|128:176,8,100.000001192093,0|8|0|8|0|8|0|8|0,0:0|0:0|0:0|0:0|0:0|0:0|0:0|0:0|0:0,0:0:0:0:
160,64,62600,101,0,0:0:0:0:
256,112,63350,1,0,0:0:0:0:
352,64,64100,1,0,0:0:0:0:
448,96,64850,6,0,P|427:145|384:176,8,100.000001192093,0|8|0|8|0|8|0|8|0,0:0|0:0|0:0|0:0|0:0|0:0|0:0|0:0|0:0,0:0:0:0:
336,72,68600,101,0,0:0:0:0:
256,152,69350,1,0,0:0:0:0:
152,192,70100,1,0,0:0:0:0:
48,240,70850,22,0,P|96:304|208:352,1,200.000002384186,0|2,0:0|0:0,0:0:0:0:
308,351,72350,2,0,P|400:316|464:240,1,200.000002384186,0|2,0:0|0:0,0:0:0:0:
463,143,73850,2,0,P|400:67|308:32,1,200.000002384186,0|2,0:0|0:0,0:0:0:0:
203,32,75350,2,0,P|111:67|48:143,1,200.000002384186,0|2,0:0|0:0,0:0:0:0:
48,256,76850,6,0,B|144:256|144:256|192:352,1,200.000002384186,0|2,0:0|0:0,0:0:0:0:
321,349,78350,2,0,B|368:256|368:256|464:256,1,200.000002384186,0|2,0:0|0:0,0:0:0:0:
464,128,79850,2,0,B|368:128|368:128|321:34,1,200.000002384186,0|2,0:0|0:0,0:0:0:0:
190,34,81350,2,0,B|144:128|144:128|48:128,1,200.000002384186,0|2,0:0|0:0,0:0:0:0:
256,192,82850,69,0,0:0:0:0:
256,96,83600,1,0,0:0:0:0:
176,40,84350,102,0,P|120:48|80:72,1,100.000001192093,0|8,0:0|0:0,0:0:0:0:
160,144,85100,2,0,L|120:176,3,50.0000005960464,0|8|0|8,0:0|0:0|0:0|0:0,0:0:0:0:
104,272,85850,86,0,P|112:328|136:368,1,100.000001192093,0|8,0:0|0:0,0:0:0:0:
208,288,86600,2,0,L|240:328,3,50.0000005960464,0|8|0|8,0:0|0:0|0:0|0:0,0:0:0:0:
336,344,87350,22,0,P|392:336|432:312,1,100.000001192093,0|8,0:0|0:0,0:0:0:0:
352,240,88100,2,0,L|392:208,3,50.0000005960464,0|8|0|8,0:0|0:0|0:0|0:0,0:0:0:0:
408,112,88850,86,0,P|400:56|376:16,1,100.000001192093,0|8,0:0|0:0,0:0:0:0:
304,96,89600,2,0,L|272:56,3,50.0000005960464,0|8|0|8,0:0|0:0|0:0|0:0,0:0:0:0:
176,80,90350,22,0,L|240:160,1,100.000001192093,0|8,0:0|0:0,0:0:0:0:
176,232,91100,2,0,L|240:312,1,100.000001192093,0|8,0:0|0:0,0:0:0:0:
296,232,91850,86,0,L|328:272,4,50.0000005960464,0|8|0|8|0,0:0|0:0|0:0|0:0|0:0,0:0:0:0:
256,192,93350,12,0,95600,0:0:0:0:
336,40,96350,22,0,P|392:48|432:72,1,100.000001192093,0|8,0:0|0:0,0:0:0:0:
352,144,97100,2,0,L|392:176,3,50.0000005960464,0|8|0|8,0:0|0:0|0:0|0:0,0:0:0:0:
408,272,97850,86,0,P|400:328|376:368,1,100.000001192093,0|8,0:0|0:0,0:0:0:0:
304,288,98600,2,0,L|272:328,3,50.0000005960464,0|8|0|8,0:0|0:0|0:0|0:0,0:0:0:0:
176,344,99350,22,0,P|120:336|80:312,1,100.000001192093,0|8,0:0|0:0,0:0:0:0:
160,240,100100,2,0,L|120:208,3,50.0000005960464,0|8|0|8,0:0|0:0|0:0|0:0,0:0:0:0:
104,112,100850,86,0,P|112:56|136:16,1,100.000001192093,0|8,0:0|0:0,0:0:0:0:
208,96,101600,2,0,L|240:56,3,50.0000005960464,0|8|0|8,0:0|0:0|0:0|0:0,0:0:0:0:
336,80,102350,22,0,L|272:160,1,100.000001192093,0|8,0:0|0:0,0:0:0:0:
336,232,103100,2,0,L|272:312,1,100.000001192093,0|8,0:0|0:0,0:0:0:0:
216,232,103850,86,0,L|184:272,4,50.0000005960464,0|8|0|8|0,0:0|0:0|0:0|0:0|0:0,0:0:0:0:
256,192,105350,12,0,107600,0:0:0:0:
256,192,108350,22,8,L|256:272,2,75.0000008940696
144,192,109850,5,0,0:0:0:0:
256,80,111350,1,0,0:0:0:0:
368,192,112850,1,2,0:0:0:0:
256,304,114350,1,0,0:0:0:0:
208,192,115850,6,0,L|312:192,4,100.000001192093,2|0|0|0|2,0:0|0:0|0:0|0:0|0:0,0:0:0:0:
256,80,118850,101,0,0:0:0:0:
144,192,120350,1,0,0:0:0:0:
304,192,121850,6,0,L|200:192,4,100.000001192093,2|0|0|0|2,0:0|0:0|0:0|0:0|0:0,0:0:0:0:
328,272,124100,101,8,0:0:0:0:
184,272,124850,1,2,0:0:0:0:
184,112,125600,1,8,0:0:0:0:
328,112,126350,1,2,0:0:0:0:
256,192,127100,1,8,0:0:0:0:
208,304,127850,6,8,L|312:304,4,100.000001192093,0|8|0|8|8,0:0|0:0|0:0|0:0|0:0,0:0:0:0:
176,280,130100,101,8,0:0:0:0:
336,280,130850,1,2,0:0:0:0:
336,104,131600,1,8,0:0:0:0:
176,104,132350,1,2,0:0:0:0:
256,192,133100,1,8,0:0:0:0:
304,304,133850,6,8,L|200:304,4,100.000001192093,0|8|8|8|8,0:0|0:0|0:0|0:0|0:0,0:0:0:0:
256,192,136100,12,12,138350,0:0:0:0:
