osu file format v12

[General]
AudioFilename: Intersect Thunderbolt.mp3
AudioLeadIn: 1500
PreviewTime: 9800
Countdown: 0
SampleSet: Soft
StackLeniency: 0.7
Mode: 3
LetterboxInBreaks: 0
SpecialStyle: 0
WidescreenStoryboard: 1

[Editor]
Bookmarks: 210,9810,25170,40530,106050
DistanceSpacing: 1.5
BeatDivisor: 4
GridSize: 4
TimelineZoom: 1

[Metadata]
Title:Intersect Thunderbolt-Remix
TitleUnicode:Intersect Thunderbolt-Remix
Artist:S.S.H.
ArtistUnicode:S.S.H.
Creator:ljqandylee
Version:7K Exceed
Source:eXceed3rd-JADE PENETRATE-BLACK PACKAGE
Tags:Rain Lindwurm Celestia Itou Shizuka victorica_db M_o_m_o
BeatmapID:323070
BeatmapSetID:127305

[Difficulty]
HPDrainRate:8
CircleSize:7
OverallDifficulty:8
ApproachRate:9
SliderMultiplier:2.1
SliderTickRate:1

[Events]
//Background and Video events
0,0,"Background.jpg",0,0
//Break Periods
//Storyboard Layer 0 (Background)
//Storyboard Layer 1 (Fail)
//Storyboard Layer 2 (Pass)
//Storyboard Layer 3 (Foreground)
//Storyboard Sound Samples
Sample,97520,0,"soft-hitfinish.wav",40
Sample,97520,0,"soft-hitclap.wav",40
Sample,105200,0,"soft-hitfinish.wav",40
Sample,105200,0,"soft-hitclap.wav",40
//Background Colour Transformations
3,100,163,162,255

[TimingPoints]
200.581127504251,240,4,2,1,40,1,0
90440,-100,4,2,1,40,0,1
105560,-100,4,2,1,40,0,0
105800,-100,4,2,1,40,0,1
123080,-100,4,2,1,40,0,0

[Colours]
Combo1 : 234,0,0
Combo2 : 234,117,0
Combo3 : 234,234,0

[HitObjects]
36,192,200,5,8,0:0:0:17:
329,192,200,1,8,0:0:0:17:
256,192,200,1,8,0:0:0:17:
182,192,260,1,0,0:0:0:53:
109,192,320,1,0,0:0:0:53:
475,192,380,1,0,0:0:0:53:
182,192,440,1,0,0:0:0:53:
402,192,440,1,0,0:0:0:53:
109,192,500,1,0,0:0:0:0:
256,192,560,1,8,0:0:0:17:
36,192,560,1,8,0:0:0:17:
329,192,560,1,8,0:0:0:17:
182,192,620,1,0,0:0:0:53:
475,192,680,1,0,0:0:0:53:
329,192,740,1,0,0:0:0:53:
109,192,800,1,0,0:0:0:53:
182,192,800,1,0,0:0:0:0:
402,192,860,1,0,0:0:0:53:
36,192,920,1,8,0:0:0:17:
256,192,920,1,8,0:0:0:17:
329,192,920,1,8,0:0:0:17:
109,192,980,1,0,0:0:0:53:
182,192,1040,1,0,0:0:0:53:
329,192,1100,1,0,0:0:0:53:
109,192,1160,1,0,0:0:0:53:
475,192,1160,1,0,0:0:0:0:
182,192,1220,1,0,0:0:0:53:
256,192,1280,1,8,0:0:0:17:
329,192,1280,1,8,0:0:0:17:
36,192,1280,1,8,0:0:0:17:
402,192,1340,1,0,0:0:0:53:
475,192,1400,1,0,0:0:0:53:
109,192,1460,1,0,0:0:0:53:
402,192,1520,1,0,0:0:0:53:
182,192,1520,1,0,0:0:0:0:
256,192,1580,1,0,0:0:0:53:
109,192,1640,1,8,0:0:0:17:
329,192,1640,1,8,0:0:0:17:
475,192,1640,1,8,0:0:0:17:
36,192,1700,1,8,0:0:0:17:
182,192,1700,1,8,0:0:0:17:
402,192,1700,1,8,0:0:0:17:
109,192,1760,1,8,0:0:0:17:
256,192,1760,1,8,0:0:0:17:
475,192,1760,1,8,0:0:0:17:
329,192,1820,1,0,0:0:0:26:
182,192,1820,1,0,0:0:0:26:
36,192,1880,128,8,2120:0:0:0:17:
402,192,1880,128,8,2120:0:0:0:17:
256,192,1880,128,8,2120:0:0:0:17:
329,192,2120,1,4,0:0:0:17:
475,192,2120,1,4,0:0:0:17:
109,192,2120,128,4,2480:0:0:0:17:
182,192,2240,1,0,0:0:0:53:
256,192,2360,1,0,0:0:0:17:
402,192,2360,1,0,0:0:0:17:
182,192,2480,1,0,0:0:0:26:
329,192,2480,1,0,0:0:0:26:
36,192,2600,1,0,0:0:0:17:
256,192,2600,1,0,0:0:0:17:
475,192,2600,1,0,0:0:0:17:
109,192,2720,1,0,0:0:0:26:
329,192,2720,1,0,0:0:0:26:
182,192,2840,1,0,0:0:0:17:
256,192,2840,1,0,0:0:0:17:
475,192,2840,1,0,0:0:0:17:
402,192,2960,1,0,0:0:0:26:
109,192,2960,1,0,0:0:0:26:
36,192,3080,1,0,0:0:0:17:
256,192,3080,1,0,0:0:0:17:
329,192,3080,1,0,0:0:0:17:
182,192,3140,1,0,0:0:0:26:
475,192,3140,1,0,0:0:0:26:
402,192,3200,1,0,0:0:0:26:
109,192,3200,1,0,0:0:0:26:
36,192,3320,1,0,0:0:0:17:
256,192,3320,1,0,0:0:0:17:
182,192,3320,1,0,0:0:0:17:
109,192,3440,1,0,0:0:0:26:
329,192,3440,1,0,0:0:0:26:
182,192,3560,1,0,0:0:0:17:
36,192,3560,1,0,0:0:0:17:
402,192,3560,1,0,0:0:0:17:
475,192,3680,1,0,0:0:0:26:
256,192,3680,1,0,0:0:0:26:
36,192,3800,128,8,4040:0:0:0:10:
109,192,3800,128,8,4040:0:0:0:10:
182,192,3800,1,8,0:0:0:10:
329,192,3800,1,8,0:0:0:10:
402,192,3800,1,8,0:0:0:10:
475,192,3920,1,0,0:0:0:26:
256,192,3920,1,0,0:0:0:26:
182,192,4040,1,4,0:0:0:13:
402,192,4040,128,4,4280:0:0:0:13:
475,192,4040,128,4,4280:0:0:0:13:
256,192,4040,1,4,0:0:0:13:
329,192,4160,1,0,0:0:0:26:
109,192,4160,1,0,0:0:0:26:
256,192,4280,1,0,0:0:0:17:
182,192,4280,1,0,0:0:0:17:
36,192,4280,1,0,0:0:0:17:
109,192,4400,1,0,0:0:0:26:
329,192,4400,1,0,0:0:0:26:
182,192,4520,1,0,0:0:0:17:
402,192,4520,1,0,0:0:0:17:
475,192,4520,1,0,0:0:0:17:
36,192,4640,1,0,0:0:0:26:
109,192,4640,1,0,0:0:0:26:
329,192,4760,1,0,0:0:0:17:
402,192,4760,1,0,0:0:0:17:
182,192,4760,1,0,0:0:0:17:
36,192,4880,1,0,0:0:0:26:
109,192,4880,1,0,0:0:0:26:
182,192,5000,1,8,0:0:0:17:
329,192,5000,1,8,0:0:0:17:
475,192,5000,128,8,5480:0:0:0:17:
109,192,5060,1,8,0:0:0:17:
256,192,5060,1,8,0:0:0:17:
402,192,5060,128,8,5360:0:0:0:17:
36,192,5120,1,8,0:0:0:17:
182,192,5120,1,8,0:0:0:17:
329,192,5120,128,8,5240:0:0:0:17:
109,192,5240,1,0,0:0:0:26:
256,192,5240,1,0,0:0:0:26:
182,192,5360,1,0,0:0:0:26:
329,192,5360,1,0,0:0:0:26:
402,192,5480,1,0,0:0:0:17:
256,192,5480,1,0,0:0:0:17:
36,192,5480,128,0,5720:0:0:0:17:
182,192,5600,1,0,0:0:0:53:
475,192,5720,1,8,0:0:0:17:
109,192,5720,128,8,5960:0:0:0:17:
329,192,5720,1,8,0:0:0:17:
256,192,5840,1,0,0:0:0:26:
402,192,5840,1,0,0:0:0:26:
182,192,5960,1,4,0:0:0:17:
329,192,5960,1,4,0:0:0:17:
475,192,5960,1,4,0:0:0:17:
256,192,6080,1,0,0:0:0:26:
402,192,6080,1,0,0:0:0:26:
36,192,6200,1,0,0:0:0:13:
182,192,6200,1,0,0:0:0:13:
109,192,6200,1,0,0:0:0:13:
329,192,6200,1,0,0:0:0:13:
256,192,6320,1,0,0:0:0:26:
402,192,6320,1,0,0:0:0:26:
329,192,6440,1,0,0:0:0:13:
402,192,6440,1,0,0:0:0:13:
182,192,6440,1,0,0:0:0:13:
36,192,6440,1,0,0:0:0:13:
475,192,6560,1,0,0:0:0:53:
475,192,6680,1,0,0:0:0:13:
329,192,6680,1,0,0:0:0:13:
256,192,6680,1,0,0:0:0:13:
109,192,6680,1,0,0:0:0:13:
402,192,6800,1,0,0:0:0:53:
36,192,6920,1,0,0:0:0:17:
182,192,6920,1,0,0:0:0:17:
329,192,6980,1,0,0:0:0:17:
475,192,6980,1,0,0:0:0:17:
182,192,7040,1,0,0:0:0:17:
36,192,7040,1,0,0:0:0:17:
256,192,7160,1,0,0:0:0:26:
402,192,7160,1,0,0:0:0:26:
182,192,7280,1,0,0:0:0:26:
329,192,7280,1,0,0:0:0:26:
109,192,7400,1,0,0:0:0:26:
256,192,7400,1,0,0:0:0:26:
36,192,7520,1,0,0:0:0:26:
182,192,7520,1,0,0:0:0:26:
329,192,7640,128,8,7880:0:0:0:10:
475,192,7640,128,8,7880:0:0:0:10:
402,192,7640,1,8,0:0:0:10:
109,192,7640,1,8,0:0:0:10:
256,192,7640,1,8,0:0:0:10:
36,192,7760,1,0,0:0:0:26:
182,192,7760,1,0,0:0:0:26:
109,192,7880,1,4,0:0:0:17:
256,192,7880,1,4,0:0:0:17:
402,192,7880,1,4,0:0:0:17:
36,192,8000,1,0,0:0:0:53:
109,192,8120,1,0,0:0:0:13:
256,192,8120,1,0,0:0:0:13:
36,192,8240,1,0,0:0:0:53:
182,192,8360,1,0,0:0:0:13:
329,192,8360,1,0,0:0:0:13:
36,192,8480,1,0,0:0:0:53:
109,192,8600,1,8,0:0:0:13:
329,192,8600,1,8,0:0:0:13:
402,192,8600,1,8,0:0:0:13:
256,192,8600,128,8,8840:0:0:0:13:
36,192,8720,1,0,0:0:0:53:
329,192,8840,128,8,9200:0:0:0:13:
109,192,8840,1,8,0:0:0:13:
182,192,8840,1,8,0:0:0:13:
475,192,8840,1,8,0:0:0:13:
36,192,8900,1,0,0:0:0:53:
182,192,8960,1,0,0:0:0:53:
36,192,9020,1,0,0:0:0:53:
182,192,9080,1,0,0:0:0:53:
36,192,9140,1,0,0:0:0:53:
402,192,9200,128,8,9560:0:0:0:13:
475,192,9200,1,8,0:0:0:13:
256,192,9200,1,8,0:0:0:13:
182,192,9200,1,8,0:0:0:13:
109,192,9260,1,0,0:0:0:53:
256,192,9320,1,0,0:0:0:53:
109,192,9380,1,0,0:0:0:53:
256,192,9440,1,0,0:0:0:53:
109,192,9500,1,0,0:0:0:53:
329,192,9560,1,8,0:0:0:17:
36,192,9560,1,8,0:0:0:17:
475,192,9560,1,8,0:0:0:17:
256,192,9620,1,0,0:0:0:26:
109,192,9620,1,0,0:0:0:26:
329,192,9680,1,0,0:0:0:26:
182,192,9680,1,0,0:0:0:26:
402,192,9740,1,0,0:0:0:26:
109,192,9740,1,0,0:0:0:26:
182,192,9800,1,4,0:0:0:13:
36,192,9800,1,4,0:0:0:13:
329,192,9800,1,4,0:0:0:13:
475,192,9800,1,4,0:0:0:13:
109,192,9920,1,0,0:0:0:26:
256,192,9920,1,0,0:0:0:26:
36,192,10040,1,8,0:0:0:13:
182,192,10040,1,8,0:0:0:13:
329,192,10040,1,8,0:0:0:13:
475,192,10040,1,8,0:0:0:13:
256,192,10160,1,0,0:0:0:26:
402,192,10160,1,0,0:0:0:26:
109,192,10280,1,0,0:0:0:26:
329,192,10280,1,0,0:0:0:26:
182,192,10400,1,0,0:0:0:26:
402,192,10400,1,0,0:0:0:26:
36,192,10520,1,8,0:0:0:13:
109,192,10520,1,8,0:0:0:13:
256,192,10520,1,8,0:0:0:13:
475,192,10520,1,8,0:0:0:13:
182,192,10640,1,0,0:0:0:26:
402,192,10640,1,0,0:0:0:26:
109,192,10760,1,0,0:0:0:17:
329,192,10760,1,0,0:0:0:17:
475,192,10760,128,0,10880:0:0:0:17:
36,192,10880,1,0,0:0:0:26:
256,192,10880,1,0,0:0:0:26:
475,192,11000,128,8,11120:0:0:0:17:
182,192,11000,1,8,0:0:0:17:
329,192,11000,1,8,0:0:0:17:
36,192,11120,1,0,0:0:0:26:
256,192,11120,1,0,0:0:0:26:
402,192,11240,128,0,11360:0:0:0:17:
329,192,11240,1,0,0:0:0:17:
109,192,11240,1,0,0:0:0:17:
256,192,11360,1,0,0:0:0:26:
36,192,11360,1,0,0:0:0:26:
329,192,11480,128,8,11600:0:0:0:17:
109,192,11480,1,8,0:0:0:17:
256,192,11480,1,8,0:0:0:17:
36,192,11600,1,0,0:0:0:26:
182,192,11600,1,0,0:0:0:26:
109,192,11720,1,0,0:0:0:17:
402,192,11720,1,0,0:0:0:17:
475,192,11720,1,0,0:0:0:17:
329,192,11840,1,0,0:0:0:26:
109,192,11840,1,0,0:0:0:26:
182,192,11960,1,8,0:0:0:13:
256,192,11960,1,8,0:0:0:13:
475,192,11960,1,8,0:0:0:13:
402,192,11960,1,8,0:0:0:13:
36,192,12080,1,0,0:0:0:26:
329,192,12080,1,0,0:0:0:26:
182,192,12200,1,0,0:0:0:17:
256,192,12200,1,0,0:0:0:17:
475,192,12200,1,0,0:0:0:17:
182,192,12320,1,0,0:0:0:17:
329,192,12320,1,0,0:0:0:17:
402,192,12320,1,0,0:0:0:17:
109,192,12440,1,8,0:0:0:13:
256,192,12440,1,8,0:0:0:13:
475,192,12440,1,8,0:0:0:13:
36,192,12440,1,8,0:0:0:13:
182,192,12560,1,0,0:0:0:26:
329,192,12560,1,0,0:0:0:26:
475,192,12680,128,0,12800:0:0:0:17:
256,192,12680,1,0,0:0:0:17:
36,192,12680,1,0,0:0:0:17:
109,192,12800,1,0,0:0:0:26:
402,192,12800,1,0,0:0:0:26:
475,192,12920,128,8,13040:0:0:0:17:
109,192,12920,1,8,0:0:0:17:
329,192,12920,1,8,0:0:0:17:
256,192,13040,1,0,0:0:0:26:
402,192,13040,1,0,0:0:0:26:
402,192,13160,128,0,13280:0:0:0:17:
109,192,13160,1,0,0:0:0:17:
256,192,13160,1,0,0:0:0:17:
182,192,13280,1,0,0:0:0:26:
329,192,13280,1,0,0:0:0:26:
329,192,13400,128,8,13520:0:0:0:17:
36,192,13400,1,8,0:0:0:17:
182,192,13400,1,8,0:0:0:17:
109,192,13520,1,0,0:0:0:26:
256,192,13520,1,0,0:0:0:26:
36,192,13640,1,0,0:0:0:13:
182,192,13640,1,0,0:0:0:13:
402,192,13640,1,0,0:0:0:13:
475,192,13640,1,0,0:0:0:13:
109,192,13760,1,0,0:0:0:26:
256,192,13760,1,0,0:0:0:26:
182,192,13880,1,8,0:0:0:17:
329,192,13880,1,8,0:0:0:17:
475,192,13880,1,8,0:0:0:17:
109,192,14000,1,0,0:0:0:26:
256,192,14000,1,0,0:0:0:26:
36,192,14120,1,0,0:0:0:13:
182,192,14120,1,0,0:0:0:13:
402,192,14120,1,0,0:0:0:13:
475,192,14120,1,0,0:0:0:13:
109,192,14240,1,0,0:0:0:26:
256,192,14240,1,0,0:0:0:26:
329,192,14360,1,8,0:0:0:17:
475,192,14360,1,8,0:0:0:17:
36,192,14360,1,8,0:0:0:17:
256,192,14480,1,0,0:0:0:26:
402,192,14480,1,0,0:0:0:26:
329,192,14600,128,0,14720:0:0:0:17:
475,192,14600,128,0,14720:0:0:0:17:
109,192,14600,1,0,0:0:0:17:
182,192,14720,1,0,0:0:0:53:
329,192,14840,128,8,14960:0:0:0:17:
475,192,14840,128,8,14960:0:0:0:17:
36,192,14840,1,8,0:0:0:17:
182,192,14960,1,0,0:0:0:53:
256,192,15080,128,0,15200:0:0:0:17:
402,192,15080,128,0,15200:0:0:0:17:
109,192,15080,1,0,0:0:0:17:
182,192,15200,1,0,0:0:0:53:
182,192,15320,128,8,15440:0:0:0:17:
329,192,15320,128,8,15440:0:0:0:17:
36,192,15320,1,8,0:0:0:17:
109,192,15440,1,0,0:0:0:53:
36,192,15560,1,0,0:0:0:17:
256,192,15560,1,0,0:0:0:17:
402,192,15560,1,0,0:0:0:17:
109,192,15680,1,0,0:0:0:26:
329,192,15680,1,0,0:0:0:26:
182,192,15800,1,8,0:0:0:17:
402,192,15800,1,8,0:0:0:17:
256,192,15800,1,8,0:0:0:17:
109,192,15920,1,0,0:0:0:26:
329,192,15920,1,0,0:0:0:26:
36,192,16040,1,0,0:0:0:17:
256,192,16040,1,0,0:0:0:17:
475,192,16040,1,0,0:0:0:17:
109,192,16160,1,0,0:0:0:26:
329,192,16160,1,0,0:0:0:26:
256,192,16280,1,8,0:0:0:17:
402,192,16280,1,8,0:0:0:17:
475,192,16280,1,8,0:0:0:17:
182,192,16400,1,0,0:0:0:26:
329,192,16400,1,0,0:0:0:26:
256,192,16520,128,0,16640:0:0:0:17:
402,192,16520,128,0,16640:0:0:0:17:
36,192,16520,1,0,0:0:0:17:
109,192,16640,1,0,0:0:0:53:
256,192,16760,128,8,16880:0:0:0:17:
402,192,16760,128,8,16880:0:0:0:17:
36,192,16760,1,8,0:0:0:17:
182,192,16880,1,0,0:0:0:53:
182,192,17000,128,0,17120:0:0:0:17:
329,192,17000,128,0,17120:0:0:0:17:
109,192,17000,1,0,0:0:0:17:
475,192,17120,1,0,0:0:0:53:
109,192,17240,128,8,17360:0:0:0:17:
256,192,17240,128,8,17360:0:0:0:17:
36,192,17240,1,8,0:0:0:17:
402,192,17360,1,0,0:0:0:53:
36,192,17480,1,0,0:0:0:13:
182,192,17480,1,0,0:0:0:13:
329,192,17480,1,0,0:0:0:13:
402,192,17480,1,0,0:0:0:13:
256,192,17600,1,0,0:0:0:26:
109,192,17600,1,0,0:0:0:26:
182,192,17720,1,8,0:0:0:13:
329,192,17720,1,8,0:0:0:13:
475,192,17720,1,8,0:0:0:13:
109,192,17720,1,8,0:0:0:13:
256,192,17840,1,0,0:0:0:26:
36,192,17840,1,0,0:0:0:26:
36,192,17960,1,0,0:0:0:13:
182,192,17960,1,0,0:0:0:13:
329,192,17960,1,0,0:0:0:13:
402,192,17960,1,0,0:0:0:13:
256,192,18080,1,0,0:0:0:26:
475,192,18080,1,0,0:0:0:26:
475,192,18200,1,8,0:0:0:13:
329,192,18200,1,8,0:0:0:13:
182,192,18200,1,8,0:0:0:13:
36,192,18200,1,8,0:0:0:13:
109,192,18320,1,0,0:0:0:26:
256,192,18320,1,0,0:0:0:26:
36,192,18440,128,0,19160:0:0:0:10:
182,192,18440,1,0,0:0:0:10:
329,192,18440,1,0,0:0:0:10:
402,192,18440,1,0,0:0:0:10:
109,192,18560,1,0,0:0:0:53:
182,192,18680,1,8,0:0:0:13:
329,192,18680,1,8,0:0:0:13:
475,192,18680,1,8,0:0:0:13:
402,192,18680,1,8,0:0:0:13:
256,192,18800,1,0,0:0:0:53:
182,192,18920,1,0,0:0:0:13:
329,192,18920,1,0,0:0:0:13:
475,192,18920,1,0,0:0:0:13:
402,192,19040,1,0,0:0:0:53:
109,192,19160,1,8,0:0:0:13:
182,192,19160,1,8,0:0:0:13:
475,192,19160,1,8,0:0:0:13:
256,192,19160,1,8,0:0:0:13:
402,192,19280,1,0,0:0:0:53:
182,192,19400,1,0,0:0:0:17:
329,192,19400,1,0,0:0:0:17:
36,192,19400,1,0,0:0:0:17:
109,192,19520,1,0,0:0:0:17:
256,192,19520,1,0,0:0:0:17:
402,192,19520,1,0,0:0:0:0:
182,192,19640,1,8,0:0:0:17:
329,192,19640,1,8,0:0:0:17:
475,192,19640,1,8,0:0:0:17:
256,192,19760,1,0,0:0:0:17:
402,192,19760,1,0,0:0:0:17:
109,192,19760,1,0,0:0:0:0:
36,192,19880,1,0,0:0:0:17:
182,192,19880,1,0,0:0:0:17:
256,192,19880,1,0,0:0:0:17:
109,192,20000,1,0,0:0:0:17:
329,192,20000,1,0,0:0:0:17:
256,192,20120,1,8,0:0:0:17:
402,192,20120,1,8,0:0:0:17:
182,192,20120,1,8,0:0:0:17:
109,192,20240,1,0,0:0:0:17:
329,192,20240,1,0,0:0:0:17:
475,192,20360,128,0,21080:0:0:0:10:
109,192,20360,1,0,0:0:0:10:
329,192,20360,1,0,0:0:0:10:
402,192,20360,1,0,0:0:0:10:
256,192,20360,1,0,0:0:0:10:
36,192,20480,1,0,0:0:0:53:
109,192,20600,1,8,0:0:0:13:
256,192,20600,1,8,0:0:0:13:
329,192,20600,1,8,0:0:0:13:
402,192,20600,1,8,0:0:0:13:
36,192,20720,1,0,0:0:0:53:
109,192,20840,1,0,0:0:0:13:
329,192,20840,1,0,0:0:0:13:
182,192,20840,1,0,0:0:0:13:
402,192,20840,1,0,0:0:0:13:
36,192,20960,1,0,0:0:0:53:
109,192,21080,1,8,0:0:0:13:
182,192,21080,1,8,0:0:0:13:
256,192,21080,1,8,0:0:0:13:
402,192,21080,1,8,0:0:0:13:
36,192,21200,1,0,0:0:0:53:
182,192,21320,1,0,0:0:0:17:
402,192,21320,1,0,0:0:0:17:
109,192,21320,1,0,0:0:0:17:
256,192,21440,1,0,0:0:0:26:
475,192,21440,1,0,0:0:0:26:
329,192,21560,1,12,0:0:0:17:
36,192,21560,1,12,0:0:0:17:
402,192,21560,1,12,0:0:0:17:
256,192,21680,1,0,0:0:0:26:
475,192,21680,1,0,0:0:0:26:
182,192,21800,1,0,0:0:0:17:
402,192,21800,1,0,0:0:0:17:
109,192,21800,1,0,0:0:0:17:
329,192,21920,1,0,0:0:0:26:
475,192,21920,1,0,0:0:0:26:
36,192,22040,1,8,0:0:0:17:
182,192,22040,1,8,0:0:0:17:
402,192,22040,1,8,0:0:0:17:
329,192,22160,1,0,0:0:0:26:
475,192,22160,1,0,0:0:0:26:
256,192,22280,1,0,0:0:0:17:
402,192,22280,1,0,0:0:0:17:
182,192,22280,1,0,0:0:0:17:
109,192,22400,1,0,0:0:0:26:
329,192,22400,1,0,0:0:0:26:
36,192,22520,1,12,0:0:0:17:
182,192,22520,1,12,0:0:0:17:
256,192,22520,1,12,0:0:0:17:
109,192,22640,1,0,0:0:0:26:
329,192,22640,1,0,0:0:0:26:
256,192,22760,1,0,0:0:0:17:
402,192,22760,1,0,0:0:0:17:
475,192,22760,1,0,0:0:0:17:
182,192,22880,1,0,0:0:0:26:
329,192,22880,1,0,0:0:0:26:
36,192,23000,1,8,0:0:0:17:
109,192,23000,1,8,0:0:0:17:
256,192,23000,1,8,0:0:0:17:
182,192,23120,1,0,0:0:0:26:
329,192,23120,1,0,0:0:0:26:
256,192,23240,1,0,0:0:0:26:
109,192,23240,1,0,0:0:0:26:
475,192,23360,1,12,0:0:0:13:
329,192,23360,1,0,0:0:0:13:
109,192,23360,1,12,0:0:0:13:
182,192,23360,1,0,0:0:0:13:
36,192,23480,1,0,0:0:0:26:
402,192,23480,1,0,0:0:0:26:
256,192,23600,1,0,0:0:0:26:
36,192,23600,1,0,0:0:0:26:
109,192,23720,1,12,0:0:0:13:
182,192,23720,1,12,0:0:0:13:
329,192,23720,1,12,0:0:0:13:
402,192,23720,1,12,0:0:0:13:
475,192,23840,1,0,0:0:0:26:
256,192,23840,1,0,0:0:0:26:
36,192,23960,1,12,0:0:0:13:
182,192,23960,1,12,0:0:0:13:
109,192,23960,1,12,0:0:0:13:
329,192,23960,1,12,0:0:0:13:
402,192,24080,1,0,0:0:0:26:
256,192,24080,1,0,0:0:0:26:
109,192,24200,1,0,0:0:0:17:
182,192,24200,1,0,0:0:0:17:
329,192,24200,1,0,0:0:0:17:
256,192,24260,1,0,0:0:0:26:
402,192,24260,1,0,0:0:0:26:
329,192,24320,1,0,0:0:0:26:
182,192,24320,1,0,0:0:0:26:
475,192,24440,128,8,24560:0:0:0:17:
402,192,24440,1,8,0:0:0:17:
256,192,24440,1,8,0:0:0:17:
402,192,24560,128,0,24680:0:0:0:17:
329,192,24560,1,0,0:0:0:17:
182,192,24560,1,0,0:0:0:17:
329,192,24680,128,0,24800:0:0:0:17:
256,192,24680,1,0,0:0:0:17:
109,192,24680,1,0,0:0:0:17:
475,192,24740,1,0,0:0:0:53:
256,192,24800,128,0,24920:0:0:0:17:
182,192,24800,1,0,0:0:0:17:
36,192,24800,1,0,0:0:0:17:
402,192,24860,1,0,0:0:0:53:
182,192,24920,128,8,25040:0:0:0:13:
109,192,24920,1,8,0:0:0:13:
329,192,24920,1,8,0:0:0:13:
475,192,24920,1,8,0:0:0:13:
109,192,25040,128,4,25160:0:0:0:17:
36,192,25040,1,0,0:0:0:17:
402,192,25040,1,0,0:0:0:17:
256,192,25160,1,4,0:0:0:13:
329,192,25160,1,4,0:0:0:13:
475,192,25160,1,4,0:0:0:13:
182,192,25160,1,4,0:0:0:13:
109,192,25280,1,0,0:0:0:26:
329,192,25280,1,0,0:0:0:26:
36,192,25400,1,8,0:0:0:17:
182,192,25400,1,8,0:0:0:17:
256,192,25400,1,8,0:0:0:17:
109,192,25520,1,0,0:0:0:26:
329,192,25520,1,0,0:0:0:26:
36,192,25640,1,0,0:0:0:17:
182,192,25640,1,0,0:0:0:17:
475,192,25640,1,0,0:0:0:17:
109,192,25760,1,0,0:0:0:26:
256,192,25760,1,0,0:0:0:26:
182,192,25880,1,8,0:0:0:17:
329,192,25880,1,8,0:0:0:17:
475,192,25880,1,8,0:0:0:17:
109,192,26000,1,0,0:0:0:26:
256,192,26000,1,0,0:0:0:26:
182,192,26120,128,0,26240:0:0:0:17:
329,192,26120,128,0,26240:0:0:0:17:
475,192,26120,128,0,26240:0:0:0:17:
109,192,26240,1,0,0:0:0:53:
182,192,26360,128,8,26480:0:0:0:17:
329,192,26360,128,8,26480:0:0:0:17:
475,192,26360,128,8,26480:0:0:0:17:
36,192,26480,1,0,0:0:0:53:
109,192,26600,128,0,26720:0:0:0:17:
256,192,26600,128,0,26720:0:0:0:17:
402,192,26600,128,0,26720:0:0:0:17:
475,192,26720,1,0,0:0:0:53:
36,192,26840,128,8,26960:0:0:0:17:
182,192,26840,128,8,26960:0:0:0:17:
329,192,26840,128,8,26960:0:0:0:17:
402,192,26960,1,0,0:0:0:53:
36,192,27080,1,0,0:0:0:13:
329,192,27080,1,0,0:0:0:13:
475,192,27080,1,0,0:0:0:13:
109,192,27080,1,0,0:0:0:13:
256,192,27200,1,0,0:0:0:53:
109,192,27320,1,8,0:0:0:17:
182,192,27320,1,8,0:0:0:17:
402,192,27320,1,8,0:0:0:17:
329,192,27440,1,0,0:0:0:53:
36,192,27560,1,0,0:0:0:13:
182,192,27560,1,0,0:0:0:13:
475,192,27560,1,0,0:0:0:13:
402,192,27560,1,0,0:0:0:13:
256,192,27680,1,0,0:0:0:53:
182,192,27800,1,8,0:0:0:13:
109,192,27800,1,8,0:0:0:13:
402,192,27800,1,8,0:0:0:13:
475,192,27800,1,8,0:0:0:13:
329,192,27920,1,0,0:0:0:53:
256,192,28040,128,0,28160:0:0:0:17:
329,192,28040,128,0,28160:0:0:0:17:
475,192,28040,128,0,28160:0:0:0:17:
109,192,28160,1,0,0:0:0:53:
256,192,28280,128,8,28400:0:0:0:17:
329,192,28280,128,8,28400:0:0:0:17:
475,192,28280,128,8,28400:0:0:0:17:
36,192,28280,1,0,0:0:0:0:
109,192,28400,1,0,0:0:0:53:
182,192,28520,128,0,28640:0:0:0:17:
256,192,28520,128,0,28640:0:0:0:17:
402,192,28520,128,0,28640:0:0:0:17:
36,192,28640,1,0,0:0:0:53:
109,192,28760,128,8,28880:0:0:0:17:
182,192,28760,128,8,28880:0:0:0:17:
329,192,28760,128,8,28880:0:0:0:17:
475,192,28760,1,0,0:0:0:0:
36,192,28880,1,0,0:0:0:53:
109,192,29000,1,0,0:0:0:13:
256,192,29000,1,0,0:0:0:13:
475,192,29000,1,0,0:0:0:13:
36,192,29000,1,0,0:0:0:13:
329,192,29120,1,0,0:0:0:26:
475,192,29120,1,0,0:0:0:26:
402,192,29240,1,8,0:0:0:17:
256,192,29240,1,8,0:0:0:17:
109,192,29240,1,8,0:0:0:17:
475,192,29360,1,0,0:0:0:26:
182,192,29360,1,0,0:0:0:26:
402,192,29480,1,0,0:0:0:13:
256,192,29480,1,0,0:0:0:13:
109,192,29480,1,0,0:0:0:13:
36,192,29480,1,0,0:0:0:13:
402,192,29600,1,0,0:0:0:26:
182,192,29600,1,0,0:0:0:26:
475,192,29720,1,8,0:0:0:17:
329,192,29720,1,8,0:0:0:17:
109,192,29720,1,8,0:0:0:17:
402,192,29840,1,0,0:0:0:26:
256,192,29840,1,0,0:0:0:26:
182,192,29960,128,0,30080:0:0:0:13:
329,192,29960,128,0,30080:0:0:0:13:
475,192,29960,128,0,30080:0:0:0:13:
256,192,29960,1,0,0:0:0:13:
36,192,30080,1,0,0:0:0:53:
182,192,30200,128,8,30320:0:0:0:13:
329,192,30200,128,8,30320:0:0:0:13:
475,192,30200,128,8,30320:0:0:0:13:
256,192,30200,1,8,0:0:0:13:
36,192,30320,1,0,0:0:0:53:
109,192,30440,128,0,30560:0:0:0:13:
256,192,30440,128,0,30560:0:0:0:13:
402,192,30440,128,0,30560:0:0:0:13:
182,192,30440,1,0,0:0:0:13:
36,192,30560,1,0,0:0:0:53:
36,192,30680,128,8,30800:0:0:0:13:
182,192,30680,128,8,30800:0:0:0:13:
329,192,30680,128,8,30800:0:0:0:13:
475,192,30680,1,8,0:0:0:13:
402,192,30800,1,0,0:0:0:53:
109,192,30920,1,0,0:0:0:17:
256,192,30920,1,0,0:0:0:17:
475,192,30920,1,0,0:0:0:17:
182,192,31040,1,0,0:0:0:26:
402,192,31040,1,0,0:0:0:26:
36,192,31160,1,8,0:0:0:13:
109,192,31160,1,8,0:0:0:13:
329,192,31160,1,8,0:0:0:13:
475,192,31160,1,8,0:0:0:13:
256,192,31280,1,0,0:0:0:26:
402,192,31280,1,0,0:0:0:26:
182,192,31400,1,0,0:0:0:13:
36,192,31400,1,0,0:0:0:13:
109,192,31400,1,0,0:0:0:13:
329,192,31400,1,0,0:0:0:13:
256,192,31520,1,0,0:0:0:26:
475,192,31520,1,0,0:0:0:26:
402,192,31640,1,8,0:0:0:13:
329,192,31640,1,8,0:0:0:13:
182,192,31640,1,8,0:0:0:13:
109,192,31640,1,8,0:0:0:13:
36,192,31760,1,0,0:0:0:26:
256,192,31760,1,0,0:0:0:26:
36,192,31880,128,0,32840:0:0:0:13:
475,192,31880,128,0,32000:0:0:0:13:
109,192,31880,1,0,0:0:0:13:
256,192,31880,1,0,0:0:0:13:
182,192,32000,1,0,0:0:0:26:
329,192,32000,1,0,0:0:0:26:
475,192,32120,128,8,32240:0:0:0:17:
182,192,32120,1,8,0:0:0:17:
329,192,32120,1,8,0:0:0:17:
256,192,32240,1,0,0:0:0:26:
402,192,32240,1,0,0:0:0:26:
402,192,32360,128,0,32480:0:0:0:17:
109,192,32360,1,0,0:0:0:17:
329,192,32360,1,0,0:0:0:17:
256,192,32480,1,0,0:0:0:26:
475,192,32480,1,0,0:0:0:26:
329,192,32600,128,8,32720:0:0:0:17:
109,192,32600,1,8,0:0:0:17:
256,192,32600,1,8,0:0:0:17:
182,192,32720,1,0,0:0:0:26:
402,192,32720,1,0,0:0:0:26:
109,192,32840,1,0,0:0:0:17:
256,192,32840,1,0,0:0:0:17:
475,192,32840,1,0,0:0:0:17:
182,192,32960,1,0,0:0:0:26:
36,192,32960,1,0,0:0:0:26:
329,192,33080,1,8,0:0:0:17:
475,192,33080,1,8,0:0:0:17:
109,192,33080,1,8,0:0:0:17:
256,192,33200,1,0,0:0:0:26:
402,192,33200,1,0,0:0:0:26:
36,192,33320,1,0,0:0:0:17:
182,192,33320,1,0,0:0:0:17:
475,192,33320,1,0,0:0:0:17:
109,192,33440,1,0,0:0:0:26:
256,192,33440,1,0,0:0:0:26:
329,192,33560,1,8,0:0:0:17:
475,192,33560,1,8,0:0:0:17:
36,192,33560,1,8,0:0:0:17:
256,192,33680,1,0,0:0:0:26:
402,192,33680,1,0,0:0:0:26:
475,192,33800,128,0,34640:0:0:0:13:
182,192,33800,128,0,33920:0:0:0:13:
402,192,33800,1,0,0:0:0:13:
109,192,33800,1,0,0:0:0:13:
36,192,33920,1,0,0:0:0:26:
329,192,33920,1,0,0:0:0:26:
182,192,34040,128,8,34160:0:0:0:17:
109,192,34040,1,8,0:0:0:17:
402,192,34040,1,8,0:0:0:17:
256,192,34160,1,0,0:0:0:26:
36,192,34160,1,0,0:0:0:26:
109,192,34280,128,0,34400:0:0:0:17:
182,192,34280,1,0,0:0:0:17:
402,192,34280,1,0,0:0:0:17:
36,192,34400,1,0,0:0:0:26:
256,192,34400,1,0,0:0:0:26:
36,192,34520,128,8,34640:0:0:0:17:
329,192,34520,1,8,0:0:0:17:
182,192,34520,1,8,0:0:0:17:
109,192,34640,1,0,0:0:0:26:
256,192,34640,1,0,0:0:0:26:
36,192,34760,1,0,0:0:0:13:
182,192,34760,1,0,0:0:0:13:
402,192,34760,1,0,0:0:0:13:
475,192,34760,1,0,0:0:0:13:
182,192,34880,1,0,0:0:0:53:
329,192,35000,1,8,0:0:0:13:
109,192,35000,1,8,0:0:0:13:
256,192,35000,1,8,0:0:0:13:
475,192,35000,1,8,0:0:0:13:
329,192,35120,1,0,0:0:0:53:
256,192,35240,1,0,0:0:0:13:
36,192,35240,1,0,0:0:0:13:
402,192,35240,1,0,0:0:0:13:
475,192,35240,1,0,0:0:0:13:
256,192,35360,1,0,0:0:0:53:
109,192,35480,1,8,0:0:0:13:
182,192,35480,1,8,0:0:0:13:
402,192,35480,1,8,0:0:0:13:
475,192,35480,1,8,0:0:0:13:
402,192,35600,1,0,0:0:0:53:
475,192,35720,128,0,35840:0:0:0:17:
402,192,35720,1,0,0:0:0:17:
182,192,35720,1,0,0:0:0:17:
329,192,35840,128,0,35960:0:0:0:17:
109,192,35840,1,0,0:0:0:17:
256,192,35840,1,0,0:0:0:17:
475,192,35960,128,8,36080:0:0:0:17:
182,192,35960,1,8,0:0:0:17:
402,192,35960,1,8,0:0:0:17:
329,192,36080,128,0,36200:0:0:0:17:
36,192,36080,1,0,0:0:0:17:
256,192,36080,1,0,0:0:0:17:
402,192,36200,128,0,36320:0:0:0:17:
475,192,36200,1,0,0:0:0:17:
182,192,36200,1,0,0:0:0:17:
256,192,36320,128,0,36440:0:0:0:17:
36,192,36320,1,0,0:0:0:17:
109,192,36320,1,0,0:0:0:17:
329,192,36440,128,8,36560:0:0:0:17:
402,192,36440,1,8,0:0:0:17:
182,192,36440,1,8,0:0:0:17:
182,192,36560,128,0,36680:0:0:0:17:
256,192,36560,1,0,0:0:0:17:
36,192,36560,1,0,0:0:0:17:
109,192,36680,1,0,0:0:0:17:
256,192,36680,1,0,0:0:0:17:
402,192,36680,1,0,0:0:0:17:
182,192,36800,1,0,0:0:0:26:
329,192,36800,1,0,0:0:0:26:
256,192,36920,1,12,0:0:0:17:
402,192,36920,1,12,0:0:0:17:
475,192,36920,1,12,0:0:0:17:
182,192,37040,1,0,0:0:0:26:
329,192,37040,1,0,0:0:0:26:
109,192,37160,1,0,0:0:0:17:
256,192,37160,1,0,0:0:0:17:
402,192,37160,1,0,0:0:0:17:
329,192,37280,1,0,0:0:0:26:
475,192,37280,1,0,0:0:0:26:
36,192,37400,1,8,0:0:0:17:
182,192,37400,1,8,0:0:0:17:
256,192,37400,1,8,0:0:0:17:
329,192,37520,1,0,0:0:0:26:
475,192,37520,1,0,0:0:0:26:
256,192,37640,1,0,0:0:0:17:
402,192,37640,1,0,0:0:0:17:
109,192,37640,1,0,0:0:0:17:
329,192,37760,1,0,0:0:0:26:
182,192,37760,1,0,0:0:0:26:
256,192,37880,1,12,0:0:0:17:
36,192,37880,1,12,0:0:0:17:
109,192,37880,1,12,0:0:0:17:
182,192,38000,1,0,0:0:0:26:
329,192,38000,1,0,0:0:0:26:
256,192,38120,1,0,0:0:0:17:
402,192,38120,1,0,0:0:0:17:
475,192,38120,1,0,0:0:0:17:
182,192,38240,1,0,0:0:0:26:
329,192,38240,1,0,0:0:0:26:
256,192,38360,1,8,0:0:0:17:
109,192,38360,1,8,0:0:0:17:
36,192,38360,1,8,0:0:0:17:
182,192,38480,1,0,0:0:0:26:
329,192,38480,1,0,0:0:0:26:
475,192,38600,1,0,0:0:0:26:
256,192,38600,1,0,0:0:0:26:
329,192,38720,1,12,0:0:0:13:
182,192,38720,1,12,0:0:0:13:
109,192,38720,1,12,0:0:0:13:
402,192,38720,1,12,0:0:0:13:
256,192,38840,1,0,0:0:0:26:
36,192,38840,1,0,0:0:0:26:
182,192,38960,1,0,0:0:0:26:
329,192,38960,1,0,0:0:0:26:
36,192,39080,1,12,0:0:0:13:
109,192,39080,1,12,0:0:0:13:
256,192,39080,1,12,0:0:0:13:
475,192,39080,1,12,0:0:0:13:
182,192,39200,1,0,0:0:0:26:
329,192,39200,1,0,0:0:0:26:
402,192,39320,1,12,0:0:0:13:
256,192,39320,1,12,0:0:0:13:
36,192,39320,1,12,0:0:0:13:
109,192,39320,1,12,0:0:0:13:
182,192,39440,1,0,0:0:0:26:
329,192,39440,1,0,0:0:0:26:
256,192,39560,1,8,0:0:0:17:
402,192,39560,1,8,0:0:0:17:
182,192,39620,1,8,0:0:0:17:
329,192,39620,1,8,0:0:0:17:
109,192,39680,1,8,0:0:0:17:
256,192,39680,1,8,0:0:0:17:
402,192,39800,128,8,39920:0:0:0:17:
329,192,39800,1,8,0:0:0:17:
182,192,39800,1,8,0:0:0:17:
329,192,39920,128,8,40040:0:0:0:17:
256,192,39920,1,8,0:0:0:17:
109,192,39920,1,8,0:0:0:17:
256,192,40040,128,0,40160:0:0:0:17:
182,192,40040,1,0,0:0:0:17:
36,192,40040,1,0,0:0:0:17:
402,192,40100,1,0,0:0:0:53:
182,192,40160,128,0,40280:0:0:0:17:
109,192,40160,1,0,0:0:0:17:
475,192,40160,1,0,0:0:0:17:
329,192,40220,1,0,0:0:0:53:
109,192,40280,128,8,40400:0:0:0:17:
36,192,40280,1,8,0:0:0:17:
402,192,40280,1,8,0:0:0:17:
475,192,40340,1,0,0:0:0:53:
36,192,40400,128,4,40520:0:0:0:17:
329,192,40400,1,0,0:0:0:17:
182,192,40400,1,0,0:0:0:17:
402,192,40460,1,0,0:0:0:53:
109,192,40520,1,4,0:0:0:13:
256,192,40520,1,4,0:0:0:13:
475,192,40520,1,4,0:0:0:13:
329,192,40520,1,4,0:0:0:13:
36,192,40640,1,0,0:0:0:53:
182,192,40760,1,8,0:0:0:13:
402,192,40760,1,8,0:0:0:13:
475,192,40760,1,8,0:0:0:13:
256,192,40760,1,8,0:0:0:13:
109,192,40880,1,0,0:0:0:26:
329,192,40880,1,0,0:0:0:26:
182,192,41000,1,0,0:0:0:26:
402,192,41000,1,0,0:0:0:26:
36,192,41120,1,0,0:0:0:53:
109,192,41240,1,8,0:0:0:13:
256,192,41240,1,8,0:0:0:13:
402,192,41240,1,8,0:0:0:13:
329,192,41240,1,8,0:0:0:13:
36,192,41360,1,0,0:0:0:53:
182,192,41480,1,0,0:0:0:17:
329,192,41480,1,0,0:0:0:17:
475,192,41480,1,0,0:0:0:17:
36,192,41600,1,0,0:0:0:53:
256,192,41720,1,8,0:0:0:13:
402,192,41720,1,8,0:0:0:13:
109,192,41720,1,8,0:0:0:13:
182,192,41720,1,8,0:0:0:13:
329,192,41840,1,0,0:0:0:26:
475,192,41840,1,0,0:0:0:26:
36,192,41960,1,0,0:0:0:26:
182,192,41960,1,0,0:0:0:26:
109,192,42080,1,0,0:0:0:26:
256,192,42080,1,0,0:0:0:26:
182,192,42200,1,8,0:0:0:13:
329,192,42200,1,8,0:0:0:13:
402,192,42200,1,8,0:0:0:13:
475,192,42200,1,8,0:0:0:13:
109,192,42320,1,0,0:0:0:26:
36,192,42320,1,0,0:0:0:26:
182,192,42440,1,0,0:0:0:17:
256,192,42440,1,0,0:0:0:17:
402,192,42440,1,0,0:0:0:17:
109,192,42560,1,0,0:0:0:26:
36,192,42560,1,0,0:0:0:26:
182,192,42680,1,8,0:0:0:13:
475,192,42680,1,8,0:0:0:13:
329,192,42680,1,8,0:0:0:13:
402,192,42680,1,8,0:0:0:13:
109,192,42800,1,0,0:0:0:26:
256,192,42800,1,0,0:0:0:26:
182,192,42920,1,0,0:0:0:17:
475,192,42920,1,0,0:0:0:17:
329,192,42920,1,0,0:0:0:17:
109,192,43040,1,0,0:0:0:26:
402,192,43040,1,0,0:0:0:26:
329,192,43160,1,8,0:0:0:13:
256,192,43160,1,8,0:0:0:13:
36,192,43160,1,8,0:0:0:13:
182,192,43160,1,8,0:0:0:13:
109,192,43280,1,0,0:0:0:26:
402,192,43280,1,0,0:0:0:26:
329,192,43400,1,0,0:0:0:26:
475,192,43400,1,0,0:0:0:26:
402,192,43520,1,0,0:0:0:26:
256,192,43520,1,0,0:0:0:26:
36,192,43640,1,8,0:0:0:13:
182,192,43640,1,8,0:0:0:13:
109,192,43640,1,8,0:0:0:13:
329,192,43640,1,8,0:0:0:13:
256,192,43760,1,0,0:0:0:26:
402,192,43760,1,0,0:0:0:26:
182,192,43880,1,0,0:0:0:26:
329,192,43880,1,0,0:0:0:26:
36,192,44000,1,0,0:0:0:26:
256,192,44000,1,0,0:0:0:26:
182,192,44120,1,8,0:0:0:13:
329,192,44120,1,8,0:0:0:13:
475,192,44120,1,8,0:0:0:13:
109,192,44120,1,8,0:0:0:13:
402,192,44240,1,0,0:0:0:17:
256,192,44240,1,0,0:0:0:17:
36,192,44240,1,0,0:0:0:17:
182,192,44360,1,0,0:0:0:17:
329,192,44360,1,0,0:0:0:17:
109,192,44360,128,0,46280:0:0:0:17:
256,192,44480,1,0,0:0:0:17:
402,192,44480,1,0,0:0:0:17:
36,192,44480,1,0,0:0:0:17:
329,192,44600,1,8,0:0:0:17:
475,192,44600,1,8,0:0:0:17:
256,192,44600,1,8,0:0:0:17:
182,192,44720,1,0,0:0:0:26:
402,192,44720,1,0,0:0:0:26:
329,192,44840,1,0,0:0:0:26:
475,192,44840,1,0,0:0:0:26:
402,192,44960,1,0,0:0:0:26:
256,192,44960,1,0,0:0:0:26:
36,192,45080,1,8,0:0:0:17:
329,192,45080,1,8,0:0:0:17:
256,192,45080,1,8,0:0:0:17:
182,192,45200,1,0,0:0:0:26:
329,192,45200,1,0,0:0:0:26:
256,192,45320,1,0,0:0:0:26:
475,192,45320,1,0,0:0:0:26:
402,192,45440,1,0,0:0:0:26:
182,192,45440,1,0,0:0:0:26:
402,192,45560,1,8,0:0:0:17:
36,192,45560,1,8,0:0:0:17:
256,192,45560,1,8,0:0:0:17:
475,192,45680,1,0,0:0:0:26:
329,192,45680,1,0,0:0:0:26:
402,192,45800,1,0,0:0:0:26:
256,192,45800,1,0,0:0:0:26:
329,192,45920,1,0,0:0:0:26:
36,192,45920,1,0,0:0:0:26:
475,192,46040,1,8,0:0:0:17:
329,192,46040,1,8,0:0:0:17:
256,192,46040,1,8,0:0:0:17:
402,192,46160,1,0,0:0:0:26:
182,192,46160,1,0,0:0:0:26:
36,192,46280,128,0,46760:0:0:0:17:
256,192,46280,1,0,0:0:0:17:
329,192,46280,1,0,0:0:0:17:
402,192,46400,1,0,0:0:0:26:
475,192,46400,1,0,0:0:0:26:
329,192,46520,1,12,0:0:0:26:
402,192,46520,1,12,0:0:0:26:
402,192,46640,1,0,0:0:0:26:
475,192,46640,1,0,0:0:0:26:
109,192,46760,128,0,47240:0:0:0:17:
182,192,46760,1,0,0:0:0:17:
256,192,46760,1,0,0:0:0:17:
329,192,46880,1,0,0:0:0:26:
475,192,46880,1,0,0:0:0:26:
256,192,47000,1,12,0:0:0:26:
402,192,47000,1,12,0:0:0:26:
329,192,47120,1,0,0:0:0:26:
475,192,47120,1,0,0:0:0:26:
182,192,47240,128,0,47720:0:0:0:17:
36,192,47240,1,0,0:0:0:17:
256,192,47240,1,0,0:0:0:17:
329,192,47360,1,0,0:0:0:26:
475,192,47360,1,0,0:0:0:26:
109,192,47480,1,12,0:0:0:26:
256,192,47480,1,12,0:0:0:26:
402,192,47600,1,0,0:0:0:26:
475,192,47600,1,0,0:0:0:26:
256,192,47720,128,0,48200:0:0:0:17:
36,192,47720,1,0,0:0:0:17:
402,192,47720,1,0,0:0:0:17:
329,192,47840,1,0,0:0:0:26:
475,192,47840,1,0,0:0:0:26:
109,192,47960,1,12,0:0:0:26:
329,192,47960,1,12,0:0:0:26:
402,192,48080,1,0,0:0:0:26:
475,192,48080,1,0,0:0:0:26:
475,192,48200,1,4,0:0:0:17:
36,192,48200,1,4,0:0:0:17:
182,192,48200,1,4,0:0:0:17:
329,192,48320,1,0,0:0:0:26:
109,192,48320,1,0,0:0:0:26:
182,192,48440,1,8,0:0:0:17:
402,192,48440,1,8,0:0:0:17:
475,192,48440,1,8,0:0:0:17:
36,192,48560,1,0,0:0:0:26:
329,192,48560,1,0,0:0:0:26:
256,192,48680,1,0,0:0:0:17:
402,192,48680,1,0,0:0:0:17:
109,192,48680,1,0,0:0:0:17:
329,192,48740,1,0,0:0:0:26:
475,192,48740,1,0,0:0:0:26:
402,192,48800,1,0,0:0:0:26:
182,192,48800,1,0,0:0:0:26:
109,192,48920,1,8,0:0:0:26:
329,192,48920,1,8,0:0:0:26:
256,192,49040,1,0,0:0:0:26:
36,192,49040,1,0,0:0:0:26:
109,192,49160,1,0,0:0:0:17:
329,192,49160,1,0,0:0:0:17:
402,192,49160,1,0,0:0:0:17:
36,192,49280,1,0,0:0:0:17:
329,192,49280,1,0,0:0:0:17:
256,192,49280,1,0,0:0:0:17:
109,192,49400,1,8,0:0:0:26:
402,192,49400,1,8,0:0:0:26:
402,192,49520,1,0,0:0:0:17:
475,192,49520,1,0,0:0:0:17:
182,192,49520,1,0,0:0:0:17:
109,192,49640,1,0,0:0:0:17:
256,192,49640,1,0,0:0:0:17:
329,192,49640,1,0,0:0:0:17:
36,192,49760,1,0,0:0:0:17:
256,192,49760,1,0,0:0:0:17:
182,192,49760,1,0,0:0:0:17:
109,192,49880,1,8,0:0:0:17:
329,192,49880,1,8,0:0:0:17:
402,192,49880,1,8,0:0:0:17:
402,192,50000,1,0,0:0:0:17:
475,192,50000,1,0,0:0:0:17:
256,192,50000,1,0,0:0:0:17:
329,192,50120,1,0,0:0:0:26:
182,192,50120,1,0,0:0:0:26:
256,192,50240,1,0,0:0:0:26:
109,192,50240,1,0,0:0:0:26:
36,192,50360,1,8,0:0:0:17:
182,192,50360,1,8,0:0:0:17:
475,192,50360,1,8,0:0:0:17:
109,192,50480,1,0,0:0:0:26:
256,192,50480,1,0,0:0:0:26:
182,192,50600,1,0,0:0:0:26:
402,192,50600,1,0,0:0:0:26:
329,192,50720,1,0,0:0:0:26:
109,192,50720,1,0,0:0:0:26:
36,192,50840,1,8,0:0:0:17:
256,192,50840,1,8,0:0:0:17:
182,192,50840,1,8,0:0:0:17:
109,192,50960,1,0,0:0:0:26:
329,192,50960,1,0,0:0:0:26:
182,192,51080,1,0,0:0:0:17:
256,192,51080,1,0,0:0:0:17:
475,192,51080,1,0,0:0:0:17:
109,192,51200,1,0,0:0:0:26:
402,192,51200,1,0,0:0:0:26:
329,192,51320,1,8,0:0:0:17:
256,192,51320,1,8,0:0:0:17:
36,192,51320,1,8,0:0:0:17:
109,192,51440,1,0,0:0:0:26:
402,192,51440,1,0,0:0:0:26:
182,192,51560,1,0,0:0:0:17:
329,192,51560,1,0,0:0:0:17:
256,192,51560,1,0,0:0:0:17:
109,192,51680,1,0,0:0:0:26:
329,192,51680,1,0,0:0:0:26:
36,192,51800,1,8,0:0:0:17:
256,192,51800,1,8,0:0:0:17:
182,192,51800,1,8,0:0:0:17:
36,192,51920,1,0,0:0:0:26:
329,192,51920,1,0,0:0:0:26:
109,192,52040,1,0,0:0:0:17:
402,192,52040,1,0,0:0:0:17:
256,192,52040,1,0,0:0:0:17:
36,192,52160,1,0,0:0:0:26:
329,192,52160,1,0,0:0:0:26:
182,192,52280,1,8,0:0:0:17:
475,192,52280,1,8,0:0:0:17:
329,192,52280,1,8,0:0:0:17:
402,192,52400,1,0,0:0:0:26:
109,192,52400,1,0,0:0:0:26:
256,192,52520,1,0,0:0:0:17:
402,192,52520,1,0,0:0:0:17:
475,192,52520,1,0,0:0:0:17:
329,192,52640,1,0,0:0:0:26:
182,192,52640,1,0,0:0:0:26:
109,192,52760,1,8,0:0:0:17:
329,192,52760,1,8,0:0:0:17:
475,192,52760,1,8,0:0:0:17:
256,192,52880,1,0,0:0:0:26:
36,192,52880,1,0,0:0:0:26:
36,192,53000,1,0,0:0:0:13:
109,192,53000,1,0,0:0:0:13:
256,192,53000,1,0,0:0:0:13:
475,192,53000,1,0,0:0:0:13:
182,192,53120,1,0,0:0:0:26:
402,192,53120,1,0,0:0:0:26:
109,192,53240,1,8,0:0:0:26:
329,192,53240,1,8,0:0:0:26:
182,192,53360,1,0,0:0:0:26:
402,192,53360,1,0,0:0:0:26:
109,192,53480,1,0,0:0:0:13:
256,192,53480,1,0,0:0:0:13:
475,192,53480,1,0,0:0:0:13:
329,192,53480,1,0,0:0:0:13:
182,192,53600,1,0,0:0:0:26:
402,192,53600,1,0,0:0:0:26:
109,192,53720,1,8,0:0:0:26:
329,192,53720,1,8,0:0:0:26:
182,192,53840,1,0,0:0:0:26:
402,192,53840,1,0,0:0:0:26:
256,192,53960,1,0,0:0:0:13:
329,192,53960,1,0,0:0:0:13:
475,192,53960,1,0,0:0:0:13:
182,192,53960,1,0,0:0:0:13:
36,192,54080,1,0,0:0:0:17:
109,192,54080,1,0,0:0:0:17:
402,192,54080,1,0,0:0:0:17:
182,192,54200,1,12,0:0:0:17:
329,192,54200,1,12,0:0:0:17:
475,192,54200,1,12,0:0:0:17:
256,192,54260,1,0,0:0:0:26:
402,192,54260,1,0,0:0:0:26:
329,192,54320,1,0,0:0:0:26:
182,192,54320,1,0,0:0:0:26:
256,192,54440,128,0,54560:0:0:0:17:
475,192,54440,128,0,54560:0:0:0:17:
182,192,54440,1,0,0:0:0:17:
182,192,54560,128,0,54680:0:0:0:17:
402,192,54560,128,0,54680:0:0:0:17:
109,192,54560,1,0,0:0:0:17:
329,192,54680,128,8,54800:0:0:0:17:
109,192,54680,128,8,54800:0:0:0:17:
36,192,54680,1,8,0:0:0:17:
36,192,54800,128,0,54920:0:0:0:17:
256,192,54800,128,0,54920:0:0:0:17:
402,192,54800,1,0,0:0:0:17:
109,192,54920,1,0,0:0:0:17:
329,192,54920,1,0,0:0:0:17:
475,192,54920,128,0,55160:0:0:0:17:
182,192,54980,1,0,0:0:0:26:
402,192,54980,1,0,0:0:0:26:
329,192,55040,1,12,0:0:0:17:
36,192,55040,1,12,0:0:0:17:
256,192,55040,1,12,0:0:0:17:
329,192,55160,128,0,55280:0:0:0:13:
182,192,55160,1,0,0:0:0:13:
402,192,55160,1,0,0:0:0:13:
256,192,55160,1,0,0:0:0:13:
109,192,55280,128,0,55400:0:0:0:17:
475,192,55280,1,0,0:0:0:17:
182,192,55280,1,0,0:0:0:17:
402,192,55400,128,12,55520:0:0:0:13:
329,192,55400,1,12,0:0:0:13:
475,192,55400,1,12,0:0:0:13:
36,192,55400,1,12,0:0:0:13:
182,192,55520,128,0,55640:0:0:0:17:
109,192,55520,1,0,0:0:0:17:
329,192,55520,1,0,0:0:0:17:
475,192,55640,128,12,55760:0:0:0:13:
109,192,55640,1,12,0:0:0:13:
256,192,55640,1,12,0:0:0:13:
402,192,55640,1,12,0:0:0:13:
36,192,55760,128,0,55880:0:0:0:17:
182,192,55760,1,0,0:0:0:17:
402,192,55760,1,0,0:0:0:17:
256,192,55880,128,0,56000:0:0:0:13:
475,192,55880,128,0,56240:0:0:0:13:
109,192,55880,1,0,0:0:0:13:
329,192,55880,1,0,0:0:0:13:
402,192,56000,128,0,56120:0:0:0:26:
182,192,56000,1,0,0:0:0:26:
109,192,56120,128,0,56480:0:0:0:13:
329,192,56120,128,8,56240:0:0:0:13:
256,192,56120,1,8,0:0:0:13:
36,192,56120,1,8,0:0:0:13:
256,192,56240,128,0,56360:0:0:0:26:
402,192,56240,1,0,0:0:0:26:
182,192,56360,128,0,56720:0:0:0:13:
402,192,56360,128,0,56480:0:0:0:13:
475,192,56360,1,0,0:0:0:13:
329,192,56360,1,0,0:0:0:13:
329,192,56480,128,0,56600:0:0:0:26:
36,192,56480,1,0,0:0:0:26:
36,192,56600,128,8,56960:0:0:0:13:
256,192,56600,128,8,56720:0:0:0:13:
475,192,56600,1,8,0:0:0:13:
402,192,56600,1,8,0:0:0:13:
109,192,56720,128,0,56840:0:0:0:26:
329,192,56720,1,0,0:0:0:26:
182,192,56840,1,8,0:0:0:26:
329,192,56840,1,8,0:0:0:26:
256,192,56900,1,8,0:0:0:26:
402,192,56900,1,8,0:0:0:26:
329,192,56960,1,0,0:0:0:17:
475,192,56960,1,0,0:0:0:17:
109,192,56960,1,0,0:0:0:17:
182,192,57080,1,0,0:0:0:17:
402,192,57080,1,0,0:0:0:17:
256,192,57080,1,0,0:0:0:17:
109,192,57200,1,8,0:0:0:26:
329,192,57200,1,8,0:0:0:26:
182,192,57260,1,8,0:0:0:26:
475,192,57260,1,8,0:0:0:26:
256,192,57320,1,0,0:0:0:17:
402,192,57320,1,0,0:0:0:17:
36,192,57320,1,0,0:0:0:17:
182,192,57440,1,0,0:0:0:17:
109,192,57440,1,0,0:0:0:17:
329,192,57440,1,0,0:0:0:17:
256,192,57560,1,8,0:0:0:26:
475,192,57560,1,8,0:0:0:26:
109,192,57620,1,8,0:0:0:26:
402,192,57620,1,8,0:0:0:26:
329,192,57680,1,0,0:0:0:17:
182,192,57680,1,0,0:0:0:17:
36,192,57680,1,0,0:0:0:0:
182,192,57800,128,0,57920:0:0:0:17:
329,192,57800,1,0,0:0:0:17:
109,192,57920,128,0,58040:0:0:0:17:
256,192,57920,1,0,0:0:0:17:
402,192,57920,1,0,0:0:0:17:
475,192,58040,1,8,0:0:0:17:
329,192,58040,1,8,0:0:0:17:
36,192,58040,128,0,58160:0:0:0:0:
256,192,58160,128,0,58280:0:0:0:17:
182,192,58160,1,0,0:0:0:17:
475,192,58160,1,0,0:0:0:17:
109,192,58280,128,0,58400:0:0:0:17:
402,192,58280,1,0,0:0:0:17:
329,192,58280,1,0,0:0:0:17:
182,192,58400,1,0,0:0:0:17:
475,192,58400,1,0,0:0:0:17:
36,192,58400,1,0,0:0:0:0:
329,192,58520,128,8,58640:0:0:0:17:
256,192,58520,1,8,0:0:0:17:
475,192,58520,1,8,0:0:0:17:
109,192,58640,128,0,58760:0:0:0:17:
182,192,58640,1,0,0:0:0:17:
402,192,58640,1,0,0:0:0:17:
256,192,58760,1,0,0:0:0:17:
475,192,58760,1,0,0:0:0:17:
36,192,58760,128,0,58880:0:0:0:0:
182,192,58880,128,0,59000:0:0:0:17:
329,192,58880,1,0,0:0:0:17:
475,192,58880,1,0,0:0:0:17:
109,192,59000,128,8,59120:0:0:0:17:
256,192,59000,1,8,0:0:0:17:
402,192,59000,1,8,0:0:0:17:
329,192,59120,1,0,0:0:0:17:
475,192,59120,1,0,0:0:0:17:
36,192,59120,1,0,0:0:0:17:
182,192,59240,128,0,59360:0:0:0:17:
402,192,59240,128,0,59360:0:0:0:17:
475,192,59240,1,0,0:0:0:17:
109,192,59360,1,0,0:0:0:26:
329,192,59360,1,0,0:0:0:26:
256,192,59480,128,8,59600:0:0:0:26:
475,192,59480,128,8,59600:0:0:0:26:
36,192,59600,1,0,0:0:0:26:
182,192,59600,1,0,0:0:0:26:
329,192,59720,128,0,59840:0:0:0:17:
475,192,59720,1,0,0:0:0:17:
36,192,59720,1,0,0:0:0:17:
256,192,59840,128,0,59960:0:0:0:17:
109,192,59840,1,0,0:0:0:17:
402,192,59840,1,0,0:0:0:17:
36,192,59960,1,8,0:0:0:17:
329,192,59960,1,8,0:0:0:17:
182,192,59960,128,0,60080:0:0:0:0:
402,192,60080,128,0,60200:0:0:0:17:
36,192,60080,1,0,0:0:0:17:
475,192,60080,1,0,0:0:0:17:
256,192,60200,128,0,60320:0:0:0:17:
329,192,60200,1,0,0:0:0:17:
109,192,60200,1,0,0:0:0:17:
36,192,60320,1,0,0:0:0:17:
182,192,60320,1,0,0:0:0:17:
402,192,60320,1,0,0:0:0:17:
475,192,60440,128,8,60560:0:0:0:17:
329,192,60440,1,8,0:0:0:17:
36,192,60440,1,8,0:0:0:17:
256,192,60560,128,0,60680:0:0:0:17:
402,192,60560,1,0,0:0:0:17:
109,192,60560,1,0,0:0:0:17:
36,192,60680,1,0,0:0:0:17:
329,192,60680,1,0,0:0:0:17:
182,192,60680,128,0,60800:0:0:0:0:
329,192,60800,128,0,60920:0:0:0:17:
475,192,60800,1,0,0:0:0:17:
36,192,60800,1,0,0:0:0:17:
109,192,60920,1,8,0:0:0:17:
256,192,60920,128,8,61040:0:0:0:17:
402,192,60920,1,8,0:0:0:17:
329,192,61040,1,0,0:0:0:17:
36,192,61040,1,0,0:0:0:17:
182,192,61040,1,0,0:0:0:17:
109,192,61160,128,0,61280:0:0:0:26:
402,192,61160,128,0,61280:0:0:0:26:
36,192,61280,1,0,0:0:0:26:
256,192,61280,1,0,0:0:0:26:
182,192,61400,128,8,61520:0:0:0:26:
475,192,61400,128,8,61520:0:0:0:26:
109,192,61520,1,0,0:0:0:26:
329,192,61520,1,0,0:0:0:26:
182,192,61640,1,0,0:0:0:17:
256,192,61640,1,0,0:0:0:17:
475,192,61640,1,0,0:0:0:17:
402,192,61760,1,0,0:0:0:17:
182,192,61760,1,0,0:0:0:17:
109,192,61760,1,0,0:0:0:17:
36,192,61880,1,8,0:0:0:17:
109,192,61880,1,8,0:0:0:17:
329,192,61880,1,8,0:0:0:17:
182,192,62000,1,0,0:0:0:17:
329,192,62000,1,0,0:0:0:17:
475,192,62000,1,0,0:0:0:17:
109,192,62120,1,0,0:0:0:17:
256,192,62120,1,0,0:0:0:17:
402,192,62120,1,0,0:0:0:17:
36,192,62240,1,0,0:0:0:17:
182,192,62240,1,0,0:0:0:17:
329,192,62240,1,0,0:0:0:17:
182,192,62360,1,8,0:0:0:17:
402,192,62360,1,8,0:0:0:17:
475,192,62360,1,8,0:0:0:17:
329,192,62480,1,0,0:0:0:17:
109,192,62480,1,0,0:0:0:17:
402,192,62480,1,0,0:0:0:17:
36,192,62600,1,0,0:0:0:17:
256,192,62600,1,0,0:0:0:17:
329,192,62600,1,0,0:0:0:17:
182,192,62720,1,0,0:0:0:17:
256,192,62720,1,0,0:0:0:17:
475,192,62720,1,0,0:0:0:17:
109,192,62840,1,8,0:0:0:17:
182,192,62840,1,8,0:0:0:17:
402,192,62840,1,8,0:0:0:17:
36,192,62960,1,0,0:0:0:17:
109,192,62960,1,0,0:0:0:17:
329,192,62960,1,0,0:0:0:17:
182,192,63080,1,0,0:0:0:17:
402,192,63080,1,0,0:0:0:17:
475,192,63080,1,0,0:0:0:17:
36,192,63200,1,0,0:0:0:26:
109,192,63200,1,0,0:0:0:26:
256,192,63320,1,8,0:0:0:17:
402,192,63320,1,8,0:0:0:17:
475,192,63320,1,8,0:0:0:17:
109,192,63440,1,0,0:0:0:26:
36,192,63440,1,0,0:0:0:26:
256,192,63560,1,0,0:0:0:17:
402,192,63560,1,0,0:0:0:17:
109,192,63560,1,0,0:0:0:17:
329,192,63680,1,0,0:0:0:26:
182,192,63680,1,0,0:0:0:26:
109,192,63800,1,12,0:0:0:26:
256,192,63800,1,12,0:0:0:26:
182,192,63920,1,0,0:0:0:17:
329,192,63920,1,0,0:0:0:17:
402,192,63920,1,0,0:0:0:17:
109,192,64040,1,0,0:0:0:26:
256,192,64040,1,0,0:0:0:26:
182,192,64160,1,0,0:0:0:26:
36,192,64160,1,0,0:0:0:26:
256,192,64280,1,8,0:0:0:17:
109,192,64280,1,8,0:0:0:17:
475,192,64280,1,8,0:0:0:17:
109,192,64400,1,0,0:0:0:26:
329,192,64400,1,0,0:0:0:26:
256,192,64520,1,0,0:0:0:13:
402,192,64520,1,0,0:0:0:13:
475,192,64520,1,0,0:0:0:13:
182,192,64520,1,0,0:0:0:13:
329,192,64640,1,0,0:0:0:26:
109,192,64640,1,0,0:0:0:26:
36,192,64760,1,12,0:0:0:26:
256,192,64760,1,12,0:0:0:26:
182,192,64880,1,0,0:0:0:17:
402,192,64880,1,0,0:0:0:17:
329,192,64880,1,0,0:0:0:17:
256,192,65000,1,0,0:0:0:26:
109,192,65000,1,0,0:0:0:26:
182,192,65120,1,0,0:0:0:26:
36,192,65120,1,0,0:0:0:26:
109,192,65240,1,12,0:0:0:17:
329,192,65240,1,12,0:0:0:17:
256,192,65240,1,12,0:0:0:17:
182,192,65360,1,0,0:0:0:26:
36,192,65360,1,0,0:0:0:26:
475,192,65480,128,4,66440:0:0:0:10:
109,192,65480,1,4,0:0:0:10:
329,192,65480,1,4,0:0:0:10:
402,192,65480,1,4,0:0:0:10:
256,192,65480,1,4,0:0:0:10:
182,192,65600,1,0,0:0:0:53:
36,192,65720,1,8,0:0:0:53:
109,192,65840,1,0,0:0:0:13:
182,192,65840,1,0,0:0:0:13:
329,192,65840,1,0,0:0:0:13:
402,192,65840,1,0,0:0:0:13:
256,192,65960,1,0,0:0:0:53:
36,192,66080,1,0,0:0:0:53:
109,192,66200,1,8,0:0:0:13:
182,192,66200,1,8,0:0:0:13:
256,192,66200,1,8,0:0:0:13:
402,192,66200,1,8,0:0:0:13:
329,192,66320,1,0,0:0:0:53:
36,192,66440,1,0,0:0:0:26:
329,192,66440,128,0,67400:0:0:0:26:
256,192,66560,1,0,0:0:0:17:
109,192,66560,1,0,0:0:0:17:
402,192,66560,1,0,0:0:0:17:
182,192,66680,1,8,0:0:0:53:
36,192,66800,1,0,0:0:0:53:
182,192,66920,1,0,0:0:0:17:
256,192,66920,1,0,0:0:0:17:
475,192,66920,1,0,0:0:0:17:
109,192,67040,1,0,0:0:0:26:
36,192,67040,1,0,0:0:0:26:
182,192,67160,1,8,0:0:0:17:
402,192,67160,1,8,0:0:0:17:
475,192,67160,1,8,0:0:0:17:
256,192,67280,1,0,0:0:0:26:
36,192,67280,1,0,0:0:0:26:
402,192,67400,128,0,68360:0:0:0:13:
109,192,67400,1,0,0:0:0:13:
256,192,67400,1,0,0:0:0:13:
475,192,67400,1,0,0:0:0:13:
182,192,67520,1,0,0:0:0:53:
36,192,67640,1,8,0:0:0:53:
109,192,67760,1,0,0:0:0:13:
182,192,67760,1,0,0:0:0:13:
329,192,67760,1,0,0:0:0:13:
475,192,67760,1,0,0:0:0:13:
256,192,67880,1,0,0:0:0:53:
36,192,68000,1,0,0:0:0:53:
109,192,68120,1,8,0:0:0:13:
256,192,68120,1,8,0:0:0:13:
475,192,68120,1,8,0:0:0:13:
182,192,68120,1,8,0:0:0:13:
329,192,68240,1,0,0:0:0:53:
36,192,68360,1,0,0:0:0:26:
109,192,68360,128,0,69320:0:0:0:26:
182,192,68480,1,0,0:0:0:13:
256,192,68480,1,0,0:0:0:13:
402,192,68480,1,0,0:0:0:13:
475,192,68480,1,0,0:0:0:13:
329,192,68600,1,8,0:0:0:53:
36,192,68720,1,0,0:0:0:53:
256,192,68840,1,0,0:0:0:17:
475,192,68840,1,0,0:0:0:17:
402,192,68840,1,0,0:0:0:17:
182,192,68960,1,0,0:0:0:26:
36,192,68960,1,0,0:0:0:26:
329,192,69080,1,8,0:0:0:17:
475,192,69080,1,8,0:0:0:17:
256,192,69080,1,8,0:0:0:17:
182,192,69200,1,0,0:0:0:26:
36,192,69200,1,0,0:0:0:26:
182,192,69320,128,0,70280:0:0:0:13:
329,192,69320,1,0,0:0:0:13:
402,192,69320,1,0,0:0:0:13:
475,192,69320,1,0,0:0:0:13:
329,192,69440,1,0,0:0:0:26:
109,192,69440,1,0,0:0:0:26:
36,192,69560,1,12,0:0:0:26:
256,192,69560,1,12,0:0:0:26:
256,192,69680,1,0,0:0:0:17:
402,192,69680,1,0,0:0:0:17:
475,192,69680,1,0,0:0:0:17:
329,192,69800,1,0,0:0:0:26:
109,192,69800,1,0,0:0:0:26:
329,192,69920,1,0,0:0:0:26:
36,192,69920,1,0,0:0:0:26:
109,192,70040,1,8,0:0:0:17:
402,192,70040,1,8,0:0:0:17:
475,192,70040,1,8,0:0:0:17:
402,192,70160,1,0,0:0:0:26:
256,192,70160,1,0,0:0:0:26:
329,192,70280,1,0,0:0:0:17:
109,192,70280,1,0,0:0:0:17:
36,192,70280,128,0,71240:0:0:0:17:
109,192,70400,1,0,0:0:0:17:
256,192,70400,1,0,0:0:0:17:
402,192,70400,1,0,0:0:0:17:
329,192,70520,1,12,0:0:0:26:
182,192,70520,1,12,0:0:0:26:
109,192,70640,1,0,0:0:0:26:
329,192,70640,1,0,0:0:0:26:
256,192,70760,128,0,71000:0:0:0:17:
402,192,70760,1,0,0:0:0:17:
182,192,70760,1,0,0:0:0:17:
182,192,70880,128,0,71000:0:0:0:17:
329,192,70880,1,0,0:0:0:17:
109,192,70880,1,0,0:0:0:17:
329,192,71000,128,8,71240:0:0:0:17:
475,192,71000,1,8,0:0:0:17:
402,192,71000,1,8,0:0:0:17:
256,192,71120,128,0,71240:0:0:0:17:
402,192,71120,1,0,0:0:0:17:
109,192,71120,1,0,0:0:0:17:
182,192,71240,1,4,0:0:0:26:
475,192,71240,1,4,0:0:0:26:
256,192,71360,1,0,0:0:0:26:
402,192,71360,1,0,0:0:0:26:
182,192,71480,1,8,0:0:0:26:
402,192,71480,1,8,0:0:0:26:
109,192,71600,1,0,0:0:0:17:
475,192,71600,1,0,0:0:0:17:
329,192,71600,1,0,0:0:0:17:
402,192,71720,1,4,0:0:0:26:
182,192,71720,1,4,0:0:0:26:
402,192,71840,1,0,0:0:0:26:
36,192,71840,1,0,0:0:0:26:
475,192,71960,1,12,0:0:0:17:
182,192,71960,1,12,0:0:0:17:
329,192,71960,1,12,0:0:0:17:
402,192,72080,1,0,0:0:0:26:
109,192,72080,1,0,0:0:0:26:
475,192,72200,1,8,0:0:0:17:
329,192,72200,1,8,0:0:0:17:
256,192,72200,1,8,0:0:0:17:
182,192,72260,1,0,0:0:0:53:
402,192,72320,1,0,0:0:0:26:
109,192,72320,1,0,0:0:0:26:
402,192,72440,1,12,0:0:0:26:
36,192,72440,1,12,0:0:0:26:
475,192,72560,1,8,0:0:0:17:
329,192,72560,1,8,0:0:0:17:
182,192,72560,1,8,0:0:0:17:
109,192,72680,1,8,0:0:0:26:
402,192,72680,1,8,0:0:0:26:
329,192,72740,1,0,0:0:0:53:
36,192,72800,1,0,0:0:0:26:
402,192,72800,1,0,0:0:0:26:
256,192,72860,1,0,0:0:0:53:
329,192,72920,1,12,0:0:0:17:
475,192,72920,1,12,0:0:0:17:
109,192,72920,1,12,0:0:0:17:
402,192,72980,1,0,0:0:0:26:
182,192,72980,1,0,0:0:0:26:
256,192,73040,1,0,0:0:0:26:
36,192,73040,1,0,0:0:0:26:
182,192,73100,1,0,0:0:0:26:
329,192,73100,1,0,0:0:0:26:
109,192,73160,1,12,0:0:0:10:
36,192,73160,1,12,0:0:0:10:
256,192,73160,1,12,0:0:0:10:
475,192,73160,128,12,74120:0:0:0:10:
402,192,73160,1,12,0:0:0:10:
182,192,73280,1,0,0:0:0:26:
329,192,73280,1,0,0:0:0:26:
109,192,73400,1,0,0:0:0:26:
256,192,73400,1,0,0:0:0:26:
182,192,73520,1,0,0:0:0:26:
402,192,73520,1,0,0:0:0:26:
109,192,73640,1,0,0:0:0:26:
329,192,73640,1,0,0:0:0:26:
36,192,73760,1,0,0:0:0:26:
256,192,73760,1,0,0:0:0:26:
182,192,73880,1,0,0:0:0:26:
329,192,73880,1,0,0:0:0:26:
36,192,74000,1,0,0:0:0:26:
109,192,74000,1,0,0:0:0:26:
329,192,74120,1,12,0:0:0:17:
402,192,74120,1,12,0:0:0:17:
109,192,74120,1,12,0:0:0:17:
256,192,74180,1,0,0:0:0:26:
36,192,74180,1,0,0:0:0:26:
182,192,74240,1,0,0:0:0:26:
329,192,74240,1,0,0:0:0:26:
109,192,74300,1,0,0:0:0:26:
256,192,74300,1,0,0:0:0:26:
475,192,74360,1,0,0:0:0:26:
36,192,74360,1,0,0:0:0:26:
402,192,74420,1,0,0:0:0:26:
182,192,74420,1,0,0:0:0:26:
36,192,74480,1,12,0:0:0:17:
329,192,74480,1,12,0:0:0:17:
475,192,74480,1,12,0:0:0:17:
256,192,74540,1,0,0:0:0:26:
109,192,74540,1,0,0:0:0:26:
182,192,74600,1,0,0:0:0:26:
402,192,74600,1,0,0:0:0:26:
329,192,74660,1,0,0:0:0:26:
109,192,74660,1,0,0:0:0:26:
256,192,74720,1,0,0:0:0:26:
36,192,74720,1,0,0:0:0:26:
109,192,74780,1,0,0:0:0:26:
402,192,74780,1,0,0:0:0:26:
182,192,74840,1,0,0:0:0:17:
36,192,74840,1,0,0:0:0:17:
475,192,74840,1,0,0:0:0:17:
109,192,74960,1,0,0:0:0:26:
256,192,74960,1,0,0:0:0:26:
182,192,75020,1,0,0:0:0:26:
329,192,75020,1,0,0:0:0:26:
36,192,75080,1,0,0:0:0:26:
256,192,75080,1,0,0:0:0:26:
109,192,75140,1,0,0:0:0:26:
329,192,75140,1,0,0:0:0:26:
182,192,75200,1,0,0:0:0:26:
402,192,75200,1,0,0:0:0:26:
256,192,75260,1,0,0:0:0:26:
475,192,75260,1,0,0:0:0:26:
182,192,75320,128,0,75800:0:0:0:13:
402,192,75320,128,0,75800:0:0:0:13:
329,192,75320,1,0,0:0:0:13:
109,192,75320,1,0,0:0:0:13:
256,192,75440,1,0,0:0:0:26:
475,192,75440,1,0,0:0:0:26:
329,192,75560,1,8,0:0:0:17:
109,192,75560,1,8,0:0:0:17:
36,192,75560,1,8,0:0:0:17:
256,192,75680,1,0,0:0:0:53:
256,192,75800,1,0,0:0:0:17:
475,192,75800,1,0,0:0:0:17:
109,192,75800,128,0,75920:0:0:0:0:
182,192,75920,1,0,0:0:0:17:
329,192,75920,1,0,0:0:0:17:
36,192,75920,128,0,76040:0:0:0:0:
256,192,76040,1,8,0:0:0:17:
402,192,76040,1,8,0:0:0:17:
475,192,76040,128,8,76160:0:0:0:17:
402,192,76160,128,0,76280:0:0:0:17:
329,192,76160,1,0,0:0:0:17:
182,192,76160,1,0,0:0:0:17:
329,192,76280,128,0,76400:0:0:0:17:
256,192,76280,1,0,0:0:0:17:
109,192,76280,1,0,0:0:0:17:
256,192,76400,128,0,76520:0:0:0:17:
182,192,76400,1,0,0:0:0:17:
36,192,76400,1,0,0:0:0:17:
109,192,76520,1,8,0:0:0:17:
402,192,76520,1,8,0:0:0:17:
475,192,76520,1,8,0:0:0:17:
182,192,76580,1,0,0:0:0:26:
329,192,76580,1,0,0:0:0:26:
109,192,76640,1,0,0:0:0:26:
256,192,76640,1,0,0:0:0:26:
402,192,76760,1,0,0:0:0:17:
329,192,76760,1,0,0:0:0:17:
182,192,76760,1,0,0:0:0:17:
256,192,76880,1,0,0:0:0:26:
36,192,76880,1,0,0:0:0:26:
182,192,77000,1,8,0:0:0:17:
329,192,77000,1,8,0:0:0:17:
475,192,77000,1,8,0:0:0:17:
109,192,77080,1,0,0:0:0:26:
256,192,77080,1,0,0:0:0:26:
182,192,77160,1,0,0:0:0:26:
36,192,77160,1,0,0:0:0:26:
109,192,77240,1,0,0:0:0:17:
256,192,77240,1,0,0:0:0:17:
329,192,77240,1,0,0:0:0:17:
182,192,77300,1,0,0:0:0:26:
475,192,77300,1,0,0:0:0:26:
329,192,77360,1,0,0:0:0:17:
109,192,77360,1,0,0:0:0:17:
402,192,77360,1,0,0:0:0:17:
256,192,77420,1,0,0:0:0:26:
475,192,77420,1,0,0:0:0:26:
182,192,77480,1,8,0:0:0:17:
36,192,77480,1,8,0:0:0:17:
402,192,77480,1,8,0:0:0:17:
109,192,77560,1,0,0:0:0:26:
329,192,77560,1,0,0:0:0:26:
256,192,77640,1,0,0:0:0:26:
36,192,77640,1,0,0:0:0:26:
182,192,77720,1,0,0:0:0:17:
329,192,77720,1,0,0:0:0:17:
402,192,77720,1,0,0:0:0:17:
256,192,77840,1,0,0:0:0:17:
109,192,77840,1,0,0:0:0:17:
36,192,77840,1,0,0:0:0:17:
182,192,77960,1,8,0:0:0:17:
329,192,77960,1,8,0:0:0:17:
109,192,77960,1,8,0:0:0:17:
256,192,78040,1,0,0:0:0:26:
36,192,78040,1,0,0:0:0:26:
329,192,78080,1,0,0:0:0:53:
182,192,78120,1,0,0:0:0:26:
402,192,78120,1,0,0:0:0:26:
109,192,78200,1,0,0:0:0:17:
36,192,78200,1,0,0:0:0:17:
329,192,78200,1,0,0:0:0:17:
256,192,78320,1,0,0:0:0:26:
402,192,78320,1,0,0:0:0:26:
182,192,78380,1,0,0:0:0:26:
329,192,78380,1,0,0:0:0:26:
109,192,78440,1,8,0:0:0:17:
256,192,78440,1,8,0:0:0:17:
475,192,78440,1,8,0:0:0:17:
182,192,78560,1,0,0:0:0:26:
329,192,78560,1,0,0:0:0:26:
256,192,78620,1,0,0:0:0:26:
402,192,78620,1,0,0:0:0:26:
329,192,78680,1,0,0:0:0:17:
109,192,78680,1,0,0:0:0:17:
182,192,78680,1,0,0:0:0:17:
256,192,78800,1,0,0:0:0:26:
402,192,78800,1,0,0:0:0:26:
109,192,78860,1,0,0:0:0:26:
329,192,78860,1,0,0:0:0:26:
182,192,78920,1,8,0:0:0:17:
402,192,78920,1,8,0:0:0:17:
475,192,78920,1,8,0:0:0:17:
36,192,79040,1,0,0:0:0:26:
329,192,79040,1,0,0:0:0:26:
182,192,79100,1,0,0:0:0:26:
475,192,79100,1,0,0:0:0:26:
109,192,79160,1,0,0:0:0:17:
256,192,79160,1,0,0:0:0:17:
402,192,79160,1,0,0:0:0:17:
182,192,79280,1,0,0:0:0:26:
329,192,79280,1,0,0:0:0:26:
256,192,79340,1,0,0:0:0:26:
36,192,79340,1,0,0:0:0:26:
109,192,79400,1,8,0:0:0:17:
402,192,79400,1,8,0:0:0:17:
475,192,79400,1,8,0:0:0:17:
182,192,79520,1,0,0:0:0:17:
329,192,79520,1,0,0:0:0:17:
256,192,79640,1,0,0:0:0:17:
402,192,79640,1,0,0:0:0:17:
475,192,79640,1,0,0:0:0:17:
329,192,79760,1,0,0:0:0:17:
182,192,79760,1,0,0:0:0:17:
475,192,79760,1,0,0:0:0:17:
256,192,79880,1,8,0:0:0:26:
402,192,79880,1,8,0:0:0:26:
475,192,79880,1,0,0:0:0:0:
182,192,79940,1,0,0:0:0:26:
329,192,79940,1,0,0:0:0:26:
109,192,80000,1,0,0:0:0:17:
256,192,80000,1,0,0:0:0:17:
36,192,80000,1,0,0:0:0:17:
182,192,80120,1,0,0:0:0:26:
329,192,80120,1,0,0:0:0:26:
256,192,80240,1,0,0:0:0:26:
475,192,80240,1,0,0:0:0:26:
182,192,80300,1,0,0:0:0:26:
402,192,80300,1,0,0:0:0:26:
36,192,80360,1,8,0:0:0:17:
109,192,80360,1,8,0:0:0:17:
329,192,80360,1,8,0:0:0:17:
475,192,80480,1,0,0:0:0:26:
329,192,80480,1,0,0:0:0:26:
109,192,80600,1,0,0:0:0:26:
256,192,80600,1,0,0:0:0:26:
402,192,80600,1,0,0:0:0:0:
36,192,80660,1,0,0:0:0:26:
329,192,80660,1,0,0:0:0:26:
182,192,80720,1,0,0:0:0:26:
475,192,80720,1,0,0:0:0:26:
402,192,80780,1,0,0:0:0:26:
109,192,80780,1,0,0:0:0:26:
256,192,80840,1,8,0:0:0:17:
475,192,80840,1,8,0:0:0:17:
182,192,80840,1,8,0:0:0:17:
329,192,80940,1,0,0:0:0:26:
109,192,80940,1,0,0:0:0:26:
182,192,81000,1,0,0:0:0:26:
36,192,81000,1,0,0:0:0:26:
256,192,81080,1,0,0:0:0:26:
109,192,81080,1,0,0:0:0:26:
475,192,81080,1,0,0:0:0:0:
182,192,81180,1,0,0:0:0:26:
329,192,81180,1,0,0:0:0:26:
402,192,81200,1,0,0:0:0:53:
36,192,81240,1,0,0:0:0:53:
256,192,81320,1,8,0:0:0:26:
402,192,81320,1,8,0:0:0:26:
182,192,81320,1,0,0:0:0:0:
329,192,81420,1,0,0:0:0:26:
109,192,81420,1,0,0:0:0:26:
475,192,81440,1,0,0:0:0:53:
256,192,81480,1,0,0:0:0:26:
36,192,81480,1,0,0:0:0:26:
402,192,81560,1,0,0:0:0:26:
109,192,81560,1,0,0:0:0:26:
182,192,81560,1,0,0:0:0:0:
256,192,81620,1,0,0:0:0:26:
475,192,81620,1,0,0:0:0:26:
329,192,81680,1,0,0:0:0:26:
36,192,81680,1,0,0:0:0:26:
109,192,81740,1,0,0:0:0:26:
402,192,81740,1,0,0:0:0:26:
182,192,81800,1,8,0:0:0:26:
329,192,81800,1,8,0:0:0:26:
475,192,81800,1,0,0:0:0:0:
256,192,81880,1,0,0:0:0:53:
109,192,81940,1,0,0:0:0:26:
36,192,81940,1,0,0:0:0:26:
256,192,81960,1,0,0:0:0:53:
256,192,82040,1,0,0:0:0:53:
256,192,82120,1,0,0:0:0:53:
402,192,82180,1,0,0:0:0:26:
475,192,82180,1,0,0:0:0:26:
256,192,82200,1,0,0:0:0:53:
182,192,82280,1,8,0:0:0:26:
329,192,82280,1,8,0:0:0:26:
256,192,82360,1,0,0:0:0:53:
256,192,82440,1,0,0:0:0:53:
182,192,82520,1,8,0:0:0:26:
329,192,82520,1,8,0:0:0:26:
109,192,82560,1,0,0:0:0:26:
36,192,82560,1,0,0:0:0:26:
256,192,82600,1,0,0:0:0:53:
402,192,82640,1,0,0:0:0:26:
475,192,82640,1,0,0:0:0:26:
256,192,82680,1,0,0:0:0:53:
182,192,82760,1,8,0:0:0:26:
329,192,82760,1,8,0:0:0:26:
109,192,83000,1,0,0:0:0:26:
256,192,83000,1,0,0:0:0:26:
256,192,83120,1,0,0:0:0:53:
182,192,83240,1,8,0:0:0:13:
329,192,83240,1,8,0:0:0:13:
475,192,83240,1,8,0:0:0:13:
402,192,83480,1,0,0:0:0:26:
256,192,83480,1,0,0:0:0:26:
109,192,83600,1,0,0:0:0:26:
402,192,83600,1,0,0:0:0:26:
36,192,83720,1,8,0:0:0:17:
256,192,83720,1,8,0:0:0:17:
475,192,83720,1,8,0:0:0:17:
109,192,83840,1,0,0:0:0:17:
182,192,83840,1,0,0:0:0:17:
402,192,83840,1,0,0:0:0:17:
329,192,83960,1,0,0:0:0:26:
36,192,83960,1,0,0:0:0:26:
402,192,84080,1,0,0:0:0:26:
182,192,84080,1,0,0:0:0:26:
402,192,84140,1,0,0:0:0:53:
475,192,84200,1,8,0:0:0:17:
36,192,84200,1,8,0:0:0:17:
109,192,84200,1,8,0:0:0:17:
182,192,84320,1,0,0:0:0:26:
402,192,84320,1,0,0:0:0:26:
36,192,84440,1,0,0:0:0:26:
475,192,84440,1,0,0:0:0:26:
475,192,84560,1,0,0:0:0:26:
182,192,84560,1,0,0:0:0:26:
402,192,84680,1,8,0:0:0:17:
109,192,84680,1,8,0:0:0:17:
256,192,84680,1,8,0:0:0:17:
329,192,84800,1,0,0:0:0:26:
182,192,84800,1,0,0:0:0:26:
475,192,84920,1,0,0:0:0:17:
402,192,84920,1,0,0:0:0:17:
256,192,84920,1,0,0:0:0:17:
475,192,85040,1,0,0:0:0:17:
182,192,85040,1,0,0:0:0:17:
36,192,85040,1,0,0:0:0:17:
329,192,85160,1,8,0:0:0:17:
109,192,85160,1,8,0:0:0:17:
256,192,85160,1,8,0:0:0:17:
182,192,85280,1,0,0:0:0:26:
36,192,85280,1,0,0:0:0:26:
109,192,85400,1,0,0:0:0:26:
475,192,85400,1,0,0:0:0:26:
329,192,85460,1,0,0:0:0:26:
182,192,85460,1,0,0:0:0:26:
402,192,85520,1,0,0:0:0:17:
256,192,85520,1,0,0:0:0:17:
109,192,85520,1,0,0:0:0:17:
36,192,85640,1,8,0:0:0:26:
475,192,85640,1,8,0:0:0:26:
402,192,85720,1,0,0:0:0:26:
256,192,85720,1,0,0:0:0:26:
182,192,85760,1,0,0:0:0:53:
109,192,85800,1,0,0:0:0:26:
36,192,85800,1,0,0:0:0:26:
182,192,85880,1,0,0:0:0:17:
329,192,85880,1,0,0:0:0:17:
475,192,85880,1,0,0:0:0:17:
256,192,85960,1,0,0:0:0:26:
402,192,85960,1,0,0:0:0:26:
36,192,86000,1,0,0:0:0:53:
182,192,86040,1,0,0:0:0:26:
329,192,86040,1,0,0:0:0:26:
109,192,86120,1,8,0:0:0:17:
402,192,86120,1,8,0:0:0:17:
475,192,86120,1,8,0:0:0:17:
329,192,86200,1,0,0:0:0:26:
256,192,86200,1,0,0:0:0:26:
109,192,86240,1,0,0:0:0:53:
182,192,86280,1,0,0:0:0:26:
402,192,86280,1,0,0:0:0:26:
36,192,86360,1,0,0:0:0:17:
329,192,86360,1,0,0:0:0:17:
475,192,86360,1,0,0:0:0:17:
256,192,86440,1,0,0:0:0:26:
402,192,86440,1,0,0:0:0:26:
182,192,86480,1,0,0:0:0:53:
329,192,86520,1,0,0:0:0:26:
109,192,86520,1,0,0:0:0:26:
36,192,86600,1,8,0:0:0:17:
182,192,86600,1,8,0:0:0:17:
256,192,86600,1,8,0:0:0:17:
109,192,86680,1,0,0:0:0:26:
329,192,86680,1,0,0:0:0:26:
402,192,86780,1,0,0:0:0:26:
475,192,86780,1,0,0:0:0:26:
329,192,86840,1,0,0:0:0:26:
182,192,86840,1,0,0:0:0:26:
182,192,86960,1,0,0:0:0:26:
402,192,86960,1,0,0:0:0:26:
475,192,87020,1,0,0:0:0:26:
109,192,87020,1,0,0:0:0:26:
36,192,87080,1,8,0:0:0:26:
256,192,87080,1,8,0:0:0:26:
109,192,87200,1,0,0:0:0:26:
329,192,87200,1,0,0:0:0:26:
402,192,87260,1,0,0:0:0:53:
256,192,87320,1,0,0:0:0:26:
36,192,87320,1,0,0:0:0:26:
182,192,87380,1,0,0:0:0:53:
36,192,87440,1,0,0:0:0:26:
402,192,87440,1,0,0:0:0:26:
329,192,87500,1,0,0:0:0:53:
182,192,87560,1,8,0:0:0:26:
256,192,87560,1,8,0:0:0:26:
402,192,87620,1,0,0:0:0:53:
109,192,87680,1,0,0:0:0:26:
329,192,87680,1,0,0:0:0:26:
182,192,87740,1,0,0:0:0:53:
402,192,87800,1,0,0:0:0:53:
256,192,87860,1,0,0:0:0:53:
109,192,87920,1,0,0:0:0:26:
329,192,87920,1,0,0:0:0:26:
109,192,87980,1,0,0:0:0:53:
182,192,88040,1,8,0:0:0:26:
475,192,88040,1,8,0:0:0:26:
402,192,88100,1,0,0:0:0:53:
36,192,88160,1,0,0:0:0:53:
256,192,88220,1,0,0:0:0:53:
329,192,88280,1,0,0:0:0:26:
109,192,88280,1,0,0:0:0:26:
475,192,88340,1,0,0:0:0:53:
182,192,88400,1,0,0:0:0:53:
256,192,88460,1,0,0:0:0:53:
402,192,88520,1,8,0:0:0:26:
36,192,88520,1,8,0:0:0:26:
182,192,88580,1,0,0:0:0:53:
475,192,88640,1,0,0:0:0:53:
256,192,88700,1,0,0:0:0:53:
329,192,88760,1,0,0:0:0:26:
109,192,88760,1,0,0:0:0:26:
182,192,88840,1,0,0:0:0:26:
36,192,88840,1,0,0:0:0:26:
329,192,88880,1,0,0:0:0:53:
256,192,88920,1,0,0:0:0:26:
475,192,88920,1,0,0:0:0:26:
402,192,89000,1,8,0:0:0:26:
182,192,89000,1,8,0:0:0:26:
109,192,89080,1,0,0:0:0:26:
36,192,89080,1,0,0:0:0:26:
329,192,89120,1,0,0:0:0:53:
256,192,89160,1,0,0:0:0:26:
182,192,89160,1,0,0:0:0:26:
329,192,89240,1,0,0:0:0:26:
475,192,89240,1,0,0:0:0:26:
256,192,89320,1,0,0:0:0:26:
109,192,89320,1,0,0:0:0:26:
329,192,89360,1,0,0:0:0:53:
36,192,89400,1,0,0:0:0:26:
475,192,89400,1,0,0:0:0:26:
402,192,89480,1,8,0:0:0:26:
182,192,89480,1,8,0:0:0:26:
329,192,89540,1,0,0:0:0:26:
109,192,89540,1,0,0:0:0:26:
475,192,89600,1,0,0:0:0:26:
256,192,89600,1,0,0:0:0:26:
36,192,89660,1,0,0:0:0:26:
329,192,89660,1,0,0:0:0:26:
182,192,89720,1,0,0:0:0:26:
402,192,89720,1,0,0:0:0:26:
109,192,89780,1,0,0:0:0:26:
256,192,89780,1,0,0:0:0:26:
329,192,89840,1,8,0:0:0:26:
475,192,89840,1,8,0:0:0:26:
36,192,89900,1,0,0:0:0:26:
402,192,89900,1,0,0:0:0:26:
109,192,89960,1,0,0:0:0:26:
256,192,89960,1,0,0:0:0:26:
36,192,90020,1,0,0:0:0:26:
329,192,90020,1,0,0:0:0:26:
182,192,90080,1,0,0:0:0:26:
402,192,90080,1,0,0:0:0:26:
256,192,90140,1,0,0:0:0:26:
109,192,90140,1,0,0:0:0:26:
329,192,90200,1,12,0:0:0:17:
475,192,90200,1,12,0:0:0:17:
36,192,90200,1,12,0:0:0:17:
182,192,90320,1,0,0:0:0:53:
256,192,90380,1,0,0:0:0:53:
36,192,90440,1,4,0:0:0:13:
402,192,90440,1,4,0:0:0:13:
475,192,90440,1,4,0:0:0:13:
109,192,90440,1,4,0:0:0:13:
256,192,90560,1,0,0:0:0:26:
402,192,90560,1,0,0:0:0:26:
182,192,90680,1,8,0:0:0:26:
329,192,90680,1,8,0:0:0:26:
109,192,90800,1,0,0:0:0:26:
256,192,90800,1,0,0:0:0:26:
36,192,90920,1,0,0:0:0:17:
182,192,90920,1,0,0:0:0:17:
329,192,90920,1,0,0:0:0:17:
402,192,91040,1,0,0:0:0:26:
475,192,91040,1,0,0:0:0:26:
256,192,91160,1,8,0:0:0:17:
182,192,91160,1,8,0:0:0:17:
36,192,91160,1,8,0:0:0:17:
402,192,91280,1,0,0:0:0:26:
475,192,91280,1,0,0:0:0:26:
109,192,91400,1,0,0:0:0:17:
36,192,91400,1,0,0:0:0:17:
256,192,91400,1,0,0:0:0:17:
402,192,91520,1,0,0:0:0:26:
475,192,91520,1,0,0:0:0:26:
182,192,91640,1,8,0:0:0:17:
109,192,91640,1,8,0:0:0:17:
36,192,91640,1,8,0:0:0:17:
402,192,91760,1,0,0:0:0:26:
475,192,91760,1,0,0:0:0:26:
329,192,91880,1,0,0:0:0:17:
36,192,91880,1,0,0:0:0:17:
182,192,91880,1,0,0:0:0:17:
402,192,92000,1,0,0:0:0:26:
475,192,92000,1,0,0:0:0:26:
256,192,92120,1,8,0:0:0:17:
182,192,92120,1,8,0:0:0:17:
36,192,92120,1,8,0:0:0:17:
402,192,92240,1,0,0:0:0:26:
475,192,92240,1,0,0:0:0:26:
36,192,92360,1,0,0:0:0:17:
256,192,92360,1,0,0:0:0:17:
329,192,92360,1,0,0:0:0:17:
182,192,92480,1,0,0:0:0:26:
402,192,92480,1,0,0:0:0:26:
109,192,92600,1,8,0:0:0:26:
329,192,92600,1,8,0:0:0:26:
256,192,92720,1,0,0:0:0:26:
36,192,92720,1,0,0:0:0:26:
182,192,92840,1,0,0:0:0:17:
329,192,92840,1,0,0:0:0:17:
475,192,92840,1,0,0:0:0:17:
109,192,92960,1,0,0:0:0:26:
36,192,92960,1,0,0:0:0:26:
256,192,93080,1,8,0:0:0:17:
475,192,93080,1,8,0:0:0:17:
329,192,93080,1,8,0:0:0:17:
109,192,93200,1,0,0:0:0:26:
36,192,93200,1,0,0:0:0:26:
256,192,93320,1,0,0:0:0:17:
402,192,93320,1,0,0:0:0:17:
475,192,93320,1,0,0:0:0:17:
109,192,93440,1,0,0:0:0:26:
36,192,93440,1,0,0:0:0:26:
329,192,93560,1,8,0:0:0:17:
402,192,93560,1,8,0:0:0:17:
475,192,93560,1,8,0:0:0:17:
109,192,93680,1,0,0:0:0:26:
36,192,93680,1,0,0:0:0:26:
182,192,93800,1,0,0:0:0:17:
329,192,93800,1,0,0:0:0:17:
475,192,93800,1,0,0:0:0:17:
109,192,93920,1,0,0:0:0:26:
36,192,93920,1,0,0:0:0:26:
256,192,94040,1,8,0:0:0:17:
329,192,94040,1,8,0:0:0:17:
475,192,94040,1,8,0:0:0:17:
109,192,94160,1,0,0:0:0:26:
36,192,94160,1,0,0:0:0:26:
182,192,94280,1,0,0:0:0:26:
329,192,94280,1,0,0:0:0:26:
475,192,94400,1,0,0:0:0:26:
256,192,94400,1,0,0:0:0:26:
182,192,94520,1,8,0:0:0:26:
402,192,94520,1,8,0:0:0:26:
36,192,94640,1,0,0:0:0:26:
256,192,94640,1,0,0:0:0:26:
329,192,94760,1,0,0:0:0:17:
402,192,94760,1,0,0:0:0:17:
182,192,94760,1,0,0:0:0:17:
36,192,94880,1,0,0:0:0:26:
475,192,94880,1,0,0:0:0:26:
109,192,95000,1,8,0:0:0:17:
256,192,95000,1,8,0:0:0:17:
329,192,95000,1,8,0:0:0:17:
36,192,95120,1,0,0:0:0:26:
475,192,95120,1,0,0:0:0:26:
182,192,95240,1,0,0:0:0:17:
256,192,95240,1,0,0:0:0:17:
402,192,95240,1,0,0:0:0:17:
36,192,95360,1,0,0:0:0:26:
475,192,95360,1,0,0:0:0:26:
109,192,95480,1,8,0:0:0:17:
182,192,95480,1,8,0:0:0:17:
402,192,95480,1,8,0:0:0:17:
36,192,95600,1,0,0:0:0:26:
475,192,95600,1,0,0:0:0:26:
109,192,95720,1,0,0:0:0:17:
329,192,95720,1,0,0:0:0:17:
402,192,95720,1,0,0:0:0:17:
475,192,95840,1,0,0:0:0:26:
36,192,95840,1,0,0:0:0:26:
109,192,95900,1,0,0:0:0:26:
402,192,95900,1,0,0:0:0:26:
182,192,95960,1,8,0:0:0:17:
256,192,95960,1,8,0:0:0:17:
329,192,95960,1,8,0:0:0:17:
36,192,96080,1,0,0:0:0:26:
475,192,96080,1,0,0:0:0:26:
109,192,96200,1,0,0:0:0:17:
329,192,96200,1,0,0:0:0:17:
402,192,96200,1,0,0:0:0:17:
182,192,96280,1,0,0:0:0:26:
475,192,96280,1,0,0:0:0:26:
256,192,96360,1,0,0:0:0:26:
36,192,96360,1,0,0:0:0:26:
182,192,96440,1,8,0:0:0:17:
402,192,96440,1,8,0:0:0:17:
329,192,96440,1,8,0:0:0:17:
36,192,96520,1,0,0:0:0:26:
475,192,96520,1,0,0:0:0:26:
109,192,96600,1,0,0:0:0:26:
329,192,96600,1,0,0:0:0:26:
182,192,96680,1,0,0:0:0:17:
402,192,96680,1,0,0:0:0:17:
475,192,96680,1,0,0:0:0:17:
329,192,96760,1,0,0:0:0:26:
109,192,96760,1,0,0:0:0:26:
36,192,96840,1,0,0:0:0:26:
475,192,96840,1,0,0:0:0:26:
109,192,96920,1,8,0:0:0:17:
256,192,96920,1,8,0:0:0:17:
402,192,96920,1,8,0:0:0:17:
329,192,97000,1,0,0:0:0:26:
182,192,97000,1,0,0:0:0:26:
109,192,97080,1,0,0:0:0:26:
256,192,97080,1,0,0:0:0:26:
402,192,97160,1,12,0:0:0:17:
475,192,97160,1,12,0:0:0:17:
182,192,97160,1,12,0:0:0:17:
256,192,97240,1,0,0:0:0:26:
36,192,97240,1,0,0:0:0:26:
109,192,97320,1,0,0:0:0:26:
182,192,97320,1,0,0:0:0:26:
256,192,97400,1,0,0:0:0:17:
329,192,97400,1,0,0:0:0:17:
475,192,97400,1,0,0:0:0:17:
402,192,97480,1,0,0:0:0:26:
36,192,97480,1,0,0:0:0:26:
329,192,97560,1,0,0:0:0:26:
109,192,97560,1,0,0:0:0:26:
36,192,97640,1,0,0:0:0:17:
256,192,97640,1,0,0:0:0:17:
402,192,97640,1,0,0:0:0:17:
329,192,97720,1,0,0:0:0:26:
475,192,97720,1,0,0:0:0:26:
109,192,97800,1,0,0:0:0:26:
402,192,97800,1,0,0:0:0:26:
182,192,97880,1,12,0:0:0:26:
475,192,97880,1,12,0:0:0:26:
329,192,97940,1,8,0:0:0:26:
109,192,97940,1,8,0:0:0:26:
182,192,98000,1,8,0:0:0:26:
36,192,98000,1,8,0:0:0:26:
256,192,98060,1,0,0:0:0:26:
402,192,98060,1,0,0:0:0:26:
109,192,98120,1,12,0:0:0:13:
329,192,98120,1,12,0:0:0:13:
475,192,98120,1,12,0:0:0:13:
182,192,98120,1,12,0:0:0:13:
256,192,98240,1,0,0:0:0:26:
402,192,98240,1,0,0:0:0:26:
329,192,98360,1,8,0:0:0:17:
475,192,98360,1,8,0:0:0:17:
182,192,98360,1,8,0:0:0:17:
402,192,98480,1,0,0:0:0:17:
256,192,98480,1,0,0:0:0:17:
36,192,98480,1,0,0:0:0:17:
109,192,98600,1,0,0:0:0:26:
329,192,98600,1,0,0:0:0:26:
402,192,98720,1,0,0:0:0:26:
109,192,98720,1,0,0:0:0:26:
36,192,98840,1,8,0:0:0:13:
256,192,98840,1,8,0:0:0:13:
329,192,98840,1,8,0:0:0:13:
475,192,98840,1,8,0:0:0:13:
109,192,98960,1,0,0:0:0:26:
402,192,98960,1,0,0:0:0:26:
182,192,99080,1,0,0:0:0:26:
475,192,99080,1,0,0:0:0:26:
182,192,99200,1,0,0:0:0:26:
402,192,99200,1,0,0:0:0:26:
256,192,99260,1,0,0:0:0:26:
329,192,99260,1,0,0:0:0:26:
475,192,99320,1,8,0:0:0:17:
109,192,99320,1,8,0:0:0:17:
36,192,99320,1,8,0:0:0:17:
329,192,99440,1,0,0:0:0:26:
182,192,99440,1,0,0:0:0:26:
402,192,99560,1,0,0:0:0:26:
256,192,99560,1,0,0:0:0:26:
329,192,99620,1,0,0:0:0:26:
36,192,99620,1,0,0:0:0:26:
182,192,99680,1,0,0:0:0:26:
475,192,99680,1,0,0:0:0:26:
475,192,99740,1,0,0:0:0:26:
109,192,99740,1,0,0:0:0:26:
402,192,99800,1,8,0:0:0:17:
256,192,99800,1,8,0:0:0:17:
36,192,99800,1,8,0:0:0:17:
109,192,99920,1,0,0:0:0:26:
329,192,99920,1,0,0:0:0:26:
182,192,100040,1,0,0:0:0:17:
402,192,100040,1,0,0:0:0:17:
475,192,100040,1,0,0:0:0:17:
36,192,100160,1,0,0:0:0:26:
256,192,100160,1,0,0:0:0:26:
329,192,100280,1,8,0:0:0:17:
109,192,100280,1,8,0:0:0:17:
402,192,100280,1,8,0:0:0:17:
256,192,100400,1,0,0:0:0:26:
36,192,100400,1,0,0:0:0:26:
475,192,100520,1,0,0:0:0:17:
182,192,100520,1,0,0:0:0:17:
109,192,100520,1,0,0:0:0:17:
475,192,100640,1,0,0:0:0:26:
256,192,100640,1,0,0:0:0:26:
329,192,100760,1,8,0:0:0:17:
109,192,100760,1,8,0:0:0:17:
36,192,100760,1,8,0:0:0:17:
256,192,100880,1,0,0:0:0:26:
182,192,100880,1,0,0:0:0:26:
475,192,101000,1,0,0:0:0:26:
329,192,101000,1,0,0:0:0:26:
402,192,101120,1,0,0:0:0:26:
182,192,101120,1,0,0:0:0:26:
475,192,101240,1,8,0:0:0:26:
256,192,101240,1,8,0:0:0:26:
402,192,101360,1,0,0:0:0:26:
109,192,101360,1,0,0:0:0:26:
475,192,101480,1,0,0:0:0:17:
182,192,101480,1,0,0:0:0:17:
256,192,101480,1,0,0:0:0:17:
329,192,101600,1,0,0:0:0:26:
36,192,101600,1,0,0:0:0:26:
475,192,101720,1,8,0:0:0:17:
109,192,101720,1,8,0:0:0:17:
256,192,101720,1,8,0:0:0:17:
329,192,101840,1,0,0:0:0:26:
36,192,101840,1,0,0:0:0:26:
109,192,101960,1,0,0:0:0:26:
402,192,101960,1,0,0:0:0:26:
182,192,102040,1,0,0:0:0:26:
475,192,102040,1,0,0:0:0:26:
256,192,102120,1,0,0:0:0:26:
329,192,102120,1,0,0:0:0:26:
36,192,102200,1,8,0:0:0:26:
402,192,102200,1,8,0:0:0:26:
182,192,102280,1,0,0:0:0:26:
475,192,102280,1,0,0:0:0:26:
256,192,102360,1,0,0:0:0:26:
402,192,102360,1,0,0:0:0:26:
109,192,102440,1,0,0:0:0:26:
329,192,102440,1,0,0:0:0:26:
36,192,102520,1,0,0:0:0:26:
402,192,102520,1,0,0:0:0:26:
475,192,102600,1,0,0:0:0:26:
256,192,102600,1,0,0:0:0:26:
402,192,102680,1,8,0:0:0:26:
182,192,102680,1,8,0:0:0:26:
329,192,102760,1,0,0:0:0:26:
475,192,102760,1,0,0:0:0:26:
256,192,102840,1,0,0:0:0:26:
402,192,102840,1,0,0:0:0:26:
182,192,102920,1,0,0:0:0:26:
36,192,102920,1,0,0:0:0:26:
329,192,103000,1,0,0:0:0:26:
475,192,103000,1,0,0:0:0:26:
182,192,103080,1,0,0:0:0:26:
402,192,103080,1,0,0:0:0:26:
256,192,103160,1,8,0:0:0:26:
36,192,103160,1,8,0:0:0:26:
109,192,103240,1,0,0:0:0:26:
329,192,103240,1,0,0:0:0:26:
256,192,103320,1,0,0:0:0:26:
475,192,103320,1,0,0:0:0:26:
329,192,103400,1,0,0:0:0:26:
182,192,103400,1,0,0:0:0:26:
36,192,103480,1,0,0:0:0:26:
256,192,103480,1,0,0:0:0:26:
109,192,103560,1,0,0:0:0:26:
402,192,103560,1,0,0:0:0:26:
329,192,103640,1,8,0:0:0:26:
475,192,103640,1,8,0:0:0:26:
182,192,103720,1,0,0:0:0:26:
256,192,103720,1,0,0:0:0:26:
109,192,103800,1,0,0:0:0:26:
402,192,103800,1,0,0:0:0:26:
329,192,103880,1,0,0:0:0:17:
475,192,103880,1,0,0:0:0:17:
36,192,103880,1,0,0:0:0:17:
256,192,103960,1,0,0:0:0:26:
182,192,103960,1,0,0:0:0:26:
109,192,104040,1,0,0:0:0:26:
36,192,104040,1,0,0:0:0:26:
256,192,104120,1,8,0:0:0:17:
402,192,104120,1,8,0:0:0:17:
475,192,104120,1,8,0:0:0:17:
329,192,104200,1,0,0:0:0:26:
182,192,104200,1,0,0:0:0:26:
256,192,104280,1,0,0:0:0:26:
109,192,104280,1,0,0:0:0:26:
182,192,104360,1,0,0:0:0:17:
402,192,104360,1,0,0:0:0:17:
475,192,104360,1,0,0:0:0:17:
329,192,104440,1,0,0:0:0:26:
256,192,104440,1,0,0:0:0:26:
182,192,104520,1,0,0:0:0:26:
36,192,104520,1,0,0:0:0:26:
109,192,104600,1,8,0:0:0:17:
329,192,104600,1,8,0:0:0:17:
475,192,104600,1,8,0:0:0:17:
402,192,104680,1,0,0:0:0:26:
256,192,104680,1,0,0:0:0:26:
182,192,104760,1,0,0:0:0:26:
36,192,104760,1,0,0:0:0:26:
329,192,104840,1,12,0:0:0:17:
475,192,104840,1,12,0:0:0:17:
109,192,104840,1,12,0:0:0:17:
256,192,104920,1,0,0:0:0:26:
182,192,104920,1,0,0:0:0:26:
109,192,105000,1,0,0:0:0:26:
36,192,105000,1,0,0:0:0:26:
329,192,105080,1,0,0:0:0:17:
402,192,105080,1,0,0:0:0:17:
475,192,105080,1,0,0:0:0:17:
256,192,105160,1,0,0:0:0:26:
182,192,105160,1,0,0:0:0:26:
109,192,105240,1,0,0:0:0:26:
36,192,105240,1,0,0:0:0:26:
256,192,105320,1,0,0:0:0:17:
402,192,105320,1,0,0:0:0:17:
475,192,105320,1,0,0:0:0:17:
329,192,105400,1,0,0:0:0:26:
182,192,105400,1,0,0:0:0:26:
256,192,105480,1,0,0:0:0:26:
36,192,105480,1,0,0:0:0:26:
109,192,105560,1,12,0:0:0:17:
329,192,105560,1,12,0:0:0:17:
475,192,105560,1,12,0:0:0:17:
256,192,105620,1,0,0:0:0:26:
402,192,105620,1,0,0:0:0:26:
182,192,105680,1,0,0:0:0:17:
36,192,105680,1,0,0:0:0:17:
475,192,105680,1,0,0:0:0:17:
109,192,105740,1,0,0:0:0:26:
329,192,105740,1,0,0:0:0:26:
256,192,105800,1,4,0:0:0:17:
402,192,105800,1,4,0:0:0:17:
36,192,105800,1,4,0:0:0:17:
109,192,105920,1,0,0:0:0:26:
329,192,105920,1,0,0:0:0:26:
256,192,106040,1,8,0:0:0:26:
475,192,106040,1,8,0:0:0:26:
329,192,106160,1,0,0:0:0:26:
402,192,106160,1,0,0:0:0:26:
256,192,106280,1,0,0:0:0:26:
475,192,106280,1,0,0:0:0:26:
182,192,106400,1,0,0:0:0:26:
329,192,106400,1,0,0:0:0:26:
36,192,106520,1,8,0:0:0:26:
109,192,106520,1,8,0:0:0:26:
256,192,106640,1,0,0:0:0:26:
329,192,106640,1,0,0:0:0:26:
182,192,106760,1,0,0:0:0:26:
402,192,106760,1,0,0:0:0:26:
329,192,106880,1,0,0:0:0:26:
109,192,106880,1,0,0:0:0:26:
36,192,107000,1,8,0:0:0:26:
256,192,107000,1,8,0:0:0:26:
109,192,107120,1,0,0:0:0:0:
182,192,107120,1,0,0:0:0:0:
329,192,107240,1,0,0:0:0:0:
475,192,107240,1,0,0:0:0:0:
182,192,107360,1,0,0:0:0:26:
109,192,107360,1,0,0:0:0:26:
256,192,107480,128,8,107720:0:0:0:26:
402,192,107480,1,0,0:0:0:0:
109,192,107600,1,0,0:0:0:26:
36,192,107600,1,0,0:0:0:26:
182,192,107720,1,0,0:0:0:26:
329,192,107720,1,0,0:0:0:26:
109,192,107840,1,0,0:0:0:26:
256,192,107840,1,0,0:0:0:26:
182,192,107960,1,8,0:0:0:26:
402,192,107960,1,8,0:0:0:26:
329,192,108080,1,0,0:0:0:26:
475,192,108080,1,0,0:0:0:26:
182,192,108200,1,0,0:0:0:26:
402,192,108200,1,0,0:0:0:26:
329,192,108320,1,0,0:0:0:26:
109,192,108320,1,0,0:0:0:26:
36,192,108440,1,8,0:0:0:26:
182,192,108440,1,8,0:0:0:26:
475,192,108560,1,0,0:0:0:26:
256,192,108560,1,0,0:0:0:26:
402,192,108680,1,0,0:0:0:26:
182,192,108680,1,0,0:0:0:26:
109,192,108800,1,0,0:0:0:26:
329,192,108800,1,0,0:0:0:26:
256,192,108920,1,8,0:0:0:26:
36,192,108920,1,8,0:0:0:26:
182,192,109040,1,0,0:0:0:26:
475,192,109040,1,0,0:0:0:26:
256,192,109160,1,0,0:0:0:0:
402,192,109160,1,0,0:0:0:0:
182,192,109280,1,0,0:0:0:26:
109,192,109280,1,0,0:0:0:26:
256,192,109400,128,8,109640:0:0:0:26:
329,192,109400,1,0,0:0:0:0:
109,192,109520,1,0,0:0:0:26:
36,192,109520,1,0,0:0:0:26:
182,192,109640,1,0,0:0:0:26:
402,192,109640,1,0,0:0:0:26:
36,192,109760,1,0,0:0:0:26:
109,192,109760,1,0,0:0:0:26:
182,192,109880,1,8,0:0:0:26:
402,192,109880,1,8,0:0:0:26:
329,192,110000,1,0,0:0:0:26:
475,192,110000,1,0,0:0:0:26:
402,192,110120,1,0,0:0:0:26:
256,192,110120,1,0,0:0:0:26:
182,192,110240,1,0,0:0:0:26:
329,192,110240,1,0,0:0:0:26:
36,192,110360,1,8,0:0:0:26:
109,192,110360,1,8,0:0:0:26:
402,192,110480,1,0,0:0:0:26:
475,192,110480,1,0,0:0:0:26:
329,192,110600,1,0,0:0:0:26:
182,192,110600,1,0,0:0:0:26:
256,192,110720,1,0,0:0:0:26:
36,192,110720,1,0,0:0:0:26:
109,192,110840,1,8,0:0:0:26:
182,192,110840,1,8,0:0:0:26:
329,192,110960,1,0,0:0:0:26:
475,192,110960,1,0,0:0:0:26:
402,192,111080,1,0,0:0:0:26:
256,192,111080,1,0,0:0:0:26:
109,192,111200,1,0,0:0:0:26:
182,192,111200,1,0,0:0:0:26:
329,192,111320,1,8,0:0:0:26:
256,192,111320,128,0,111560:0:0:0:0:
182,192,111440,1,0,0:0:0:26:
36,192,111440,1,0,0:0:0:26:
109,192,111560,1,0,0:0:0:17:
329,192,111560,1,0,0:0:0:17:
475,192,111560,1,0,0:0:0:17:
402,192,111640,1,0,0:0:0:26:
182,192,111640,1,0,0:0:0:26:
256,192,111720,1,0,0:0:0:26:
475,192,111720,1,0,0:0:0:26:
36,192,111800,1,8,0:0:0:17:
182,192,111800,1,8,0:0:0:17:
329,192,111800,1,8,0:0:0:17:
109,192,111880,1,0,0:0:0:26:
402,192,111880,1,0,0:0:0:26:
329,192,111960,1,0,0:0:0:26:
256,192,111960,1,0,0:0:0:26:
182,192,112040,1,0,0:0:0:17:
109,192,112040,1,0,0:0:0:17:
475,192,112040,1,0,0:0:0:17:
402,192,112120,1,0,0:0:0:26:
329,192,112120,1,0,0:0:0:26:
256,192,112200,1,0,0:0:0:26:
475,192,112200,1,0,0:0:0:26:
329,192,112280,128,8,112400:0:0:0:17:
182,192,112280,1,8,0:0:0:17:
36,192,112280,1,8,0:0:0:17:
402,192,112400,128,0,112520:0:0:0:17:
109,192,112400,1,0,0:0:0:17:
256,192,112400,1,0,0:0:0:17:
182,192,112520,1,12,0:0:0:17:
36,192,112520,1,12,0:0:0:17:
329,192,112520,128,12,113240:0:0:0:17:
475,192,112760,1,0,0:0:0:53:
182,192,112880,1,12,0:0:0:17:
36,192,112880,1,12,0:0:0:17:
256,192,112880,1,12,0:0:0:17:
475,192,113120,1,0,0:0:0:53:
182,192,113240,1,12,0:0:0:17:
36,192,113240,1,12,0:0:0:17:
256,192,113240,1,12,0:0:0:17:
109,192,113300,1,8,0:0:0:26:
402,192,113300,1,8,0:0:0:26:
256,192,113360,1,8,0:0:0:26:
475,192,113360,1,8,0:0:0:26:
329,192,113420,1,0,0:0:0:26:
182,192,113420,1,0,0:0:0:26:
109,192,113480,1,12,0:0:0:17:
402,192,113480,1,12,0:0:0:17:
256,192,113600,1,0,0:0:0:53:
36,192,113600,1,0,0:0:0:0:
329,192,113720,1,8,0:0:0:53:
109,192,113720,1,0,0:0:0:0:
475,192,113840,128,0,113960:0:0:0:17:
256,192,113840,1,0,0:0:0:17:
402,192,113840,1,0,0:0:0:17:
402,192,113960,128,0,114080:0:0:0:17:
182,192,113960,1,0,0:0:0:17:
329,192,113960,1,0,0:0:0:17:
329,192,114080,128,0,114200:0:0:0:17:
109,192,114080,1,0,0:0:0:17:
256,192,114080,1,0,0:0:0:17:
36,192,114200,1,8,0:0:0:17:
475,192,114200,1,8,0:0:0:17:
182,192,114200,1,8,0:0:0:17:
402,192,114320,128,0,114440:0:0:0:17:
256,192,114320,1,0,0:0:0:17:
109,192,114320,1,0,0:0:0:17:
329,192,114440,128,0,114560:0:0:0:17:
182,192,114440,1,0,0:0:0:17:
36,192,114440,1,0,0:0:0:17:
256,192,114560,128,0,114680:0:0:0:17:
109,192,114560,1,0,0:0:0:17:
475,192,114560,1,0,0:0:0:17:
402,192,114680,1,8,0:0:0:26:
36,192,114680,1,8,0:0:0:26:
329,192,114800,128,0,114920:0:0:0:17:
475,192,114800,1,0,0:0:0:17:
182,192,114800,1,0,0:0:0:17:
256,192,114920,128,0,115040:0:0:0:17:
109,192,114920,1,0,0:0:0:17:
402,192,114920,1,0,0:0:0:17:
329,192,115040,1,0,0:0:0:17:
36,192,115040,1,0,0:0:0:17:
475,192,115040,1,0,0:0:0:17:
109,192,115100,1,0,0:0:0:53:
182,192,115160,128,8,115280:0:0:0:53:
36,192,115280,1,0,0:0:0:17:
402,192,115280,1,0,0:0:0:17:
329,192,115280,1,0,0:0:0:17:
256,192,115400,1,0,0:0:0:26:
475,192,115400,1,0,0:0:0:26:
109,192,115520,1,0,0:0:0:26:
402,192,115520,1,0,0:0:0:26:
256,192,115640,1,8,0:0:0:26:
475,192,115640,1,8,0:0:0:26:
329,192,115760,128,0,115880:0:0:0:17:
402,192,115760,1,0,0:0:0:17:
182,192,115760,1,0,0:0:0:17:
256,192,115880,128,0,116000:0:0:0:17:
109,192,115880,1,0,0:0:0:17:
475,192,115880,1,0,0:0:0:17:
182,192,116000,128,0,116120:0:0:0:17:
402,192,116000,1,0,0:0:0:17:
36,192,116000,1,0,0:0:0:17:
329,192,116120,1,8,0:0:0:26:
109,192,116120,1,8,0:0:0:26:
256,192,116240,128,0,116360:0:0:0:17:
402,192,116240,1,0,0:0:0:17:
182,192,116240,1,0,0:0:0:17:
182,192,116360,128,0,116480:0:0:0:17:
109,192,116360,1,0,0:0:0:17:
329,192,116360,1,0,0:0:0:17:
109,192,116480,128,0,116600:0:0:0:17:
256,192,116480,1,0,0:0:0:17:
36,192,116480,1,0,0:0:0:17:
182,192,116600,1,8,0:0:0:26:
402,192,116600,1,8,0:0:0:26:
182,192,116720,128,0,116840:0:0:0:17:
329,192,116720,1,0,0:0:0:17:
475,192,116720,1,0,0:0:0:17:
109,192,116840,128,0,116960:0:0:0:17:
256,192,116840,1,0,0:0:0:17:
402,192,116840,1,0,0:0:0:17:
475,192,116960,1,0,0:0:0:26:
182,192,116960,1,0,0:0:0:26:
329,192,117020,1,0,0:0:0:53:
36,192,117080,128,8,117200:0:0:0:26:
256,192,117080,1,8,0:0:0:26:
109,192,117200,1,0,0:0:0:26:
329,192,117200,1,0,0:0:0:26:
182,192,117320,1,0,0:0:0:26:
475,192,117320,1,0,0:0:0:26:
329,192,117440,1,0,0:0:0:26:
36,192,117440,1,0,0:0:0:26:
109,192,117560,1,8,0:0:0:26:
256,192,117560,1,8,0:0:0:26:
475,192,117680,128,0,117800:0:0:0:17:
329,192,117680,1,0,0:0:0:17:
402,192,117680,1,0,0:0:0:17:
182,192,117800,1,0,0:0:0:17:
329,192,117800,128,0,117920:0:0:0:17:
256,192,117800,1,0,0:0:0:17:
36,192,117920,1,0,0:0:0:17:
182,192,117920,128,0,118040:0:0:0:17:
109,192,117920,1,0,0:0:0:17:
475,192,118040,1,8,0:0:0:26:
402,192,118040,1,8,0:0:0:26:
402,192,118160,128,0,118280:0:0:0:17:
329,192,118160,1,0,0:0:0:17:
109,192,118160,1,0,0:0:0:17:
256,192,118280,128,0,118400:0:0:0:17:
182,192,118280,1,0,0:0:0:17:
36,192,118280,1,0,0:0:0:17:
109,192,118400,128,0,118520:0:0:0:17:
329,192,118400,1,0,0:0:0:17:
475,192,118400,1,0,0:0:0:17:
402,192,118520,1,8,0:0:0:26:
182,192,118520,1,8,0:0:0:26:
329,192,118640,128,0,118760:0:0:0:17:
475,192,118640,1,0,0:0:0:17:
256,192,118640,1,0,0:0:0:17:
182,192,118760,128,0,118880:0:0:0:17:
402,192,118760,1,0,0:0:0:17:
109,192,118760,1,0,0:0:0:17:
36,192,118880,1,0,0:0:0:26:
256,192,118880,1,0,0:0:0:26:
109,192,118940,1,0,0:0:0:53:
36,192,119000,128,8,119120:0:0:0:26:
329,192,119000,1,8,0:0:0:26:
256,192,119120,1,0,0:0:0:26:
109,192,119120,1,0,0:0:0:26:
182,192,119240,1,0,0:0:0:17:
402,192,119240,1,0,0:0:0:17:
475,192,119240,1,0,0:0:0:17:
256,192,119360,1,0,0:0:0:26:
109,192,119360,1,0,0:0:0:26:
36,192,119480,1,8,0:0:0:17:
182,192,119480,1,8,0:0:0:17:
329,192,119480,1,8,0:0:0:17:
256,192,119600,1,0,0:0:0:26:
402,192,119600,1,0,0:0:0:26:
475,192,119720,1,0,0:0:0:17:
329,192,119720,1,0,0:0:0:17:
182,192,119720,1,0,0:0:0:17:
475,192,119840,1,0,0:0:0:17:
256,192,119840,1,0,0:0:0:17:
36,192,119840,1,0,0:0:0:17:
329,192,119960,1,8,0:0:0:17:
109,192,119960,1,8,0:0:0:17:
182,192,119960,1,8,0:0:0:17:
256,192,120080,1,0,0:0:0:17:
36,192,120080,1,0,0:0:0:17:
402,192,120080,1,0,0:0:0:17:
182,192,120200,1,12,0:0:0:17:
329,192,120200,1,12,0:0:0:17:
475,192,120200,1,12,0:0:0:17:
402,192,120320,1,0,0:0:0:26:
109,192,120320,1,0,0:0:0:26:
402,192,120440,1,0,0:0:0:26:
36,192,120440,1,0,0:0:0:26:
329,192,120560,1,12,0:0:0:17:
475,192,120560,1,12,0:0:0:17:
256,192,120560,1,12,0:0:0:17:
402,192,120680,1,0,0:0:0:26:
182,192,120680,1,0,0:0:0:26:
402,192,120800,1,0,0:0:0:26:
109,192,120800,1,0,0:0:0:26:
329,192,120920,1,12,0:0:0:17:
475,192,120920,1,12,0:0:0:17:
36,192,120920,1,12,0:0:0:17:
109,192,120980,1,0,0:0:0:26:
402,192,120980,1,0,0:0:0:26:
182,192,121040,1,0,0:0:0:26:
256,192,121040,1,0,0:0:0:26:
36,192,121100,1,0,0:0:0:26:
329,192,121100,1,0,0:0:0:26:
475,192,121160,1,12,0:0:0:26:
182,192,121160,1,12,0:0:0:26:
109,192,121220,1,0,0:0:0:26:
256,192,121220,1,0,0:0:0:26:
402,192,121280,1,0,0:0:0:26:
36,192,121280,1,0,0:0:0:26:
182,192,121340,1,0,0:0:0:26:
329,192,121340,1,0,0:0:0:26:
475,192,121400,1,0,0:0:0:26:
109,192,121400,1,0,0:0:0:26:
402,192,121460,1,0,0:0:0:26:
256,192,121460,1,0,0:0:0:26:
329,192,121520,1,12,0:0:0:26:
182,192,121520,1,12,0:0:0:26:
36,192,121580,1,0,0:0:0:26:
109,192,121580,1,0,0:0:0:26:
256,192,121640,1,0,0:0:0:26:
475,192,121640,1,0,0:0:0:26:
109,192,121700,1,0,0:0:0:26:
329,192,121700,1,0,0:0:0:26:
182,192,121760,1,0,0:0:0:26:
402,192,121760,1,0,0:0:0:26:
329,192,121820,1,0,0:0:0:26:
475,192,121820,1,0,0:0:0:26:
256,192,121880,1,12,0:0:0:26:
109,192,121880,1,12,0:0:0:26:
36,192,121940,1,0,0:0:0:26:
402,192,121940,1,0,0:0:0:26:
182,192,122000,1,0,0:0:0:26:
329,192,122000,1,0,0:0:0:26:
109,192,122060,1,0,0:0:0:26:
475,192,122060,1,0,0:0:0:26:
36,192,122120,1,12,0:0:0:17:
256,192,122120,1,12,0:0:0:17:
402,192,122120,1,12,0:0:0:17:
182,192,122180,1,0,0:0:0:26:
329,192,122180,1,0,0:0:0:26:
109,192,122240,1,0,0:0:0:26:
256,192,122240,1,0,0:0:0:26:
329,192,122300,1,0,0:0:0:26:
182,192,122300,1,0,0:0:0:26:
256,192,122360,1,0,0:0:0:26:
402,192,122360,1,0,0:0:0:26:
475,192,122420,1,0,0:0:0:26:
182,192,122420,1,0,0:0:0:26:
109,192,122480,1,12,0:0:0:26:
402,192,122480,1,12,0:0:0:26:
329,192,122540,1,0,0:0:0:26:
36,192,122540,1,0,0:0:0:26:
256,192,122600,1,0,0:0:0:17:
109,192,122600,1,0,0:0:0:17:
402,192,122600,1,0,0:0:0:17:
182,192,122660,1,0,0:0:0:26:
329,192,122660,1,0,0:0:0:26:
256,192,122720,1,0,0:0:0:26:
402,192,122720,1,0,0:0:0:26:
329,192,122780,1,0,0:0:0:26:
475,192,122780,1,0,0:0:0:26:
256,192,122840,1,12,0:0:0:13:
109,192,122840,1,12,0:0:0:13:
402,192,122840,1,12,0:0:0:13:
182,192,122840,1,12,0:0:0:13:
36,192,122960,1,0,0:0:0:13:
109,192,122960,1,0,0:0:0:13:
182,192,122960,1,0,0:0:0:13:
329,192,122960,1,0,0:0:0:13:
182,192,123080,128,12,125000:0:0:0:17:
256,192,123080,128,12,124040:0:0:0:17:
329,192,123080,128,12,124760:0:0:0:17:
36,192,124040,1,8,0:0:0:53:
402,192,124120,1,0,0:0:0:53:
402,192,124200,1,0,0:0:0:53:
109,192,124280,1,0,0:0:0:53:
475,192,124360,1,0,0:0:0:53:
475,192,124440,1,0,0:0:0:53:
256,192,124520,1,0,0:0:0:53:
109,192,124640,1,0,0:0:0:53:
402,192,124700,1,0,0:0:0:53:
36,192,124760,1,8,0:0:0:26:
475,192,124760,1,8,0:0:0:26:
329,192,125000,1,0,0:0:0:25:soft-hitfinish.wav
475,192,125000,1,0,0:0:0:25:soft-hitfinish.wav
256,192,125000,1,0,0:0:0:25:soft-hitfinish.wav
36,192,125000,1,0,0:0:0:25:soft-hitfinish.wav
402,192,125000,1,0,0:0:0:25:soft-hitfinish.wav
109,192,125000,1,0,0:0:0:25:soft-hitfinish.wav
