osu file format v12

[General]
AudioFilename: Intersect Thunderbolt.mp3
AudioLeadIn: 1500
PreviewTime: 9800
Countdown: 0
SampleSet: Normal
StackLeniency: 0.7
Mode: 3
LetterboxInBreaks: 0
SpecialStyle: 0
WidescreenStoryboard: 1

[Editor]
Bookmarks: 210,2120,9560,9620,9680,9740,9800,9810,9860,9920,9980,10040,11720,13640,15560,17480,19400,21080,21140,21200,21260,21320,21380,21440,21500,21560,24200,24920,24980,25040,25100,25160,25170,25220,25280,25340,25400,27020,28940,30920,32840,34820,36440,36500,36560,36620,36680,36740,36800,36860,36920,39620,40280,40340,40400,40460,40520,40530,40580,40640,40700,40760,57560,57620,57680,57740,57800,57860,57920,57980,58040,59660,61580,63320,63380,63440,63500,63560,63620,63680,63740,63800,65240,65300,65360,65420,65480,65540,65600,65660,65720,67400,69380,71000,71060,71120,71180,71240,71300,71360,71420,71480,72920,72980,73040,73100,73160,73220,73280,73340,73400,74840,74900,74960,75020,75080,75140,75200,75260,75320,90200,90260,90380,90440,90500,90560,90620,90680,92840,94760,95960,96020,96080,96140,96200,96260,96320,96380,96440,96680,97940,98000,98060,98120,98180,98240,98300,98360,105560,105620,105680,105740,105800,105860,105920,105980,106040,106050,107720,109640,111320,111380,111440,111500,111560,111620,111680,111800,113240,113300,113360,113420,113480,113540,113600,113660,113720,115400,117320,119000,119060,119120,119180,119240,119300,119360,119420,119480,122840,122900,122960,123020,123080,123140,123200,123260,123320,124760,124820,124880,124940,125000,125060,125120,125180,125240,126980,128840,130820
DistanceSpacing: 1.5
BeatDivisor: 4
GridSize: 4

[Metadata]
Title:Intersect Thunderbolt-Remix
TitleUnicode:Intersect Thunderbolt-Remix
Artist:S.S.H.
ArtistUnicode:S.S.H.
Creator:Xcrypt
Version:lvl 30 - Kaio-ken x10
Source:eXceed3rd-JADE PENETRATE-BLACK PACKAGE
Tags:Danmaku game Original Sound Track OST Saitama Saisyu Heik SSH Stage 5 boss Lindwurm Celestia
BeatmapID:367886
BeatmapSetID:146895

[Difficulty]
HPDrainRate:7
CircleSize:7
OverallDifficulty:7
ApproachRate:9
SliderMultiplier:2.1
SliderTickRate:1

[Events]
//Background and Video events
0,0,"eX3bp_bb1-800x440.jpg",0,0
//Break Periods
//Storyboard Layer 0 (Background)
//Storyboard Layer 1 (Fail)
//Storyboard Layer 2 (Pass)
//Storyboard Layer 3 (Foreground)
//Storyboard Sound Samples
//Background Colour Transformations
3,100,163,162,255

[TimingPoints]
200.581127504251,240,4,1,1,15,1,0
1880,-57.1428571428571,4,1,1,15,0,0
2120,-100,4,1,1,15,0,0
24080,-133.333333333333,4,1,1,15,0,0
25160,-100,4,1,1,15,0,0
39440,-133.333333333333,4,1,1,15,0,0
40520,-100,4,1,1,15,0,0
41480,-133.333333333333,4,1,1,15,0,0
42440,-100,4,1,1,15,0,0
43400,-133.333333333333,4,1,1,15,0,0
44360,-100,4,1,1,15,0,0
45320,-133.333333333333,4,1,1,15,0,0
46280,-100,4,1,1,15,0,0
46760,-133.333333333333,4,1,1,15,0,0
47240,-100,4,1,1,15,0,0
47720,-133.333333333333,4,1,1,15,0,0
48200,-100,4,1,1,15,0,0
49160,-133.333333333333,4,1,1,15,0,0
50120,-100,4,1,1,15,0,0
51080,-133.333333333333,4,1,1,15,0,0
52040,-100,4,1,1,15,0,0
53000,-133.333333333333,4,1,1,15,0,0
53960,-100,4,1,1,15,0,0
54681,-133.333333333333,4,1,1,15,0,0
55880,-100,4,1,1,15,0,0
58760,-133.333333333333,4,1,1,15,0,0
59720,-100,4,1,1,15,0,0
60680,-133.333333333333,4,1,1,15,0,0
61640,-100,4,1,1,15,0,0
62600,-133.333333333333,4,1,1,15,0,0
63560,-100,4,1,1,15,0,0
64520,-133.333333333333,4,1,1,15,0,0
65480,-100,4,1,1,15,0,0
66440,-133.333333333333,4,1,1,15,0,0
67400,-100,4,1,1,15,0,0
68360,-133.333333333333,4,1,1,15,0,0
69320,-100,4,1,1,15,0,0
70280,-133.333333333333,4,1,1,15,0,0
73160,-100,4,1,1,15,0,0
81920,-200,4,1,1,15,0,0
83480,-100,4,1,1,15,0,0
90200,-57.1428571428571,4,1,1,15,0,0
90440,-100,4,1,1,15,0,0

[Colours]
Combo1 : 234,0,0
Combo2 : 234,117,0
Combo3 : 234,234,0

[HitObjects]
329,192,200,1,0,0:0:0:0:
402,192,260,1,0,0:0:0:0:
329,192,320,1,0,0:0:0:0:
402,192,380,1,0,0:0:0:0:
329,192,440,1,0,0:0:0:0:
402,192,500,1,0,0:0:0:0:
182,192,560,1,0,0:0:0:0:
109,192,620,1,0,0:0:0:0:
182,192,680,1,0,0:0:0:0:
109,192,740,1,0,0:0:0:0:
182,192,800,1,0,0:0:0:0:
109,192,860,1,0,0:0:0:0:
329,192,920,1,0,0:0:0:0:
402,192,980,1,0,0:0:0:0:
329,192,1040,1,0,0:0:0:0:
402,192,1100,1,0,0:0:0:0:
329,192,1160,1,0,0:0:0:0:
402,192,1220,1,0,0:0:0:0:
182,192,1280,1,0,0:0:0:0:
109,192,1340,1,0,0:0:0:0:
182,192,1400,1,0,0:0:0:0:
109,192,1460,1,0,0:0:0:0:
182,192,1520,1,0,0:0:0:0:
109,192,1580,1,0,0:0:0:0:
402,192,1640,1,0,0:0:0:0:
402,192,1700,1,0,0:0:0:0:
402,192,1760,1,0,0:0:0:0:
475,192,1880,128,0,2120:0:0:0:0:
256,192,2120,1,0,0:0:0:0:
36,192,2120,128,0,2480:0:0:0:0:
329,192,2240,1,0,0:0:0:0:
256,192,2360,1,0,0:0:0:0:
329,192,2480,1,0,0:0:0:0:
475,192,2600,1,0,0:0:0:0:
329,192,2720,1,0,0:0:0:0:
475,192,2840,1,0,0:0:0:0:
329,192,2960,1,0,0:0:0:0:
402,192,3080,1,0,0:0:0:0:
475,192,3140,1,0,0:0:0:0:
402,192,3200,1,0,0:0:0:0:
329,192,3320,1,0,0:0:0:0:
256,192,3440,1,0,0:0:0:0:
182,192,3560,1,0,0:0:0:0:
109,192,3680,1,0,0:0:0:0:
36,192,3800,128,0,4040:0:0:0:0:
475,192,3800,1,0,0:0:0:0:
402,192,3920,1,0,0:0:0:0:
256,192,4040,128,0,4280:0:0:0:0:
329,192,4040,1,0,0:0:0:0:
402,192,4160,1,0,0:0:0:0:
329,192,4280,1,0,0:0:0:0:
402,192,4400,1,0,0:0:0:0:
475,192,4520,1,0,0:0:0:0:
256,192,4640,1,0,0:0:0:0:
475,192,4760,1,0,0:0:0:0:
256,192,4880,1,0,0:0:0:0:
475,192,5000,1,0,0:0:0:0:
402,192,5060,1,0,0:0:0:0:
475,192,5120,1,0,0:0:0:0:
475,192,5240,1,0,0:0:0:0:
329,192,5240,1,0,0:0:0:0:
402,192,5360,1,0,0:0:0:0:
256,192,5360,1,0,0:0:0:0:
329,192,5480,1,0,0:0:0:0:
182,192,5480,1,0,0:0:0:0:
256,192,5600,1,0,0:0:0:0:
109,192,5600,1,0,0:0:0:0:
182,192,5720,1,0,0:0:0:0:
329,192,5720,1,0,0:0:0:0:
109,192,5840,1,0,0:0:0:0:
256,192,5840,1,0,0:0:0:0:
36,192,5960,128,0,6320:0:0:0:0:
329,192,5960,1,0,0:0:0:0:
402,192,6080,1,0,0:0:0:0:
329,192,6200,1,0,0:0:0:0:
402,192,6320,1,0,0:0:0:0:
475,192,6440,1,0,0:0:0:0:
402,192,6560,1,0,0:0:0:0:
475,192,6680,1,0,0:0:0:0:
402,192,6800,1,0,0:0:0:0:
475,192,6920,1,0,0:0:0:0:
402,192,6980,1,0,0:0:0:0:
475,192,7040,1,0,0:0:0:0:
329,192,7160,1,0,0:0:0:0:
256,192,7280,1,0,0:0:0:0:
182,192,7400,1,0,0:0:0:0:
109,192,7520,1,0,0:0:0:0:
36,192,7640,128,0,7880:0:0:0:0:
475,192,7640,1,0,0:0:0:0:
329,192,7760,1,0,0:0:0:0:
256,192,7880,128,0,8120:0:0:0:0:
182,192,7880,1,0,0:0:0:0:
329,192,8000,1,0,0:0:0:0:
182,192,8120,1,0,0:0:0:0:
329,192,8240,1,0,0:0:0:0:
402,192,8360,1,0,0:0:0:0:
329,192,8480,1,0,0:0:0:0:
36,192,8600,128,0,8840:0:0:0:0:
402,192,8600,1,0,0:0:0:0:
329,192,8720,1,0,0:0:0:0:
402,192,8840,1,0,0:0:0:0:
182,192,8840,1,0,0:0:0:0:
109,192,8960,1,0,0:0:0:0:
329,192,8960,1,0,0:0:0:0:
109,192,9080,1,0,0:0:0:0:
329,192,9080,1,0,0:0:0:0:
182,192,9200,1,0,0:0:0:0:
402,192,9200,1,0,0:0:0:0:
109,192,9320,1,0,0:0:0:0:
329,192,9320,1,0,0:0:0:0:
109,192,9440,1,0,0:0:0:0:
329,192,9440,1,0,0:0:0:0:
36,192,9560,1,0,0:0:0:0:
329,192,9560,1,0,0:0:0:0:
109,192,9620,1,0,0:0:0:0:
402,192,9620,1,0,0:0:0:0:
182,192,9680,1,0,0:0:0:0:
475,192,9680,1,0,0:0:0:0:
109,192,9740,1,0,0:0:0:0:
402,192,9740,1,0,0:0:0:0:
36,192,9800,128,0,10040:0:0:0:0:
329,192,9800,1,0,0:0:0:0:
402,192,9920,1,0,0:0:0:0:
109,192,10040,128,0,10160:0:0:0:0:
475,192,10040,1,0,0:0:0:0:
36,192,10160,128,0,10280:0:0:0:0:
402,192,10160,1,0,0:0:0:0:
109,192,10280,128,0,10520:0:0:0:0:
256,192,10280,1,0,0:0:0:0:
402,192,10400,1,0,0:0:0:0:
36,192,10520,128,0,10640:0:0:0:0:
256,192,10520,1,0,0:0:0:0:
182,192,10640,128,0,10760:0:0:0:0:
329,192,10640,1,0,0:0:0:0:
256,192,10760,128,0,11000:0:0:0:0:
109,192,10760,1,0,0:0:0:0:
329,192,10880,1,0,0:0:0:0:
109,192,11000,1,0,0:0:0:0:
36,192,11000,128,0,11120:0:0:0:0:
329,192,11120,128,0,11240:0:0:0:0:
402,192,11120,1,0,0:0:0:0:
256,192,11240,128,0,11480:0:0:0:0:
36,192,11240,1,0,0:0:0:0:
329,192,11360,1,0,0:0:0:0:
182,192,11480,128,0,11720:0:0:0:0:
36,192,11480,1,0,0:0:0:0:
329,192,11600,1,0,0:0:0:0:
36,192,11720,128,0,11960:0:0:0:0:
256,192,11720,1,0,0:0:0:0:
402,192,11840,1,0,0:0:0:0:
109,192,11960,128,0,12080:0:0:0:0:
475,192,11960,1,0,0:0:0:0:
36,192,12080,128,0,12200:0:0:0:0:
402,192,12080,1,0,0:0:0:0:
109,192,12200,128,0,12440:0:0:0:0:
256,192,12200,1,0,0:0:0:0:
402,192,12320,1,0,0:0:0:0:
36,192,12440,128,0,12560:0:0:0:0:
256,192,12440,1,0,0:0:0:0:
182,192,12560,128,0,12680:0:0:0:0:
329,192,12560,1,0,0:0:0:0:
256,192,12680,128,0,12920:0:0:0:0:
109,192,12680,1,0,0:0:0:0:
329,192,12800,1,0,0:0:0:0:
109,192,12920,1,0,0:0:0:0:
36,192,12920,128,0,13040:0:0:0:0:
329,192,13040,128,0,13160:0:0:0:0:
402,192,13040,1,0,0:0:0:0:
256,192,13160,128,0,13400:0:0:0:0:
36,192,13160,1,0,0:0:0:0:
329,192,13280,1,0,0:0:0:0:
182,192,13400,128,0,13640:0:0:0:0:
36,192,13400,1,0,0:0:0:0:
329,192,13520,1,0,0:0:0:0:
36,192,13640,128,0,13880:0:0:0:0:
256,192,13640,1,0,0:0:0:0:
402,192,13760,1,0,0:0:0:0:
475,192,13880,1,0,0:0:0:0:
109,192,13880,128,0,14000:0:0:0:0:
402,192,14000,1,0,0:0:0:0:
36,192,14000,128,0,14120:0:0:0:0:
256,192,14120,1,0,0:0:0:0:
109,192,14120,128,0,14360:0:0:0:0:
402,192,14240,1,0,0:0:0:0:
256,192,14360,1,0,0:0:0:0:
36,192,14360,128,0,14480:0:0:0:0:
329,192,14480,1,0,0:0:0:0:
182,192,14480,128,0,14600:0:0:0:0:
109,192,14600,1,0,0:0:0:0:
256,192,14600,128,0,14840:0:0:0:0:
329,192,14720,1,0,0:0:0:0:
36,192,14840,128,0,14960:0:0:0:0:
109,192,14840,1,0,0:0:0:0:
402,192,14960,1,0,0:0:0:0:
329,192,14960,128,0,15080:0:0:0:0:
36,192,15080,1,0,0:0:0:0:
256,192,15080,128,0,15320:0:0:0:0:
329,192,15200,1,0,0:0:0:0:
36,192,15320,1,0,0:0:0:0:
182,192,15320,128,0,15560:0:0:0:0:
329,192,15440,1,0,0:0:0:0:
36,192,15560,128,0,15800:0:0:0:0:
256,192,15560,1,0,0:0:0:0:
402,192,15680,1,0,0:0:0:0:
109,192,15800,128,0,15920:0:0:0:0:
475,192,15800,1,0,0:0:0:0:
36,192,15920,128,0,16040:0:0:0:0:
402,192,15920,1,0,0:0:0:0:
109,192,16040,128,0,16280:0:0:0:0:
256,192,16040,1,0,0:0:0:0:
402,192,16160,1,0,0:0:0:0:
36,192,16280,128,0,16400:0:0:0:0:
256,192,16280,1,0,0:0:0:0:
182,192,16400,128,0,16520:0:0:0:0:
329,192,16400,1,0,0:0:0:0:
256,192,16520,128,0,16760:0:0:0:0:
109,192,16520,1,0,0:0:0:0:
329,192,16640,1,0,0:0:0:0:
109,192,16760,1,0,0:0:0:0:
36,192,16760,128,0,16880:0:0:0:0:
329,192,16880,128,0,17000:0:0:0:0:
402,192,16880,1,0,0:0:0:0:
256,192,17000,128,0,17240:0:0:0:0:
36,192,17000,1,0,0:0:0:0:
329,192,17120,1,0,0:0:0:0:
182,192,17240,128,0,17480:0:0:0:0:
36,192,17240,1,0,0:0:0:0:
329,192,17360,1,0,0:0:0:0:
36,192,17480,128,0,17720:0:0:0:0:
256,192,17480,1,0,0:0:0:0:
402,192,17600,1,0,0:0:0:0:
475,192,17720,1,0,0:0:0:0:
109,192,17720,128,0,17840:0:0:0:0:
402,192,17840,1,0,0:0:0:0:
36,192,17840,128,0,17960:0:0:0:0:
256,192,17960,1,0,0:0:0:0:
109,192,17960,128,0,18200:0:0:0:0:
402,192,18080,1,0,0:0:0:0:
256,192,18200,1,0,0:0:0:0:
36,192,18200,128,0,18320:0:0:0:0:
329,192,18320,1,0,0:0:0:0:
182,192,18320,128,0,18440:0:0:0:0:
109,192,18440,1,0,0:0:0:0:
256,192,18440,128,0,18680:0:0:0:0:
329,192,18560,1,0,0:0:0:0:
36,192,18680,128,0,18800:0:0:0:0:
109,192,18680,1,0,0:0:0:0:
402,192,18800,1,0,0:0:0:0:
329,192,18800,128,0,18920:0:0:0:0:
36,192,18920,1,0,0:0:0:0:
256,192,18920,128,0,19160:0:0:0:0:
329,192,19040,1,0,0:0:0:0:
36,192,19160,1,0,0:0:0:0:
182,192,19160,128,0,19400:0:0:0:0:
329,192,19280,1,0,0:0:0:0:
36,192,19400,128,0,19640:0:0:0:0:
256,192,19400,1,0,0:0:0:0:
402,192,19520,1,0,0:0:0:0:
109,192,19640,128,0,19760:0:0:0:0:
475,192,19640,1,0,0:0:0:0:
36,192,19760,128,0,19880:0:0:0:0:
402,192,19760,1,0,0:0:0:0:
109,192,19880,128,0,20120:0:0:0:0:
256,192,19880,1,0,0:0:0:0:
402,192,20000,1,0,0:0:0:0:
36,192,20120,128,0,20240:0:0:0:0:
256,192,20120,1,0,0:0:0:0:
182,192,20240,128,0,20360:0:0:0:0:
329,192,20240,1,0,0:0:0:0:
256,192,20360,128,0,20600:0:0:0:0:
109,192,20360,1,0,0:0:0:0:
329,192,20480,1,0,0:0:0:0:
109,192,20600,1,0,0:0:0:0:
36,192,20600,128,0,20720:0:0:0:0:
329,192,20720,128,0,20840:0:0:0:0:
402,192,20720,1,0,0:0:0:0:
256,192,20840,128,0,21080:0:0:0:0:
36,192,20840,1,0,0:0:0:0:
329,192,20960,1,0,0:0:0:0:
182,192,21080,128,0,21320:0:0:0:0:
36,192,21080,1,0,0:0:0:0:
329,192,21200,1,0,0:0:0:0:
36,192,21320,128,0,22280:0:0:0:0:
109,192,21320,1,0,0:0:0:0:
182,192,21440,1,0,0:0:0:0:
256,192,21560,1,0,0:0:0:0:
402,192,21560,1,0,0:0:0:0:
475,192,21560,1,0,0:0:0:0:
182,192,21680,1,0,0:0:0:0:
109,192,21800,1,0,0:0:0:0:
182,192,21920,1,0,0:0:0:0:
109,192,22040,1,0,0:0:0:0:
475,192,22040,1,0,0:0:0:0:
182,192,22160,1,0,0:0:0:0:
182,192,22280,128,0,23240:0:0:0:0:
256,192,22280,1,0,0:0:0:0:
475,192,22280,1,0,0:0:0:0:
109,192,22400,1,0,0:0:0:0:
36,192,22520,1,0,0:0:0:0:
402,192,22520,1,0,0:0:0:0:
475,192,22520,1,0,0:0:0:0:
109,192,22640,1,0,0:0:0:0:
256,192,22760,1,0,0:0:0:0:
109,192,22880,1,0,0:0:0:0:
36,192,23000,1,0,0:0:0:0:
475,192,23000,1,0,0:0:0:0:
109,192,23120,1,0,0:0:0:0:
329,192,23240,128,0,24080:0:0:0:0:
256,192,23240,1,0,0:0:0:0:
402,192,23360,1,0,0:0:0:0:
475,192,23360,1,0,0:0:0:0:
109,192,23360,1,0,0:0:0:0:
402,192,23480,1,0,0:0:0:0:
475,192,23480,1,0,0:0:0:0:
36,192,23480,1,0,0:0:0:0:
109,192,23600,1,0,0:0:0:0:
36,192,23720,1,0,0:0:0:0:
402,192,23720,1,0,0:0:0:0:
475,192,23720,1,0,0:0:0:0:
109,192,23840,1,0,0:0:0:0:
36,192,23960,1,0,0:0:0:0:
402,192,23960,1,0,0:0:0:0:
475,192,23960,1,0,0:0:0:0:
109,192,24080,1,0,0:0:0:0:
475,192,24200,1,0,0:0:0:0:
402,192,24260,1,0,0:0:0:0:
475,192,24320,1,0,0:0:0:0:
475,192,24440,1,0,0:0:0:0:
329,192,24440,1,0,0:0:0:0:
402,192,24560,1,0,0:0:0:0:
256,192,24560,1,0,0:0:0:0:
182,192,24680,1,0,0:0:0:0:
329,192,24680,1,0,0:0:0:0:
256,192,24800,1,0,0:0:0:0:
109,192,24800,1,0,0:0:0:0:
182,192,24920,1,0,0:0:0:0:
329,192,24920,1,0,0:0:0:0:
256,192,25040,1,0,0:0:0:0:
109,192,25040,1,0,0:0:0:0:
36,192,25160,128,0,25400:0:0:0:0:
329,192,25160,1,0,0:0:0:0:
402,192,25280,1,0,0:0:0:0:
109,192,25400,128,0,25520:0:0:0:0:
475,192,25400,1,0,0:0:0:0:
36,192,25520,128,0,25640:0:0:0:0:
402,192,25520,1,0,0:0:0:0:
109,192,25640,128,0,25880:0:0:0:0:
256,192,25640,1,0,0:0:0:0:
402,192,25760,1,0,0:0:0:0:
36,192,25880,128,0,26000:0:0:0:0:
256,192,25880,1,0,0:0:0:0:
182,192,26000,128,0,26120:0:0:0:0:
329,192,26000,1,0,0:0:0:0:
256,192,26120,128,0,26360:0:0:0:0:
109,192,26120,1,0,0:0:0:0:
329,192,26240,1,0,0:0:0:0:
109,192,26360,1,0,0:0:0:0:
36,192,26360,128,0,26480:0:0:0:0:
329,192,26480,128,0,26600:0:0:0:0:
402,192,26480,1,0,0:0:0:0:
256,192,26600,128,0,26840:0:0:0:0:
36,192,26600,1,0,0:0:0:0:
329,192,26720,1,0,0:0:0:0:
182,192,26840,128,0,27080:0:0:0:0:
36,192,26840,1,0,0:0:0:0:
329,192,26960,1,0,0:0:0:0:
36,192,27080,128,0,27320:0:0:0:0:
256,192,27080,1,0,0:0:0:0:
402,192,27200,1,0,0:0:0:0:
109,192,27320,128,0,27440:0:0:0:0:
475,192,27320,1,0,0:0:0:0:
36,192,27440,128,0,27560:0:0:0:0:
402,192,27440,1,0,0:0:0:0:
109,192,27560,128,0,27800:0:0:0:0:
256,192,27560,1,0,0:0:0:0:
402,192,27680,1,0,0:0:0:0:
36,192,27800,128,0,27920:0:0:0:0:
256,192,27800,1,0,0:0:0:0:
182,192,27920,128,0,28040:0:0:0:0:
329,192,27920,1,0,0:0:0:0:
256,192,28040,128,0,28280:0:0:0:0:
109,192,28040,1,0,0:0:0:0:
329,192,28160,1,0,0:0:0:0:
109,192,28280,1,0,0:0:0:0:
36,192,28280,128,0,28400:0:0:0:0:
329,192,28400,128,0,28520:0:0:0:0:
402,192,28400,1,0,0:0:0:0:
256,192,28520,128,0,28760:0:0:0:0:
36,192,28520,1,0,0:0:0:0:
329,192,28640,1,0,0:0:0:0:
182,192,28760,128,0,29000:0:0:0:0:
36,192,28760,1,0,0:0:0:0:
329,192,28880,1,0,0:0:0:0:
36,192,29000,128,0,29240:0:0:0:0:
256,192,29000,1,0,0:0:0:0:
402,192,29120,1,0,0:0:0:0:
475,192,29240,1,0,0:0:0:0:
109,192,29240,128,0,29360:0:0:0:0:
402,192,29360,1,0,0:0:0:0:
36,192,29360,128,0,29480:0:0:0:0:
256,192,29480,1,0,0:0:0:0:
109,192,29480,128,0,29720:0:0:0:0:
402,192,29600,1,0,0:0:0:0:
256,192,29720,1,0,0:0:0:0:
36,192,29720,128,0,29840:0:0:0:0:
329,192,29840,1,0,0:0:0:0:
182,192,29840,128,0,29960:0:0:0:0:
109,192,29960,1,0,0:0:0:0:
256,192,29960,128,0,30200:0:0:0:0:
329,192,30080,1,0,0:0:0:0:
36,192,30200,128,0,30320:0:0:0:0:
109,192,30200,1,0,0:0:0:0:
402,192,30320,1,0,0:0:0:0:
329,192,30320,128,0,30440:0:0:0:0:
36,192,30440,1,0,0:0:0:0:
256,192,30440,128,0,30680:0:0:0:0:
329,192,30560,1,0,0:0:0:0:
36,192,30680,1,0,0:0:0:0:
182,192,30680,128,0,30920:0:0:0:0:
329,192,30800,1,0,0:0:0:0:
36,192,30920,128,0,31160:0:0:0:0:
256,192,30920,1,0,0:0:0:0:
402,192,31040,1,0,0:0:0:0:
109,192,31160,128,0,31280:0:0:0:0:
475,192,31160,1,0,0:0:0:0:
36,192,31280,128,0,31400:0:0:0:0:
402,192,31280,1,0,0:0:0:0:
109,192,31400,128,0,31640:0:0:0:0:
256,192,31400,1,0,0:0:0:0:
402,192,31520,1,0,0:0:0:0:
36,192,31640,128,0,31760:0:0:0:0:
256,192,31640,1,0,0:0:0:0:
182,192,31760,128,0,31880:0:0:0:0:
329,192,31760,1,0,0:0:0:0:
256,192,31880,128,0,32120:0:0:0:0:
109,192,31880,1,0,0:0:0:0:
329,192,32000,1,0,0:0:0:0:
109,192,32120,1,0,0:0:0:0:
36,192,32120,128,0,32240:0:0:0:0:
329,192,32240,128,0,32360:0:0:0:0:
402,192,32240,1,0,0:0:0:0:
256,192,32360,128,0,32600:0:0:0:0:
36,192,32360,1,0,0:0:0:0:
329,192,32480,1,0,0:0:0:0:
182,192,32600,128,0,32840:0:0:0:0:
36,192,32600,1,0,0:0:0:0:
329,192,32720,1,0,0:0:0:0:
36,192,32840,128,0,33080:0:0:0:0:
256,192,32840,1,0,0:0:0:0:
402,192,32960,1,0,0:0:0:0:
475,192,33080,1,0,0:0:0:0:
109,192,33080,128,0,33200:0:0:0:0:
402,192,33200,1,0,0:0:0:0:
36,192,33200,128,0,33320:0:0:0:0:
256,192,33320,1,0,0:0:0:0:
109,192,33320,128,0,33560:0:0:0:0:
402,192,33440,1,0,0:0:0:0:
256,192,33560,1,0,0:0:0:0:
36,192,33560,128,0,33680:0:0:0:0:
329,192,33680,1,0,0:0:0:0:
182,192,33680,128,0,33800:0:0:0:0:
109,192,33800,1,0,0:0:0:0:
256,192,33800,128,0,34040:0:0:0:0:
329,192,33920,1,0,0:0:0:0:
36,192,34040,128,0,34160:0:0:0:0:
109,192,34040,1,0,0:0:0:0:
402,192,34160,1,0,0:0:0:0:
329,192,34160,128,0,34280:0:0:0:0:
36,192,34280,1,0,0:0:0:0:
256,192,34280,128,0,34520:0:0:0:0:
329,192,34400,1,0,0:0:0:0:
36,192,34520,1,0,0:0:0:0:
182,192,34520,128,0,34760:0:0:0:0:
329,192,34640,1,0,0:0:0:0:
36,192,34760,128,0,35000:0:0:0:0:
256,192,34760,1,0,0:0:0:0:
402,192,34880,1,0,0:0:0:0:
109,192,35000,128,0,35120:0:0:0:0:
475,192,35000,1,0,0:0:0:0:
36,192,35120,128,0,35240:0:0:0:0:
402,192,35120,1,0,0:0:0:0:
109,192,35240,128,0,35480:0:0:0:0:
256,192,35240,1,0,0:0:0:0:
402,192,35360,1,0,0:0:0:0:
36,192,35480,128,0,35600:0:0:0:0:
256,192,35480,1,0,0:0:0:0:
182,192,35600,128,0,35720:0:0:0:0:
329,192,35600,1,0,0:0:0:0:
256,192,35720,128,0,35960:0:0:0:0:
109,192,35720,1,0,0:0:0:0:
329,192,35840,1,0,0:0:0:0:
109,192,35960,1,0,0:0:0:0:
36,192,35960,128,0,36080:0:0:0:0:
329,192,36080,128,0,36200:0:0:0:0:
402,192,36080,1,0,0:0:0:0:
256,192,36200,128,0,36440:0:0:0:0:
36,192,36200,1,0,0:0:0:0:
329,192,36320,1,0,0:0:0:0:
182,192,36440,128,0,36680:0:0:0:0:
36,192,36440,1,0,0:0:0:0:
329,192,36560,1,0,0:0:0:0:
36,192,36680,128,0,37640:0:0:0:0:
109,192,36680,1,0,0:0:0:0:
182,192,36800,1,0,0:0:0:0:
256,192,36920,1,0,0:0:0:0:
402,192,36920,1,0,0:0:0:0:
475,192,36920,1,0,0:0:0:0:
182,192,37040,1,0,0:0:0:0:
109,192,37160,1,0,0:0:0:0:
182,192,37280,1,0,0:0:0:0:
109,192,37400,1,0,0:0:0:0:
475,192,37400,1,0,0:0:0:0:
182,192,37520,1,0,0:0:0:0:
182,192,37640,128,0,38600:0:0:0:0:
256,192,37640,1,0,0:0:0:0:
475,192,37640,1,0,0:0:0:0:
109,192,37760,1,0,0:0:0:0:
36,192,37880,1,0,0:0:0:0:
402,192,37880,1,0,0:0:0:0:
475,192,37880,1,0,0:0:0:0:
109,192,38000,1,0,0:0:0:0:
256,192,38120,1,0,0:0:0:0:
109,192,38240,1,0,0:0:0:0:
36,192,38360,1,0,0:0:0:0:
475,192,38360,1,0,0:0:0:0:
109,192,38480,1,0,0:0:0:0:
329,192,38600,128,0,39440:0:0:0:0:
256,192,38600,1,0,0:0:0:0:
402,192,38720,1,0,0:0:0:0:
475,192,38720,1,0,0:0:0:0:
109,192,38720,1,0,0:0:0:0:
402,192,38840,1,0,0:0:0:0:
475,192,38840,1,0,0:0:0:0:
36,192,38840,1,0,0:0:0:0:
109,192,38960,1,0,0:0:0:0:
36,192,39080,1,0,0:0:0:0:
402,192,39080,1,0,0:0:0:0:
475,192,39080,1,0,0:0:0:0:
109,192,39200,1,0,0:0:0:0:
36,192,39320,1,0,0:0:0:0:
402,192,39320,1,0,0:0:0:0:
475,192,39320,1,0,0:0:0:0:
109,192,39440,1,0,0:0:0:0:
475,192,39560,1,0,0:0:0:0:
402,192,39620,1,0,0:0:0:0:
475,192,39680,1,0,0:0:0:0:
475,192,39800,1,0,0:0:0:0:
329,192,39800,1,0,0:0:0:0:
402,192,39920,1,0,0:0:0:0:
256,192,39920,1,0,0:0:0:0:
182,192,40040,1,0,0:0:0:0:
329,192,40040,1,0,0:0:0:0:
256,192,40160,1,0,0:0:0:0:
109,192,40160,1,0,0:0:0:0:
182,192,40280,1,0,0:0:0:0:
329,192,40280,1,0,0:0:0:0:
256,192,40400,1,0,0:0:0:0:
109,192,40400,1,0,0:0:0:0:
36,192,40520,128,0,41480:0:0:0:0:
182,192,40520,128,0,41480:0:0:0:0:
475,192,40520,1,0,0:0:0:0:
329,192,40640,1,0,0:0:0:0:
475,192,40760,1,0,0:0:0:0:
256,192,40880,1,0,0:0:0:0:
402,192,41000,1,0,0:0:0:0:
256,192,41120,1,0,0:0:0:0:
402,192,41240,1,0,0:0:0:0:
109,192,41360,1,0,0:0:0:0:
402,192,41480,1,0,0:0:0:0:
109,192,41480,128,0,41720:0:0:0:0:
256,192,41480,128,0,41720:0:0:0:0:
329,192,41600,1,0,0:0:0:0:
402,192,41720,1,0,0:0:0:0:
182,192,41720,128,0,41840:0:0:0:0:
36,192,41840,128,0,42080:0:0:0:0:
475,192,41840,128,0,42080:0:0:0:0:
256,192,41840,1,0,0:0:0:0:
109,192,41960,1,0,0:0:0:0:
182,192,42080,128,0,42200:0:0:0:0:
256,192,42080,1,0,0:0:0:0:
402,192,42200,1,0,0:0:0:0:
109,192,42200,128,0,42440:0:0:0:0:
475,192,42200,128,0,42440:0:0:0:0:
329,192,42320,1,0,0:0:0:0:
256,192,42440,1,0,0:0:0:0:
36,192,42440,128,0,43400:0:0:0:0:
402,192,42440,128,0,43400:0:0:0:0:
109,192,42560,1,0,0:0:0:0:
256,192,42680,1,0,0:0:0:0:
109,192,42800,1,0,0:0:0:0:
256,192,42920,1,0,0:0:0:0:
475,192,43040,1,0,0:0:0:0:
329,192,43160,1,0,0:0:0:0:
256,192,43280,1,0,0:0:0:0:
329,192,43400,1,0,0:0:0:0:
109,192,43400,128,0,43640:0:0:0:0:
182,192,43400,128,0,43640:0:0:0:0:
256,192,43520,1,0,0:0:0:0:
402,192,43640,1,0,0:0:0:0:
36,192,43640,128,0,43760:0:0:0:0:
329,192,43760,1,0,0:0:0:0:
256,192,43760,128,0,44000:0:0:0:0:
109,192,43760,128,0,44000:0:0:0:0:
475,192,43880,1,0,0:0:0:0:
402,192,44000,1,0,0:0:0:0:
182,192,44000,128,0,44120:0:0:0:0:
256,192,44120,1,0,0:0:0:0:
329,192,44120,128,0,44240:0:0:0:0:
109,192,44240,1,0,0:0:0:0:
402,192,44240,128,0,44360:0:0:0:0:
182,192,44360,1,0,0:0:0:0:
256,192,44360,128,0,45320:0:0:0:0:
475,192,44360,128,0,45320:0:0:0:0:
36,192,44480,1,0,0:0:0:0:
329,192,44600,1,0,0:0:0:0:
182,192,44720,1,0,0:0:0:0:
329,192,44840,1,0,0:0:0:0:
182,192,44960,1,0,0:0:0:0:
329,192,45080,1,0,0:0:0:0:
109,192,45200,1,0,0:0:0:0:
109,192,45320,128,0,45560:0:0:0:0:
402,192,45320,128,0,45560:0:0:0:0:
182,192,45320,1,0,0:0:0:0:
256,192,45440,1,0,0:0:0:0:
182,192,45560,1,0,0:0:0:0:
329,192,45560,128,0,45680:0:0:0:0:
256,192,45680,1,0,0:0:0:0:
402,192,45680,128,0,45920:0:0:0:0:
475,192,45680,128,0,45920:0:0:0:0:
182,192,45800,1,0,0:0:0:0:
109,192,45920,1,0,0:0:0:0:
329,192,45920,128,0,46040:0:0:0:0:
182,192,46040,1,0,0:0:0:0:
256,192,46040,128,0,46280:0:0:0:0:
402,192,46040,128,0,46280:0:0:0:0:
109,192,46160,1,0,0:0:0:0:
36,192,46280,128,0,46760:0:0:0:0:
329,192,46280,128,0,46760:0:0:0:0:
109,192,46280,1,0,0:0:0:0:
256,192,46400,1,0,0:0:0:0:
402,192,46520,1,0,0:0:0:0:
256,192,46640,1,0,0:0:0:0:
182,192,46760,1,0,0:0:0:0:
109,192,46760,128,0,47240:0:0:0:0:
402,192,46760,128,0,47240:0:0:0:0:
256,192,46880,1,0,0:0:0:0:
329,192,47000,1,0,0:0:0:0:
256,192,47120,1,0,0:0:0:0:
36,192,47240,128,0,47720:0:0:0:0:
475,192,47240,128,0,47720:0:0:0:0:
182,192,47240,1,0,0:0:0:0:
329,192,47360,1,0,0:0:0:0:
256,192,47480,1,0,0:0:0:0:
329,192,47600,1,0,0:0:0:0:
256,192,47720,1,0,0:0:0:0:
182,192,47720,128,0,48200:0:0:0:0:
402,192,47720,128,0,48200:0:0:0:0:
475,192,47840,1,0,0:0:0:0:
256,192,47960,1,0,0:0:0:0:
329,192,48080,1,0,0:0:0:0:
36,192,48200,128,0,49160:0:0:0:0:
475,192,48200,128,0,49160:0:0:0:0:
109,192,48200,1,0,0:0:0:0:
256,192,48320,1,0,0:0:0:0:
182,192,48440,1,0,0:0:0:0:
256,192,48560,1,0,0:0:0:0:
329,192,48680,1,0,0:0:0:0:
402,192,48740,1,0,0:0:0:0:
329,192,48800,1,0,0:0:0:0:
109,192,48920,1,0,0:0:0:0:
182,192,49040,1,0,0:0:0:0:
109,192,49160,1,0,0:0:0:0:
256,192,49160,128,0,49400:0:0:0:0:
402,192,49160,128,0,49400:0:0:0:0:
36,192,49280,1,0,0:0:0:0:
475,192,49400,128,0,49520:0:0:0:0:
182,192,49400,1,0,0:0:0:0:
256,192,49520,1,0,0:0:0:0:
402,192,49520,128,0,49760:0:0:0:0:
329,192,49520,128,0,49760:0:0:0:0:
182,192,49640,1,0,0:0:0:0:
256,192,49760,128,0,49880:0:0:0:0:
109,192,49760,1,0,0:0:0:0:
182,192,49880,128,0,50120:0:0:0:0:
402,192,49880,128,0,50120:0:0:0:0:
36,192,49880,1,0,0:0:0:0:
256,192,50000,1,0,0:0:0:0:
329,192,50120,1,0,0:0:0:0:
36,192,50120,128,0,51080:0:0:0:0:
256,192,50120,128,0,51080:0:0:0:0:
182,192,50240,1,0,0:0:0:0:
329,192,50360,1,0,0:0:0:0:
182,192,50480,1,0,0:0:0:0:
475,192,50600,1,0,0:0:0:0:
329,192,50720,1,0,0:0:0:0:
475,192,50840,1,0,0:0:0:0:
329,192,50960,1,0,0:0:0:0:
109,192,51080,128,0,51320:0:0:0:0:
329,192,51080,128,0,51320:0:0:0:0:
475,192,51080,1,0,0:0:0:0:
182,192,51200,1,0,0:0:0:0:
256,192,51320,128,0,51440:0:0:0:0:
402,192,51320,1,0,0:0:0:0:
182,192,51440,1,0,0:0:0:0:
402,192,51440,128,0,51680:0:0:0:0:
109,192,51440,128,0,51680:0:0:0:0:
329,192,51560,1,0,0:0:0:0:
475,192,51680,128,0,51800:0:0:0:0:
256,192,51680,1,0,0:0:0:0:
256,192,51800,128,0,52040:0:0:0:0:
402,192,51800,128,0,52040:0:0:0:0:
109,192,51800,1,0,0:0:0:0:
182,192,51920,1,0,0:0:0:0:
109,192,52040,1,0,0:0:0:0:
36,192,52040,128,0,53000:0:0:0:0:
329,192,52040,128,0,53000:0:0:0:0:
182,192,52160,1,0,0:0:0:0:
256,192,52280,1,0,0:0:0:0:
182,192,52400,1,0,0:0:0:0:
256,192,52520,1,0,0:0:0:0:
475,192,52640,1,0,0:0:0:0:
402,192,52760,1,0,0:0:0:0:
256,192,52880,1,0,0:0:0:0:
182,192,53000,1,0,0:0:0:0:
256,192,53000,128,0,53960:0:0:0:0:
402,192,53000,128,0,53960:0:0:0:0:
109,192,53120,1,0,0:0:0:0:
36,192,53240,1,0,0:0:0:0:
182,192,53360,1,0,0:0:0:0:
329,192,53480,1,0,0:0:0:0:
182,192,53600,1,0,0:0:0:0:
36,192,53720,1,0,0:0:0:0:
182,192,53840,1,0,0:0:0:0:
329,192,53960,1,0,0:0:0:0:
36,192,53960,128,0,54680:0:0:0:0:
475,192,53960,128,0,54680:0:0:0:0:
109,192,54080,1,0,0:0:0:0:
256,192,54200,1,0,0:0:0:0:
402,192,54260,1,0,0:0:0:0:
256,192,54320,1,0,0:0:0:0:
329,192,54440,1,0,0:0:0:0:
256,192,54560,1,0,0:0:0:0:
182,192,54680,1,0,0:0:0:0:
329,192,54680,128,0,54800:0:0:0:0:
109,192,54800,1,0,0:0:0:0:
475,192,54800,128,0,54920:0:0:0:0:
402,192,54920,128,0,55160:0:0:0:0:
329,192,54920,128,0,55160:0:0:0:0:
256,192,54920,1,0,0:0:0:0:
182,192,54980,1,0,0:0:0:0:
256,192,55040,1,0,0:0:0:0:
182,192,55160,1,0,0:0:0:0:
109,192,55160,128,0,55280:0:0:0:0:
256,192,55280,1,0,0:0:0:0:
329,192,55280,128,0,55520:0:0:0:0:
36,192,55280,128,0,55520:0:0:0:0:
182,192,55400,1,0,0:0:0:0:
109,192,55520,1,0,0:0:0:0:
256,192,55520,128,0,55640:0:0:0:0:
109,192,55640,128,0,55880:0:0:0:0:
182,192,55640,128,0,55880:0:0:0:0:
329,192,55640,1,0,0:0:0:0:
256,192,55760,1,0,0:0:0:0:
329,192,55880,1,0,0:0:0:0:
36,192,55880,128,0,56840:0:0:0:0:
402,192,55880,128,0,56840:0:0:0:0:
182,192,56000,1,0,0:0:0:0:
256,192,56120,1,0,0:0:0:0:
109,192,56240,1,0,0:0:0:0:
256,192,56360,1,0,0:0:0:0:
182,192,56480,1,0,0:0:0:0:
329,192,56600,1,0,0:0:0:0:
182,192,56720,1,0,0:0:0:0:
256,192,56840,128,0,56960:0:0:0:0:
329,192,56840,1,0,0:0:0:0:
329,192,56960,128,0,57080:0:0:0:0:
182,192,56960,1,0,0:0:0:0:
182,192,57080,128,0,57200:0:0:0:0:
402,192,57080,1,0,0:0:0:0:
36,192,57200,128,0,57320:0:0:0:0:
109,192,57200,1,0,0:0:0:0:
329,192,57320,1,0,0:0:0:0:
402,192,57320,128,0,57440:0:0:0:0:
256,192,57440,128,0,57560:0:0:0:0:
182,192,57440,1,0,0:0:0:0:
329,192,57560,1,0,0:0:0:0:
109,192,57560,128,0,57680:0:0:0:0:
256,192,57680,1,0,0:0:0:0:
182,192,57680,128,0,57800:0:0:0:0:
329,192,57800,1,0,0:0:0:0:
36,192,57800,128,0,58760:0:0:0:0:
256,192,57800,128,0,58760:0:0:0:0:
109,192,57920,1,0,0:0:0:0:
475,192,58040,1,0,0:0:0:0:
402,192,58160,1,0,0:0:0:0:
109,192,58280,1,0,0:0:0:0:
402,192,58400,1,0,0:0:0:0:
475,192,58520,1,0,0:0:0:0:
109,192,58640,1,0,0:0:0:0:
329,192,58760,1,0,0:0:0:0:
182,192,58760,128,0,58880:0:0:0:0:
36,192,58880,1,0,0:0:0:0:
109,192,58880,128,0,59000:0:0:0:0:
329,192,59000,128,0,59120:0:0:0:0:
402,192,59000,1,0,0:0:0:0:
256,192,59120,1,0,0:0:0:0:
182,192,59120,128,0,59240:0:0:0:0:
402,192,59240,1,0,0:0:0:0:
329,192,59240,128,0,59360:0:0:0:0:
256,192,59360,1,0,0:0:0:0:
182,192,59360,128,0,59480:0:0:0:0:
329,192,59480,128,0,59600:0:0:0:0:
109,192,59480,1,0,0:0:0:0:
256,192,59600,1,0,0:0:0:0:
36,192,59720,128,0,60680:0:0:0:0:
402,192,59720,128,0,60680:0:0:0:0:
329,192,59720,1,0,0:0:0:0:
109,192,59840,1,0,0:0:0:0:
475,192,59960,1,0,0:0:0:0:
329,192,60080,1,0,0:0:0:0:
109,192,60200,1,0,0:0:0:0:
329,192,60320,1,0,0:0:0:0:
256,192,60440,1,0,0:0:0:0:
109,192,60560,1,0,0:0:0:0:
329,192,60680,1,0,0:0:0:0:
256,192,60680,128,0,60800:0:0:0:0:
36,192,60800,1,0,0:0:0:0:
109,192,60800,128,0,60920:0:0:0:0:
329,192,60920,128,0,61040:0:0:0:0:
475,192,60920,1,0,0:0:0:0:
256,192,61040,1,0,0:0:0:0:
182,192,61040,128,0,61160:0:0:0:0:
402,192,61160,1,0,0:0:0:0:
329,192,61160,128,0,61280:0:0:0:0:
256,192,61280,1,0,0:0:0:0:
182,192,61280,128,0,61400:0:0:0:0:
329,192,61400,128,0,61520:0:0:0:0:
475,192,61400,1,0,0:0:0:0:
256,192,61520,1,0,0:0:0:0:
329,192,61640,1,0,0:0:0:0:
182,192,61640,128,0,62600:0:0:0:0:
402,192,61640,128,0,62600:0:0:0:0:
109,192,61760,1,0,0:0:0:0:
475,192,61880,1,0,0:0:0:0:
329,192,62000,1,0,0:0:0:0:
109,192,62120,1,0,0:0:0:0:
329,192,62240,1,0,0:0:0:0:
475,192,62360,1,0,0:0:0:0:
109,192,62480,1,0,0:0:0:0:
329,192,62600,1,0,0:0:0:0:
256,192,62600,128,0,62720:0:0:0:0:
36,192,62720,1,0,0:0:0:0:
109,192,62720,128,0,62840:0:0:0:0:
329,192,62840,128,0,62960:0:0:0:0:
402,192,62840,1,0,0:0:0:0:
256,192,62960,1,0,0:0:0:0:
182,192,62960,128,0,63080:0:0:0:0:
402,192,63080,1,0,0:0:0:0:
329,192,63080,128,0,63200:0:0:0:0:
256,192,63200,1,0,0:0:0:0:
182,192,63200,128,0,63320:0:0:0:0:
329,192,63320,128,0,63440:0:0:0:0:
109,192,63320,1,0,0:0:0:0:
402,192,63320,1,0,0:0:0:0:
256,192,63440,1,0,0:0:0:0:
329,192,63560,1,0,0:0:0:0:
256,192,63560,128,0,64520:0:0:0:0:
402,192,63560,128,0,64520:0:0:0:0:
475,192,63680,1,0,0:0:0:0:
109,192,63800,1,0,0:0:0:0:
182,192,63920,1,0,0:0:0:0:
109,192,64040,1,0,0:0:0:0:
182,192,64160,1,0,0:0:0:0:
329,192,64280,1,0,0:0:0:0:
475,192,64400,1,0,0:0:0:0:
182,192,64520,1,0,0:0:0:0:
329,192,64520,128,0,65480:0:0:0:0:
475,192,64520,128,0,65480:0:0:0:0:
109,192,64640,1,0,0:0:0:0:
182,192,64760,1,0,0:0:0:0:
256,192,64880,1,0,0:0:0:0:
402,192,65000,1,0,0:0:0:0:
256,192,65120,1,0,0:0:0:0:
109,192,65240,1,0,0:0:0:0:
36,192,65360,1,0,0:0:0:0:
182,192,65480,1,0,0:0:0:0:
109,192,65480,1,0,0:0:0:0:
256,192,65480,128,0,66440:0:0:0:0:
402,192,65480,1,0,0:0:0:0:
109,192,65600,1,0,0:0:0:0:
329,192,65720,1,0,0:0:0:0:
182,192,65720,1,0,0:0:0:0:
36,192,65720,1,0,0:0:0:0:
402,192,65840,1,0,0:0:0:0:
109,192,65960,1,0,0:0:0:0:
402,192,66080,1,0,0:0:0:0:
329,192,66200,1,0,0:0:0:0:
36,192,66200,1,0,0:0:0:0:
182,192,66200,1,0,0:0:0:0:
182,192,66320,1,0,0:0:0:0:
109,192,66440,1,0,0:0:0:0:
182,192,66440,128,0,67400:0:0:0:0:
329,192,66560,1,0,0:0:0:0:
256,192,66680,1,0,0:0:0:0:
475,192,66680,1,0,0:0:0:0:
109,192,66680,1,0,0:0:0:0:
256,192,66800,1,0,0:0:0:0:
329,192,66920,1,0,0:0:0:0:
256,192,67040,1,0,0:0:0:0:
109,192,67160,1,0,0:0:0:0:
256,192,67160,1,0,0:0:0:0:
402,192,67160,1,0,0:0:0:0:
329,192,67280,1,0,0:0:0:0:
402,192,67400,1,0,0:0:0:0:
329,192,67400,128,0,68360:0:0:0:0:
109,192,67520,1,0,0:0:0:0:
182,192,67640,1,0,0:0:0:0:
36,192,67640,1,0,0:0:0:0:
402,192,67640,1,0,0:0:0:0:
256,192,67760,1,0,0:0:0:0:
182,192,67880,1,0,0:0:0:0:
256,192,68000,1,0,0:0:0:0:
109,192,68120,1,0,0:0:0:0:
402,192,68120,1,0,0:0:0:0:
182,192,68120,1,0,0:0:0:0:
109,192,68240,1,0,0:0:0:0:
36,192,68360,1,0,0:0:0:0:
182,192,68360,128,0,69320:0:0:0:0:
329,192,68480,1,0,0:0:0:0:
256,192,68600,1,0,0:0:0:0:
402,192,68600,1,0,0:0:0:0:
109,192,68600,1,0,0:0:0:0:
36,192,68720,1,0,0:0:0:0:
402,192,68840,1,0,0:0:0:0:
475,192,68960,1,0,0:0:0:0:
402,192,69080,1,0,0:0:0:0:
256,192,69080,1,0,0:0:0:0:
329,192,69080,1,0,0:0:0:0:
475,192,69200,1,0,0:0:0:0:
256,192,69320,128,0,70280:0:0:0:0:
402,192,69320,1,0,0:0:0:0:
182,192,69440,1,0,0:0:0:0:
329,192,69560,1,0,0:0:0:0:
402,192,69560,1,0,0:0:0:0:
109,192,69560,1,0,0:0:0:0:
475,192,69680,1,0,0:0:0:0:
109,192,69800,1,0,0:0:0:0:
402,192,69920,1,0,0:0:0:0:
475,192,70040,1,0,0:0:0:0:
329,192,70040,1,0,0:0:0:0:
402,192,70040,1,0,0:0:0:0:
182,192,70160,1,0,0:0:0:0:
109,192,70280,1,0,0:0:0:0:
182,192,70280,128,0,71240:0:0:0:0:
329,192,70400,1,0,0:0:0:0:
256,192,70520,1,0,0:0:0:0:
475,192,70520,1,0,0:0:0:0:
109,192,70520,1,0,0:0:0:0:
109,192,70640,1,0,0:0:0:0:
329,192,70760,1,0,0:0:0:0:
109,192,70880,1,0,0:0:0:0:
256,192,71000,1,0,0:0:0:0:
402,192,71000,1,0,0:0:0:0:
475,192,71000,1,0,0:0:0:0:
36,192,71240,128,0,71480:0:0:0:0:
402,192,71240,1,0,0:0:0:0:
475,192,71240,1,0,0:0:0:0:
475,192,71360,1,0,0:0:0:0:
402,192,71360,1,0,0:0:0:0:
182,192,71480,128,0,71600:0:0:0:0:
329,192,71480,1,0,0:0:0:0:
109,192,71600,128,0,71720:0:0:0:0:
402,192,71600,1,0,0:0:0:0:
329,192,71720,1,0,0:0:0:0:
182,192,71720,128,0,71840:0:0:0:0:
109,192,71840,128,0,71960:0:0:0:0:
402,192,71840,1,0,0:0:0:0:
329,192,71960,1,0,0:0:0:0:
182,192,71960,128,0,72080:0:0:0:0:
109,192,72080,128,0,72200:0:0:0:0:
402,192,72080,1,0,0:0:0:0:
256,192,72200,1,0,0:0:0:0:
329,192,72200,128,0,72320:0:0:0:0:
402,192,72320,1,0,0:0:0:0:
475,192,72320,128,0,72440:0:0:0:0:
182,192,72440,1,0,0:0:0:0:
36,192,72440,128,0,72560:0:0:0:0:
329,192,72560,1,0,0:0:0:0:
256,192,72560,128,0,72680:0:0:0:0:
475,192,72680,1,0,0:0:0:0:
109,192,72680,128,0,72800:0:0:0:0:
329,192,72800,1,0,0:0:0:0:
256,192,72800,128,0,72920:0:0:0:0:
402,192,72920,1,0,0:0:0:0:
329,192,72920,128,0,73040:0:0:0:0:
256,192,73040,1,0,0:0:0:0:
402,192,73040,128,0,73160:0:0:0:0:
109,192,73160,1,0,0:0:0:0:
36,192,73160,128,0,74120:0:0:0:0:
475,192,73160,128,0,74120:0:0:0:0:
256,192,73280,1,0,0:0:0:0:
182,192,73400,1,0,0:0:0:0:
402,192,73520,1,0,0:0:0:0:
182,192,73640,1,0,0:0:0:0:
256,192,73760,1,0,0:0:0:0:
402,192,73880,1,0,0:0:0:0:
329,192,74000,1,0,0:0:0:0:
256,192,74120,128,0,74840:0:0:0:0:
109,192,74120,128,0,74840:0:0:0:0:
182,192,74120,1,0,0:0:0:0:
402,192,74120,1,0,0:0:0:0:
182,192,74240,1,0,0:0:0:0:
329,192,74240,1,0,0:0:0:0:
182,192,74360,1,0,0:0:0:0:
329,192,74360,1,0,0:0:0:0:
182,192,74480,1,0,0:0:0:0:
402,192,74480,1,0,0:0:0:0:
182,192,74600,1,0,0:0:0:0:
329,192,74600,1,0,0:0:0:0:
182,192,74720,1,0,0:0:0:0:
329,192,74720,1,0,0:0:0:0:
36,192,74840,1,0,0:0:0:0:
182,192,74840,1,0,0:0:0:0:
36,192,74960,1,0,0:0:0:0:
109,192,74990,1,0,0:0:0:0:
182,192,75020,1,0,0:0:0:0:
256,192,75050,1,0,0:0:0:0:
182,192,75080,1,0,0:0:0:0:
109,192,75110,1,0,0:0:0:0:
36,192,75140,1,0,0:0:0:0:
109,192,75170,1,0,0:0:0:0:
182,192,75200,1,0,0:0:0:0:
256,192,75230,1,0,0:0:0:0:
329,192,75260,1,0,0:0:0:0:
402,192,75290,1,0,0:0:0:0:
475,192,75320,128,0,75800:0:0:0:0:
256,192,75800,128,0,75920:0:0:0:0:
109,192,75800,128,0,75920:0:0:0:0:
182,192,75920,128,0,76040:0:0:0:0:
36,192,75920,128,0,76040:0:0:0:0:
475,192,76040,128,0,76160:0:0:0:0:
109,192,76040,128,0,76160:0:0:0:0:
402,192,76160,128,0,76280:0:0:0:0:
36,192,76160,128,0,76280:0:0:0:0:
329,192,76280,128,0,76400:0:0:0:0:
475,192,76280,128,0,76400:0:0:0:0:
256,192,76400,128,0,76520:0:0:0:0:
402,192,76400,128,0,76520:0:0:0:0:
182,192,76520,128,0,76580:0:0:0:0:
256,192,76580,128,0,76640:0:0:0:0:
182,192,76640,128,0,76760:0:0:0:0:
109,192,76760,128,0,76880:0:0:0:0:
256,192,76760,128,0,76880:0:0:0:0:
36,192,76880,128,0,77000:0:0:0:0:
182,192,76880,128,0,77000:0:0:0:0:
256,192,77000,128,0,77120:0:0:0:0:
109,192,77000,128,0,77120:0:0:0:0:
402,192,77120,128,0,77180:0:0:0:0:
329,192,77180,128,0,77240:0:0:0:0:
256,192,77240,128,0,77300:0:0:0:0:
329,192,77300,128,0,77360:0:0:0:0:
402,192,77360,128,0,77420:0:0:0:0:
182,192,77420,128,0,77480:0:0:0:0:
256,192,77480,128,0,77540:0:0:0:0:
329,192,77540,128,0,77600:0:0:0:0:
256,192,77600,128,0,77660:0:0:0:0:
182,192,77660,128,0,77720:0:0:0:0:
109,192,77720,128,0,77840:0:0:0:0:
36,192,77840,128,0,77960:0:0:0:0:
182,192,77840,128,0,77960:0:0:0:0:
402,192,77960,128,0,78020:0:0:0:0:
329,192,78020,128,0,78080:0:0:0:0:
256,192,78080,128,0,78140:0:0:0:0:
182,192,78140,128,0,78200:0:0:0:0:
402,192,78200,128,0,78260:0:0:0:0:
475,192,78260,128,0,78320:0:0:0:0:
402,192,78320,128,0,78440:0:0:0:0:
329,192,78440,128,0,78500:0:0:0:0:
256,192,78500,128,0,78560:0:0:0:0:
182,192,78560,128,0,78620:0:0:0:0:
109,192,78620,128,0,78680:0:0:0:0:
329,192,78680,128,0,78740:0:0:0:0:
402,192,78740,128,0,78800:0:0:0:0:
475,192,78800,128,0,78860:0:0:0:0:
402,192,78860,128,0,78980:0:0:0:0:
475,192,78980,128,0,79040:0:0:0:0:
402,192,79040,128,0,79100:0:0:0:0:
182,192,79100,128,0,79160:0:0:0:0:
256,192,79160,128,0,79220:0:0:0:0:
329,192,79220,128,0,79280:0:0:0:0:
402,192,79280,128,0,79340:0:0:0:0:
329,192,79340,128,0,79400:0:0:0:0:
402,192,79400,128,0,79520:0:0:0:0:
329,192,79520,128,0,79640:0:0:0:0:
475,192,79520,128,0,79640:0:0:0:0:
256,192,79640,128,0,79760:0:0:0:0:
109,192,79640,128,0,79760:0:0:0:0:
182,192,79760,128,0,79880:0:0:0:0:
329,192,79760,128,0,79880:0:0:0:0:
475,192,79880,128,0,79940:0:0:0:0:
329,192,79940,128,0,80000:0:0:0:0:
475,192,80000,128,0,80120:0:0:0:0:
109,192,80120,128,0,80240:0:0:0:0:
329,192,80120,128,0,80240:0:0:0:0:
475,192,80240,128,0,80300:0:0:0:0:
329,192,80300,128,0,80360:0:0:0:0:
475,192,80360,128,0,80480:0:0:0:0:
109,192,80480,128,0,80600:0:0:0:0:
402,192,80480,128,0,80600:0:0:0:0:
329,192,80600,128,0,80660:0:0:0:0:
402,192,80660,128,0,80720:0:0:0:0:
475,192,80720,128,0,80780:0:0:0:0:
329,192,80780,128,0,80840:0:0:0:0:
402,192,80840,128,0,80900:0:0:0:0:
329,192,80900,128,0,80960:0:0:0:0:
182,192,80960,128,0,81020:0:0:0:0:
109,192,81020,128,0,81080:0:0:0:0:
256,192,81080,128,0,81200:0:0:0:0:
329,192,81200,128,0,81260:0:0:0:0:
402,192,81260,128,0,81320:0:0:0:0:
329,192,81320,128,0,81440:0:0:0:0:
182,192,81440,128,0,81500:0:0:0:0:
109,192,81500,128,0,81560:0:0:0:0:
182,192,81560,128,0,81620:0:0:0:0:
256,192,81620,128,0,81680:0:0:0:0:
182,192,81680,128,0,81740:0:0:0:0:
109,192,81740,128,0,81800:0:0:0:0:
182,192,81800,128,0,81920:0:0:0:0:
109,192,81920,128,0,82160:0:0:0:0:
256,192,81920,128,0,82160:0:0:0:0:
182,192,82160,128,0,82220:0:0:0:0:
329,192,82160,128,0,82220:0:0:0:0:
109,192,82220,128,0,82520:0:0:0:0:
402,192,82220,128,0,82520:0:0:0:0:
182,192,82520,128,0,82580:0:0:0:0:
256,192,82520,128,0,82580:0:0:0:0:
329,192,82580,128,0,82760:0:0:0:0:
402,192,82580,128,0,82760:0:0:0:0:
475,192,82760,128,0,83480:0:0:0:0:
256,192,82760,128,0,83480:0:0:0:0:
109,192,82760,128,0,83480:0:0:0:0:
402,192,83480,128,0,83540:0:0:0:0:
329,192,83540,128,0,83600:0:0:0:0:
256,192,83600,128,0,83660:0:0:0:0:
329,192,83660,128,0,83720:0:0:0:0:
402,192,83720,128,0,83840:0:0:0:0:
329,192,83840,128,0,83960:0:0:0:0:
256,192,83840,128,0,83960:0:0:0:0:
182,192,83960,128,0,84080:0:0:0:0:
402,192,83960,128,0,84080:0:0:0:0:
329,192,84080,128,0,84200:0:0:0:0:
475,192,84080,128,0,84200:0:0:0:0:
182,192,84200,128,0,84320:0:0:0:0:
109,192,84200,128,0,84320:0:0:0:0:
402,192,84320,128,0,84380:0:0:0:0:
475,192,84380,128,0,84440:0:0:0:0:
402,192,84440,128,0,84560:0:0:0:0:
182,192,84560,128,0,84680:0:0:0:0:
475,192,84560,128,0,84680:0:0:0:0:
256,192,84680,128,0,84800:0:0:0:0:
402,192,84680,128,0,84800:0:0:0:0:
182,192,84800,128,0,84860:0:0:0:0:
329,192,84860,128,0,84920:0:0:0:0:
402,192,84920,128,0,84980:0:0:0:0:
256,192,84980,128,0,85040:0:0:0:0:
182,192,85040,128,0,85160:0:0:0:0:
329,192,85160,128,0,85280:0:0:0:0:
256,192,85160,128,0,85280:0:0:0:0:
109,192,85280,128,0,85400:0:0:0:0:
36,192,85280,128,0,85400:0:0:0:0:
256,192,85400,128,0,85460:0:0:0:0:
329,192,85460,128,0,85520:0:0:0:0:
256,192,85520,128,0,85640:0:0:0:0:
475,192,85640,128,0,85760:0:0:0:0:
402,192,85640,128,0,85760:0:0:0:0:
329,192,85760,128,0,85880:0:0:0:0:
182,192,85760,128,0,85880:0:0:0:0:
402,192,85880,128,0,85940:0:0:0:0:
329,192,85940,128,0,86000:0:0:0:0:
402,192,86000,128,0,86060:0:0:0:0:
109,192,86060,128,0,86120:0:0:0:0:
182,192,86120,128,0,86180:0:0:0:0:
256,192,86180,128,0,86240:0:0:0:0:
329,192,86240,128,0,86300:0:0:0:0:
475,192,86300,128,0,86360:0:0:0:0:
329,192,86360,128,0,86420:0:0:0:0:
256,192,86420,128,0,86480:0:0:0:0:
109,192,86480,128,0,86540:0:0:0:0:
182,192,86540,128,0,86600:0:0:0:0:
256,192,86600,128,0,86660:0:0:0:0:
182,192,86660,128,0,86720:0:0:0:0:
475,192,86720,1,0,0:0:0:0:
402,192,86750,1,0,0:0:0:0:
329,192,86780,1,0,0:0:0:0:
256,192,86810,1,0,0:0:0:0:
182,192,86840,128,0,86960:0:0:0:0:
36,192,86960,1,0,0:0:0:0:
109,192,86990,1,0,0:0:0:0:
182,192,87020,1,0,0:0:0:0:
256,192,87050,1,0,0:0:0:0:
329,192,87080,128,0,87200:0:0:0:0:
475,192,87200,1,0,0:0:0:0:
402,192,87230,1,0,0:0:0:0:
329,192,87260,1,0,0:0:0:0:
256,192,87290,1,0,0:0:0:0:
182,192,87320,128,0,87440:0:0:0:0:
36,192,87440,1,0,0:0:0:0:
109,192,87470,1,0,0:0:0:0:
182,192,87500,1,0,0:0:0:0:
256,192,87530,1,0,0:0:0:0:
329,192,87560,128,0,87680:0:0:0:0:
475,192,87680,1,0,0:0:0:0:
402,192,87710,1,0,0:0:0:0:
329,192,87740,1,0,0:0:0:0:
256,192,87770,1,0,0:0:0:0:
182,192,87800,128,0,87920:0:0:0:0:
36,192,87920,1,0,0:0:0:0:
109,192,87950,1,0,0:0:0:0:
182,192,87980,1,0,0:0:0:0:
256,192,88010,1,0,0:0:0:0:
329,192,88040,128,0,88160:0:0:0:0:
475,192,88160,1,0,0:0:0:0:
402,192,88190,1,0,0:0:0:0:
329,192,88220,1,0,0:0:0:0:
256,192,88250,1,0,0:0:0:0:
182,192,88280,128,0,88400:0:0:0:0:
36,192,88400,1,0,0:0:0:0:
109,192,88430,1,0,0:0:0:0:
182,192,88460,1,0,0:0:0:0:
256,192,88490,1,0,0:0:0:0:
329,192,88520,128,0,88640:0:0:0:0:
36,192,88640,128,0,88700:0:0:0:0:
109,192,88700,128,0,88760:0:0:0:0:
182,192,88760,128,0,88820:0:0:0:0:
256,192,88820,128,0,88880:0:0:0:0:
109,192,88880,128,0,88940:0:0:0:0:
256,192,88940,128,0,89000:0:0:0:0:
329,192,89000,128,0,89060:0:0:0:0:
256,192,89060,128,0,89120:0:0:0:0:
402,192,89120,128,0,89180:0:0:0:0:
329,192,89180,128,0,89240:0:0:0:0:
402,192,89240,128,0,89300:0:0:0:0:
329,192,89300,128,0,89360:0:0:0:0:
402,192,89360,128,0,89420:0:0:0:0:
475,192,89420,128,0,89480:0:0:0:0:
109,192,89480,1,0,0:0:0:0:
402,192,89480,1,0,0:0:0:0:
36,192,89540,1,0,0:0:0:0:
475,192,89540,1,0,0:0:0:0:
109,192,89600,1,0,0:0:0:0:
402,192,89600,1,0,0:0:0:0:
36,192,89660,1,0,0:0:0:0:
475,192,89660,1,0,0:0:0:0:
109,192,89720,1,0,0:0:0:0:
402,192,89720,1,0,0:0:0:0:
36,192,89780,1,0,0:0:0:0:
475,192,89780,1,0,0:0:0:0:
109,192,89840,1,0,0:0:0:0:
402,192,89840,1,0,0:0:0:0:
36,192,89900,1,0,0:0:0:0:
475,192,89900,1,0,0:0:0:0:
109,192,89960,1,0,0:0:0:0:
402,192,89960,1,0,0:0:0:0:
182,192,90020,1,0,0:0:0:0:
329,192,90020,1,0,0:0:0:0:
109,192,90080,1,0,0:0:0:0:
402,192,90080,1,0,0:0:0:0:
182,192,90140,1,0,0:0:0:0:
329,192,90140,1,0,0:0:0:0:
109,192,90200,1,0,0:0:0:0:
36,192,90200,1,0,0:0:0:0:
475,192,90200,1,0,0:0:0:0:
402,192,90200,1,0,0:0:0:0:
182,192,90440,128,0,90560:0:0:0:0:
109,192,90440,128,0,90560:0:0:0:0:
475,192,90560,128,0,90680:0:0:0:0:
329,192,90560,128,0,90680:0:0:0:0:
256,192,90680,128,0,90800:0:0:0:0:
109,192,90680,128,0,90800:0:0:0:0:
182,192,90800,128,0,90920:0:0:0:0:
36,192,90800,128,0,90920:0:0:0:0:
329,192,90920,128,0,91040:0:0:0:0:
109,192,90920,128,0,91040:0:0:0:0:
475,192,91040,128,0,91160:0:0:0:0:
256,192,91040,128,0,91160:0:0:0:0:
329,192,91160,128,0,91280:0:0:0:0:
109,192,91160,128,0,91280:0:0:0:0:
475,192,91280,128,0,91400:0:0:0:0:
256,192,91280,128,0,91400:0:0:0:0:
182,192,91400,128,0,91520:0:0:0:0:
109,192,91400,128,0,91520:0:0:0:0:
256,192,91520,128,0,91640:0:0:0:0:
329,192,91520,128,0,91640:0:0:0:0:
109,192,91640,128,0,91760:0:0:0:0:
182,192,91640,128,0,91760:0:0:0:0:
256,192,91760,128,0,91880:0:0:0:0:
329,192,91760,128,0,91880:0:0:0:0:
36,192,91880,128,0,92000:0:0:0:0:
109,192,91880,128,0,92000:0:0:0:0:
182,192,92000,128,0,92120:0:0:0:0:
475,192,92000,128,0,92120:0:0:0:0:
36,192,92120,128,0,92240:0:0:0:0:
109,192,92120,128,0,92240:0:0:0:0:
182,192,92240,128,0,92360:0:0:0:0:
475,192,92240,128,0,92360:0:0:0:0:
329,192,92360,128,0,92480:0:0:0:0:
109,192,92360,128,0,92480:0:0:0:0:
402,192,92480,128,0,92600:0:0:0:0:
475,192,92480,128,0,92600:0:0:0:0:
182,192,92600,128,0,92720:0:0:0:0:
36,192,92600,128,0,92720:0:0:0:0:
109,192,92720,128,0,92840:0:0:0:0:
402,192,92720,128,0,92840:0:0:0:0:
329,192,92840,128,0,92960:0:0:0:0:
182,192,92840,128,0,92960:0:0:0:0:
475,192,92960,128,0,93080:0:0:0:0:
402,192,92960,128,0,93080:0:0:0:0:
329,192,93080,128,0,93200:0:0:0:0:
182,192,93080,128,0,93200:0:0:0:0:
475,192,93200,128,0,93320:0:0:0:0:
402,192,93200,128,0,93320:0:0:0:0:
182,192,93320,128,0,93440:0:0:0:0:
36,192,93320,128,0,93440:0:0:0:0:
329,192,93440,128,0,93560:0:0:0:0:
109,192,93440,128,0,93560:0:0:0:0:
182,192,93560,128,0,93680:0:0:0:0:
36,192,93560,128,0,93680:0:0:0:0:
329,192,93680,128,0,93800:0:0:0:0:
109,192,93680,128,0,93800:0:0:0:0:
36,192,93800,128,0,93920:0:0:0:0:
475,192,93800,128,0,93920:0:0:0:0:
182,192,93920,128,0,94040:0:0:0:0:
402,192,93920,128,0,94040:0:0:0:0:
36,192,94040,128,0,94160:0:0:0:0:
475,192,94040,128,0,94160:0:0:0:0:
182,192,94160,128,0,94280:0:0:0:0:
402,192,94160,128,0,94280:0:0:0:0:
329,192,94280,128,0,94400:0:0:0:0:
36,192,94280,128,0,94400:0:0:0:0:
402,192,94400,128,0,94520:0:0:0:0:
475,192,94400,128,0,94520:0:0:0:0:
256,192,94520,128,0,94640:0:0:0:0:
329,192,94520,128,0,94640:0:0:0:0:
182,192,94640,128,0,94760:0:0:0:0:
36,192,94640,128,0,94760:0:0:0:0:
329,192,94760,128,0,94880:0:0:0:0:
256,192,94760,128,0,94880:0:0:0:0:
475,192,94880,128,0,95000:0:0:0:0:
182,192,94880,128,0,95000:0:0:0:0:
329,192,95000,128,0,95120:0:0:0:0:
256,192,95000,128,0,95120:0:0:0:0:
475,192,95120,128,0,95240:0:0:0:0:
182,192,95120,128,0,95240:0:0:0:0:
256,192,95240,128,0,95360:0:0:0:0:
36,192,95240,128,0,95360:0:0:0:0:
402,192,95360,128,0,95480:0:0:0:0:
329,192,95360,128,0,95480:0:0:0:0:
182,192,95480,128,0,95600:0:0:0:0:
36,192,95480,128,0,95600:0:0:0:0:
329,192,95600,128,0,95720:0:0:0:0:
402,192,95600,128,0,95720:0:0:0:0:
36,192,95720,128,0,95840:0:0:0:0:
256,192,95720,128,0,95840:0:0:0:0:
182,192,95840,128,0,95960:0:0:0:0:
329,192,95840,128,0,95960:0:0:0:0:
36,192,95960,128,0,96080:0:0:0:0:
256,192,95960,128,0,96080:0:0:0:0:
182,192,96080,128,0,96200:0:0:0:0:
329,192,96080,128,0,96200:0:0:0:0:
36,192,96200,128,0,96260:0:0:0:0:
182,192,96260,128,0,96320:0:0:0:0:
109,192,96320,128,0,96380:0:0:0:0:
182,192,96380,128,0,96440:0:0:0:0:
256,192,96440,128,0,96500:0:0:0:0:
329,192,96500,128,0,96560:0:0:0:0:
256,192,96560,128,0,96620:0:0:0:0:
329,192,96620,128,0,96680:0:0:0:0:
402,192,96680,128,0,96740:0:0:0:0:
329,192,96740,128,0,96800:0:0:0:0:
256,192,96800,128,0,96860:0:0:0:0:
329,192,96860,128,0,96920:0:0:0:0:
402,192,96920,128,0,96980:0:0:0:0:
329,192,96980,128,0,97040:0:0:0:0:
256,192,97040,128,0,97100:0:0:0:0:
329,192,97100,128,0,97160:0:0:0:0:
475,192,97160,128,0,97220:0:0:0:0:
402,192,97220,128,0,97280:0:0:0:0:
475,192,97280,128,0,97340:0:0:0:0:
402,192,97340,128,0,97400:0:0:0:0:
475,192,97400,128,0,97460:0:0:0:0:
402,192,97460,128,0,97520:0:0:0:0:
329,192,97520,128,0,97580:0:0:0:0:
256,192,97580,128,0,97640:0:0:0:0:
329,192,97640,128,0,97700:0:0:0:0:
256,192,97700,128,0,97760:0:0:0:0:
182,192,97760,128,0,97820:0:0:0:0:
109,192,97820,128,0,97880:0:0:0:0:
36,192,97880,128,0,97940:0:0:0:0:
109,192,97940,128,0,98000:0:0:0:0:
36,192,98000,128,0,98060:0:0:0:0:
182,192,98060,128,0,98120:0:0:0:0:
256,192,98120,128,0,98240:0:0:0:0:
329,192,98120,1,0,0:0:0:0:
109,192,98240,128,0,98360:0:0:0:0:
36,192,98360,128,0,98480:0:0:0:0:
402,192,98360,1,0,0:0:0:0:
329,192,98480,128,0,98600:0:0:0:0:
109,192,98600,128,0,98720:0:0:0:0:
256,192,98600,1,0,0:0:0:0:
36,192,98720,128,0,98840:0:0:0:0:
329,192,98720,1,0,0:0:0:0:
402,192,98840,128,0,98960:0:0:0:0:
475,192,98840,1,0,0:0:0:0:
109,192,98960,128,0,99080:0:0:0:0:
36,192,99080,128,0,99200:0:0:0:0:
182,192,99080,1,0,0:0:0:0:
402,192,99200,128,0,99260:0:0:0:0:
182,192,99200,1,0,0:0:0:0:
475,192,99260,128,0,99320:0:0:0:0:
402,192,99320,128,0,99440:0:0:0:0:
109,192,99320,1,0,0:0:0:0:
329,192,99440,128,0,99560:0:0:0:0:
182,192,99440,1,0,0:0:0:0:
402,192,99560,128,0,99620:0:0:0:0:
475,192,99620,128,0,99680:0:0:0:0:
402,192,99680,128,0,99800:0:0:0:0:
109,192,99680,1,0,0:0:0:0:
109,192,99740,1,0,0:0:0:0:
329,192,99800,128,0,99920:0:0:0:0:
109,192,99800,1,0,0:0:0:0:
475,192,99920,128,0,100040:0:0:0:0:
402,192,100040,128,0,100160:0:0:0:0:
182,192,100040,1,0,0:0:0:0:
329,192,100160,128,0,100280:0:0:0:0:
475,192,100280,128,0,100400:0:0:0:0:
182,192,100280,1,0,0:0:0:0:
256,192,100400,128,0,100520:0:0:0:0:
402,192,100520,128,0,100640:0:0:0:0:
109,192,100520,1,0,0:0:0:0:
182,192,100640,128,0,100760:0:0:0:0:
109,192,100640,1,0,0:0:0:0:
329,192,100760,128,0,100880:0:0:0:0:
109,192,100760,1,0,0:0:0:0:
109,192,100880,128,0,101000:0:0:0:0:
256,192,101000,128,0,101120:0:0:0:0:
182,192,101000,1,0,0:0:0:0:
329,192,101120,128,0,101240:0:0:0:0:
182,192,101120,1,0,0:0:0:0:
475,192,101240,128,0,101360:0:0:0:0:
182,192,101240,1,0,0:0:0:0:
256,192,101360,128,0,101480:0:0:0:0:
182,192,101360,1,0,0:0:0:0:
402,192,101480,128,0,101600:0:0:0:0:
182,192,101480,1,0,0:0:0:0:
182,192,101600,128,0,101720:0:0:0:0:
256,192,101600,1,0,0:0:0:0:
329,192,101720,128,0,101840:0:0:0:0:
256,192,101720,1,0,0:0:0:0:
109,192,101840,128,0,101960:0:0:0:0:
256,192,101840,1,0,0:0:0:0:
36,192,101960,128,0,102080:0:0:0:0:
256,192,101960,1,0,0:0:0:0:
109,192,102080,128,0,102140:0:0:0:0:
182,192,102140,128,0,102200:0:0:0:0:
256,192,102200,128,0,102320:0:0:0:0:
475,192,102200,1,0,0:0:0:0:
182,192,102320,128,0,102380:0:0:0:0:
256,192,102380,128,0,102440:0:0:0:0:
329,192,102440,128,0,102560:0:0:0:0:
475,192,102440,1,0,0:0:0:0:
256,192,102560,128,0,102680:0:0:0:0:
475,192,102560,1,0,0:0:0:0:
109,192,102680,128,0,102740:0:0:0:0:
475,192,102680,1,0,0:0:0:0:
182,192,102740,128,0,102800:0:0:0:0:
256,192,102800,128,0,102920:0:0:0:0:
182,192,102920,128,0,102980:0:0:0:0:
36,192,102920,1,0,0:0:0:0:
256,192,102980,128,0,103040:0:0:0:0:
329,192,103040,128,0,103160:0:0:0:0:
36,192,103040,1,0,0:0:0:0:
256,192,103160,128,0,103220:0:0:0:0:
109,192,103160,1,0,0:0:0:0:
329,192,103220,128,0,103280:0:0:0:0:
402,192,103280,128,0,103400:0:0:0:0:
36,192,103280,1,0,0:0:0:0:
329,192,103400,128,0,103460:0:0:0:0:
402,192,103460,128,0,103520:0:0:0:0:
475,192,103520,128,0,103640:0:0:0:0:
109,192,103520,1,0,0:0:0:0:
109,192,103580,1,0,0:0:0:0:
329,192,103640,128,0,103700:0:0:0:0:
109,192,103640,1,0,0:0:0:0:
402,192,103700,128,0,103760:0:0:0:0:
475,192,103760,128,0,103880:0:0:0:0:
402,192,103880,128,0,103940:0:0:0:0:
329,192,103940,128,0,104000:0:0:0:0:
109,192,104000,128,0,104060:0:0:0:0:
182,192,104060,128,0,104120:0:0:0:0:
256,192,104120,128,0,104180:0:0:0:0:
36,192,104180,128,0,104240:0:0:0:0:
256,192,104240,128,0,104300:0:0:0:0:
402,192,104300,128,0,104360:0:0:0:0:
329,192,104360,128,0,104420:0:0:0:0:
256,192,104420,128,0,104480:0:0:0:0:
109,192,104480,128,0,104540:0:0:0:0:
182,192,104540,128,0,104600:0:0:0:0:
475,192,104600,128,0,104660:0:0:0:0:
329,192,104660,128,0,104720:0:0:0:0:
256,192,104720,128,0,104780:0:0:0:0:
329,192,104780,128,0,104840:0:0:0:0:
109,192,104840,128,0,104900:0:0:0:0:
182,192,104900,128,0,104960:0:0:0:0:
256,192,104960,128,0,105020:0:0:0:0:
329,192,105020,128,0,105080:0:0:0:0:
475,192,105080,128,0,105140:0:0:0:0:
329,192,105140,128,0,105200:0:0:0:0:
402,192,105200,128,0,105260:0:0:0:0:
329,192,105260,128,0,105320:0:0:0:0:
402,192,105320,128,0,105380:0:0:0:0:
256,192,105380,128,0,105440:0:0:0:0:
329,192,105440,128,0,105500:0:0:0:0:
109,192,105500,128,0,105560:0:0:0:0:
256,192,105560,128,0,105620:0:0:0:0:
109,192,105620,128,0,105680:0:0:0:0:
256,192,105680,128,0,105740:0:0:0:0:
329,192,105800,128,0,105980:0:0:0:0:
109,192,105800,128,0,105980:0:0:0:0:
475,192,105800,128,0,105980:0:0:0:0:
109,192,106040,128,0,106100:0:0:0:0:
256,192,106040,128,0,106100:0:0:0:0:
402,192,106160,128,0,106220:0:0:0:0:
256,192,106160,128,0,106220:0:0:0:0:
182,192,106280,128,0,106460:0:0:0:0:
329,192,106280,128,0,106460:0:0:0:0:
475,192,106280,128,0,106460:0:0:0:0:
109,192,106520,128,0,106580:0:0:0:0:
256,192,106520,128,0,106580:0:0:0:0:
402,192,106640,128,0,106700:0:0:0:0:
329,192,106640,128,0,106700:0:0:0:0:
256,192,106760,128,0,106940:0:0:0:0:
402,192,106760,128,0,106940:0:0:0:0:
36,192,106760,128,0,106940:0:0:0:0:
402,192,107000,128,0,107060:0:0:0:0:
329,192,107000,128,0,107060:0:0:0:0:
182,192,107120,128,0,107180:0:0:0:0:
36,192,107120,128,0,107180:0:0:0:0:
475,192,107240,128,0,107420:0:0:0:0:
329,192,107240,128,0,107420:0:0:0:0:
109,192,107240,128,0,107420:0:0:0:0:
36,192,107480,128,0,107660:0:0:0:0:
402,192,107480,128,0,107660:0:0:0:0:
109,192,107480,128,0,107660:0:0:0:0:
182,192,107720,128,0,107900:0:0:0:0:
36,192,107720,128,0,107900:0:0:0:0:
329,192,107720,128,0,107900:0:0:0:0:
475,192,107960,128,0,108020:0:0:0:0:
256,192,107960,128,0,108020:0:0:0:0:
402,192,108080,128,0,108140:0:0:0:0:
256,192,108080,128,0,108140:0:0:0:0:
475,192,108200,128,0,108380:0:0:0:0:
182,192,108200,128,0,108380:0:0:0:0:
402,192,108200,128,0,108380:0:0:0:0:
402,192,108440,128,0,108500:0:0:0:0:
109,192,108440,128,0,108500:0:0:0:0:
475,192,108560,128,0,108620:0:0:0:0:
182,192,108560,128,0,108620:0:0:0:0:
475,192,108680,128,0,108860:0:0:0:0:
182,192,108680,128,0,108860:0:0:0:0:
329,192,108680,128,0,108860:0:0:0:0:
475,192,108920,128,0,108980:0:0:0:0:
329,192,108920,128,0,108980:0:0:0:0:
402,192,109040,128,0,109100:0:0:0:0:
36,192,109040,128,0,109100:0:0:0:0:
475,192,109160,128,0,109340:0:0:0:0:
36,192,109160,128,0,109340:0:0:0:0:
109,192,109160,128,0,109340:0:0:0:0:
36,192,109400,128,0,109580:0:0:0:0:
182,192,109400,128,0,109580:0:0:0:0:
109,192,109400,128,0,109580:0:0:0:0:
36,192,109640,128,0,109820:0:0:0:0:
329,192,109640,128,0,109820:0:0:0:0:
182,192,109640,128,0,109820:0:0:0:0:
475,192,109880,128,0,109940:0:0:0:0:
109,192,109880,128,0,109940:0:0:0:0:
329,192,110000,128,0,110060:0:0:0:0:
109,192,110000,128,0,110060:0:0:0:0:
475,192,110120,128,0,110300:0:0:0:0:
402,192,110120,128,0,110300:0:0:0:0:
109,192,110120,128,0,110300:0:0:0:0:
256,192,110360,128,0,110420:0:0:0:0:
109,192,110360,128,0,110420:0:0:0:0:
475,192,110480,128,0,110540:0:0:0:0:
182,192,110480,128,0,110540:0:0:0:0:
36,192,110600,128,0,110780:0:0:0:0:
329,192,110600,128,0,110780:0:0:0:0:
182,192,110600,128,0,110780:0:0:0:0:
109,192,110840,128,0,110900:0:0:0:0:
402,192,110840,128,0,110900:0:0:0:0:
329,192,110960,128,0,111020:0:0:0:0:
36,192,110960,128,0,111020:0:0:0:0:
402,192,111080,128,0,111260:0:0:0:0:
329,192,111080,128,0,111260:0:0:0:0:
36,192,111080,128,0,111260:0:0:0:0:
182,192,111320,128,0,111500:0:0:0:0:
109,192,111320,128,0,111500:0:0:0:0:
36,192,111320,128,0,111500:0:0:0:0:
36,192,111560,128,0,111620:0:0:0:0:
256,192,111620,128,0,111680:0:0:0:0:
109,192,111680,128,0,111740:0:0:0:0:
329,192,111680,128,0,111740:0:0:0:0:
182,192,111740,128,0,111800:0:0:0:0:
109,192,111800,128,0,111860:0:0:0:0:
256,192,111860,128,0,111920:0:0:0:0:
329,192,111920,128,0,111980:0:0:0:0:
182,192,111980,128,0,112040:0:0:0:0:
109,192,112040,128,0,112100:0:0:0:0:
182,192,112100,128,0,112160:0:0:0:0:
402,192,112160,128,0,112220:0:0:0:0:
329,192,112220,128,0,112280:0:0:0:0:
256,192,112280,128,0,112400:0:0:0:0:
475,192,112280,128,0,112400:0:0:0:0:
329,192,112400,128,0,112520:0:0:0:0:
402,192,112400,128,0,112520:0:0:0:0:
256,192,112520,128,0,112820:0:0:0:0:
475,192,112520,128,0,112820:0:0:0:0:
109,192,112520,1,0,0:0:0:0:
36,192,112520,1,0,0:0:0:0:
182,192,112520,1,0,0:0:0:0:
256,192,112880,128,0,113240:0:0:0:0:
475,192,112880,128,0,113240:0:0:0:0:
329,192,112880,1,0,0:0:0:0:
402,192,112880,1,0,0:0:0:0:
182,192,112880,1,0,0:0:0:0:
109,192,112880,1,0,0:0:0:0:
182,192,113240,128,0,113300:0:0:0:0:
402,192,113240,128,0,113300:0:0:0:0:
109,192,113360,128,0,113420:0:0:0:0:
256,192,113360,128,0,113420:0:0:0:0:
36,192,113480,128,0,113660:0:0:0:0:
475,192,113480,128,0,113660:0:0:0:0:
109,192,113480,128,0,113660:0:0:0:0:
475,192,113720,128,0,113780:0:0:0:0:
256,192,113720,128,0,113780:0:0:0:0:
402,192,113840,128,0,113900:0:0:0:0:
182,192,113840,128,0,113900:0:0:0:0:
475,192,113960,128,0,114140:0:0:0:0:
109,192,113960,128,0,114140:0:0:0:0:
329,192,113960,128,0,114140:0:0:0:0:
256,192,114200,128,0,114260:0:0:0:0:
402,192,114200,128,0,114260:0:0:0:0:
182,192,114320,128,0,114380:0:0:0:0:
475,192,114320,128,0,114380:0:0:0:0:
475,192,114440,128,0,114620:0:0:0:0:
402,192,114440,128,0,114620:0:0:0:0:
182,192,114440,128,0,114620:0:0:0:0:
109,192,114680,128,0,114740:0:0:0:0:
475,192,114680,128,0,114740:0:0:0:0:
36,192,114800,128,0,114860:0:0:0:0:
182,192,114800,128,0,114860:0:0:0:0:
36,192,114920,128,0,115100:0:0:0:0:
402,192,114920,128,0,115100:0:0:0:0:
109,192,114920,128,0,115100:0:0:0:0:
36,192,115160,128,0,115340:0:0:0:0:
182,192,115160,128,0,115340:0:0:0:0:
109,192,115160,128,0,115340:0:0:0:0:
36,192,115400,128,0,115580:0:0:0:0:
109,192,115400,128,0,115580:0:0:0:0:
329,192,115400,128,0,115580:0:0:0:0:
109,192,115640,128,0,115700:0:0:0:0:
475,192,115640,128,0,115700:0:0:0:0:
256,192,115760,128,0,115820:0:0:0:0:
402,192,115760,128,0,115820:0:0:0:0:
475,192,115880,128,0,116060:0:0:0:0:
329,192,115880,128,0,116060:0:0:0:0:
109,192,115880,128,0,116060:0:0:0:0:
256,192,116120,128,0,116180:0:0:0:0:
109,192,116120,128,0,116180:0:0:0:0:
329,192,116240,128,0,116300:0:0:0:0:
402,192,116240,128,0,116300:0:0:0:0:
329,192,116360,128,0,116540:0:0:0:0:
182,192,116360,128,0,116540:0:0:0:0:
475,192,116360,128,0,116540:0:0:0:0:
402,192,116600,128,0,116660:0:0:0:0:
329,192,116600,128,0,116660:0:0:0:0:
182,192,116720,128,0,116780:0:0:0:0:
329,192,116720,128,0,116780:0:0:0:0:
36,192,116840,128,0,117020:0:0:0:0:
402,192,116840,128,0,117020:0:0:0:0:
256,192,116840,128,0,117020:0:0:0:0:
256,192,117080,128,0,117260:0:0:0:0:
109,192,117080,128,0,117260:0:0:0:0:
36,192,117080,128,0,117260:0:0:0:0:
36,192,117320,128,0,117500:0:0:0:0:
182,192,117320,128,0,117500:0:0:0:0:
329,192,117320,128,0,117500:0:0:0:0:
256,192,117560,128,0,117620:0:0:0:0:
475,192,117560,128,0,117620:0:0:0:0:
256,192,117680,128,0,117740:0:0:0:0:
402,192,117680,128,0,117740:0:0:0:0:
475,192,117800,128,0,117980:0:0:0:0:
109,192,117800,128,0,117980:0:0:0:0:
329,192,117800,128,0,117980:0:0:0:0:
329,192,118040,128,0,118100:0:0:0:0:
109,192,118040,128,0,118100:0:0:0:0:
402,192,118160,128,0,118220:0:0:0:0:
182,192,118160,128,0,118220:0:0:0:0:
256,192,118280,128,0,118460:0:0:0:0:
475,192,118280,128,0,118460:0:0:0:0:
402,192,118280,128,0,118460:0:0:0:0:
475,192,118520,128,0,118580:0:0:0:0:
402,192,118520,128,0,118580:0:0:0:0:
36,192,118640,128,0,118700:0:0:0:0:
402,192,118640,128,0,118700:0:0:0:0:
36,192,118760,128,0,118940:0:0:0:0:
329,192,118760,128,0,118940:0:0:0:0:
475,192,118760,128,0,118940:0:0:0:0:
36,192,119000,128,0,119180:0:0:0:0:
329,192,119000,128,0,119180:0:0:0:0:
109,192,119000,128,0,119180:0:0:0:0:
182,192,119240,128,0,119330:0:0:0:0:
329,192,119240,128,0,119330:0:0:0:0:
256,192,119360,128,0,119450:0:0:0:0:
109,192,119360,128,0,119450:0:0:0:0:
182,192,119480,128,0,119570:0:0:0:0:
36,192,119480,128,0,119570:0:0:0:0:
329,192,119600,128,0,119690:0:0:0:0:
475,192,119600,128,0,119690:0:0:0:0:
256,192,119720,128,0,119810:0:0:0:0:
402,192,119720,128,0,119810:0:0:0:0:
182,192,119840,128,0,119930:0:0:0:0:
329,192,119840,128,0,119930:0:0:0:0:
402,192,119960,128,0,120050:0:0:0:0:
109,192,119960,128,0,120050:0:0:0:0:
256,192,120080,128,0,120200:0:0:0:0:
182,192,120200,128,0,120320:0:0:0:0:
329,192,120200,128,0,120320:0:0:0:0:
402,192,120200,128,0,120320:0:0:0:0:
109,192,120200,128,0,120320:0:0:0:0:
256,192,120320,128,0,120440:0:0:0:0:
109,192,120440,128,0,120560:0:0:0:0:
402,192,120440,128,0,120560:0:0:0:0:
329,192,120560,128,0,120680:0:0:0:0:
182,192,120560,128,0,120680:0:0:0:0:
475,192,120560,128,0,120680:0:0:0:0:
36,192,120560,128,0,120680:0:0:0:0:
109,192,120680,128,0,120800:0:0:0:0:
402,192,120680,128,0,120800:0:0:0:0:
329,192,120800,128,0,120920:0:0:0:0:
182,192,120800,128,0,120920:0:0:0:0:
402,192,120920,128,0,121040:0:0:0:0:
475,192,120920,128,0,121040:0:0:0:0:
109,192,120920,128,0,121040:0:0:0:0:
36,192,120920,128,0,121040:0:0:0:0:
182,192,121040,128,0,121160:0:0:0:0:
329,192,121040,128,0,121160:0:0:0:0:
402,192,121160,1,0,0:0:0:0:
109,192,121160,1,0,0:0:0:0:
329,192,121220,1,0,0:0:0:0:
182,192,121220,1,0,0:0:0:0:
402,192,121280,1,0,0:0:0:0:
109,192,121280,1,0,0:0:0:0:
182,192,121340,1,0,0:0:0:0:
329,192,121340,1,0,0:0:0:0:
109,192,121400,1,0,0:0:0:0:
402,192,121400,1,0,0:0:0:0:
182,192,121460,1,0,0:0:0:0:
329,192,121460,1,0,0:0:0:0:
109,192,121520,1,0,0:0:0:0:
402,192,121520,1,0,0:0:0:0:
182,192,121580,1,0,0:0:0:0:
329,192,121580,1,0,0:0:0:0:
109,192,121640,1,0,0:0:0:0:
402,192,121640,1,0,0:0:0:0:
182,192,121700,1,0,0:0:0:0:
329,192,121700,1,0,0:0:0:0:
109,192,121760,1,0,0:0:0:0:
402,192,121760,1,0,0:0:0:0:
182,192,121820,1,0,0:0:0:0:
329,192,121820,1,0,0:0:0:0:
109,192,121880,1,0,0:0:0:0:
402,192,121880,1,0,0:0:0:0:
182,192,121940,1,0,0:0:0:0:
329,192,121940,1,0,0:0:0:0:
109,192,122000,1,0,0:0:0:0:
402,192,122000,1,0,0:0:0:0:
182,192,122060,1,0,0:0:0:0:
329,192,122060,1,0,0:0:0:0:
109,192,122120,1,0,0:0:0:0:
402,192,122120,1,0,0:0:0:0:
36,192,122180,1,0,0:0:0:0:
475,192,122180,1,0,0:0:0:0:
109,192,122240,1,0,0:0:0:0:
402,192,122240,1,0,0:0:0:0:
36,192,122300,1,0,0:0:0:0:
475,192,122300,1,0,0:0:0:0:
109,192,122360,1,0,0:0:0:0:
402,192,122360,1,0,0:0:0:0:
36,192,122420,1,0,0:0:0:0:
475,192,122420,1,0,0:0:0:0:
109,192,122480,1,0,0:0:0:0:
402,192,122480,1,0,0:0:0:0:
109,192,122600,1,0,0:0:0:0:
402,192,122600,1,0,0:0:0:0:
182,192,122660,1,0,0:0:0:0:
329,192,122660,1,0,0:0:0:0:
109,192,122720,1,0,0:0:0:0:
402,192,122720,1,0,0:0:0:0:
182,192,122780,1,0,0:0:0:0:
329,192,122780,1,0,0:0:0:0:
36,192,122840,128,0,123020:0:0:0:0:
256,192,122840,1,0,0:0:0:0:
109,192,123080,128,0,125000:0:0:0:0:
182,192,123080,128,0,125000:0:0:0:0:
329,192,123080,128,0,125000:0:0:0:0:
402,192,123080,128,0,125000:0:0:0:0:
