osu file format v13

[General]
AudioFilename: Intersect Thunderbolt.mp3
AudioLeadIn: 1500
PreviewTime: 9800
Countdown: 0
SampleSet: Normal
StackLeniency: 0.7
Mode: 1
LetterboxInBreaks: 0
WidescreenStoryboard: 1

[Editor]
Bookmarks: 200
DistanceSpacing: 1.2
BeatDivisor: 4
GridSize: 32
TimelineZoom: 3.399999

[Metadata]
Title:Intersect Thunderbolt-Remix
TitleUnicode:Intersect Thunderbolt-Remix
Artist:S.S.H.
ArtistUnicode:S.S.H.
Creator:Nwolf
Version:Futsuu
Source:eXceed3rd-JADE PENETRATE-BLACK PACKAGE
Tags:Tennen Sozai Danmaku game Original Sound Track OST Saitama Saisyu Heiki SSH Stage 5 boss Lindwurm Celestia
BeatmapID:443658
BeatmapSetID:185613

[Difficulty]
HPDrainRate:3.6
CircleSize:4
OverallDifficulty:3.1
ApproachRate:8
SliderMultiplier:1.2
SliderTickRate:1

[Events]
//Background and Video events
0,0,"Exceed.jpg",0,0
//Break Periods
//Storyboard Layer 0 (Background)
//Storyboard Layer 1 (Fail)
//Storyboard Layer 2 (Pass)
//Storyboard Layer 3 (Foreground)
//Storyboard Sound Samples
//Background Colour Transformations
3,100,163,162,255

[TimingPoints]
200,240,4,1,0,85,1,0
200,-111.111111111111,4,1,0,85,0,0
9800,-100,4,1,0,85,0,1
40520,-100,4,1,0,85,0,0
90440,-100,4,1,0,85,0,1
125000,-100,4,1,0,85,0,0

[Colours]
Combo1 : 234,0,0
Combo2 : 234,117,0
Combo3 : 234,234,0

[HitObjects]
288,160,200,5,8,0:0:0:0:
288,160,560,1,8,0:0:0:0:
288,160,920,1,8,0:0:0:0:
288,160,1280,1,8,0:0:0:0:
288,160,1640,1,8,0:0:0:0:
224,224,1880,1,4,0:0:0:0:
288,224,2120,1,12,0:0:0:0:
224,224,3800,1,4,0:0:0:0:
288,224,4040,1,12,0:0:0:0:
288,160,5000,1,8,0:0:0:0:
288,160,5480,1,8,0:0:0:0:
224,160,5720,1,0,0:0:0:0:
288,224,5960,1,12,0:0:0:0:
224,224,7640,1,4,0:0:0:0:
288,224,7880,1,12,0:0:0:0:
224,224,8600,1,4,0:0:0:0:
288,160,8840,1,8,0:0:0:0:
288,160,9200,1,8,0:0:0:0:
288,160,9560,1,8,0:0:0:0:
288,224,9800,1,12,0:0:0:0:
224,160,10280,1,0,0:0:0:0:
288,160,10520,1,8,0:0:0:0:
224,160,10760,1,0,0:0:0:0:
288,160,11000,1,8,0:0:0:0:
288,160,11240,1,8,0:0:0:0:
288,160,11720,1,8,0:0:0:0:
288,160,11960,1,8,0:0:0:0:
224,160,12200,1,0,0:0:0:0:
288,160,12440,1,8,0:0:0:0:
224,160,12680,1,0,0:0:0:0:
288,160,12920,1,8,0:0:0:0:
288,160,13160,1,8,0:0:0:0:
224,160,13640,1,0,0:0:0:0:
224,160,14120,1,0,0:0:0:0:
288,160,14360,1,8,0:0:0:0:
288,160,14600,1,8,0:0:0:0:
288,160,14840,1,8,0:0:0:0:
224,160,15080,1,0,0:0:0:0:
224,160,15560,1,0,0:0:0:0:
288,160,15800,1,8,0:0:0:0:
224,160,16040,1,0,0:0:0:0:
288,160,16280,1,8,0:0:0:0:
288,160,16520,1,8,0:0:0:0:
288,160,16760,1,8,0:0:0:0:
224,160,17000,1,0,0:0:0:0:
224,160,17480,1,0,0:0:0:0:
288,224,17720,1,12,0:0:0:0:
288,160,18200,1,8,0:0:0:0:
224,160,18440,1,0,0:0:0:0:
288,160,18680,1,8,0:0:0:0:
224,160,18920,1,0,0:0:0:0:
224,160,19400,1,0,0:0:0:0:
288,160,19880,1,8,0:0:0:0:
288,160,20120,1,8,0:0:0:0:
224,160,20360,1,0,0:0:0:0:
288,160,20600,1,8,0:0:0:0:
224,160,20840,1,0,0:0:0:0:
288,160,21320,1,8,0:0:0:0:
224,160,21560,1,0,0:0:0:0:
288,160,21800,1,8,0:0:0:0:
288,160,22280,1,8,0:0:0:0:
224,160,22520,1,0,0:0:0:0:
288,160,22760,1,8,0:0:0:0:
224,160,23240,1,0,0:0:0:0:
224,160,23480,1,0,0:0:0:0:
288,224,23720,1,12,0:0:0:0:
288,160,24200,1,8,0:0:0:0:
288,160,24440,1,8,0:0:0:0:
288,160,24680,1,8,0:0:0:0:
224,160,24920,1,0,0:0:0:0:
288,224,25160,1,12,0:0:0:0:
288,160,25640,1,8,0:0:0:0:
288,160,25880,1,8,0:0:0:0:
224,160,26120,1,0,0:0:0:0:
288,160,26360,1,8,0:0:0:0:
224,160,26600,1,0,0:0:0:0:
288,160,27080,1,8,0:0:0:0:
224,160,27560,1,0,0:0:0:0:
288,160,27800,1,8,0:0:0:0:
224,160,28040,1,0,0:0:0:0:
288,160,28280,1,8,0:0:0:0:
288,160,28520,1,8,0:0:0:0:
224,160,29000,1,0,0:0:0:0:
224,160,29480,1,0,0:0:0:0:
288,160,29720,1,8,0:0:0:0:
288,160,29960,1,8,0:0:0:0:
288,160,30200,1,8,0:0:0:0:
224,160,30440,1,0,0:0:0:0:
224,160,30920,1,0,0:0:0:0:
224,160,31400,1,0,0:0:0:0:
288,160,31640,1,8,0:0:0:0:
288,160,31880,1,8,0:0:0:0:
288,160,32120,1,8,0:0:0:0:
224,160,32360,1,0,0:0:0:0:
224,160,32840,1,0,0:0:0:0:
288,224,33080,1,12,0:0:0:0:
288,160,33560,1,8,0:0:0:0:
224,160,33800,1,0,0:0:0:0:
288,160,34040,1,8,0:0:0:0:
224,160,34280,1,0,0:0:0:0:
224,160,34760,1,0,0:0:0:0:
288,160,35240,1,8,0:0:0:0:
288,160,35480,1,8,0:0:0:0:
224,160,35720,1,0,0:0:0:0:
288,160,35960,1,8,0:0:0:0:
224,160,36200,1,0,0:0:0:0:
288,160,36680,1,8,0:0:0:0:
224,160,36920,1,0,0:0:0:0:
288,160,37160,1,8,0:0:0:0:
288,160,37640,1,8,0:0:0:0:
224,160,37880,1,0,0:0:0:0:
288,160,38120,1,8,0:0:0:0:
224,160,38600,1,0,0:0:0:0:
224,160,38840,1,0,0:0:0:0:
288,224,39080,1,12,0:0:0:0:
288,160,39560,1,8,0:0:0:0:
288,160,39800,1,8,0:0:0:0:
224,160,40040,1,0,0:0:0:0:
288,224,40520,5,12,0:0:0:0:
224,160,40760,1,0,0:0:0:0:
288,160,41000,1,8,0:0:0:0:
288,160,41480,1,8,0:0:0:0:
224,160,41840,1,0,0:0:0:0:
288,160,42200,1,8,0:0:0:0:
288,160,42440,1,8,0:0:0:0:
224,160,42680,1,0,0:0:0:0:
288,160,42920,1,8,0:0:0:0:
288,160,43400,1,8,0:0:0:0:
288,160,43760,1,8,0:0:0:0:
288,160,44120,1,8,0:0:0:0:
224,160,44360,1,0,0:0:0:0:
288,160,44600,1,8,0:0:0:0:
288,160,44840,1,8,0:0:0:0:
288,160,45320,1,8,0:0:0:0:
288,160,45680,1,8,0:0:0:0:
224,160,46040,1,0,0:0:0:0:
224,160,46280,1,0,0:0:0:0:
288,224,46520,1,12,0:0:0:0:
288,224,47000,1,12,0:0:0:0:
288,160,47480,1,8,0:0:0:0:
288,160,47720,1,8,0:0:0:0:
288,160,48200,1,8,0:0:0:0:
288,160,48440,1,8,0:0:0:0:
224,160,48680,1,0,0:0:0:0:
288,160,49160,1,8,0:0:0:0:
224,160,49520,1,0,0:0:0:0:
288,160,49880,1,8,0:0:0:0:
288,160,50120,1,8,0:0:0:0:
224,160,50360,1,0,0:0:0:0:
288,160,50600,1,8,0:0:0:0:
288,160,51080,1,8,0:0:0:0:
288,160,51440,1,8,0:0:0:0:
288,160,51800,1,8,0:0:0:0:
224,160,52040,1,0,0:0:0:0:
288,160,52280,1,8,0:0:0:0:
288,160,52520,1,8,0:0:0:0:
288,160,53000,1,8,0:0:0:0:
288,160,53480,1,8,0:0:0:0:
224,160,53720,1,0,0:0:0:0:
224,160,53960,1,0,0:0:0:0:
288,224,54200,1,12,0:0:0:0:
224,160,54440,1,0,0:0:0:0:
288,160,54920,1,8,0:0:0:0:
224,160,55160,1,0,0:0:0:0:
288,160,55400,1,8,0:0:0:0:
288,160,55880,1,8,0:0:0:0:
288,160,56240,1,8,0:0:0:0:
288,160,56600,1,8,0:0:0:0:
224,160,56840,1,0,0:0:0:0:
224,160,57080,1,0,0:0:0:0:
224,160,57320,1,0,0:0:0:0:
288,224,57800,1,12,0:0:0:0:
288,160,58160,1,8,0:0:0:0:
288,160,58520,1,8,0:0:0:0:
288,160,58760,1,8,0:0:0:0:
288,160,59120,1,8,0:0:0:0:
288,160,59480,1,8,0:0:0:0:
224,160,59720,1,0,0:0:0:0:
288,160,60080,1,8,0:0:0:0:
288,160,60440,1,8,0:0:0:0:
288,160,60680,1,8,0:0:0:0:
288,160,61040,1,8,0:0:0:0:
288,160,61400,1,8,0:0:0:0:
224,160,61640,1,0,0:0:0:0:
288,160,62000,1,8,0:0:0:0:
288,160,62360,1,8,0:0:0:0:
288,160,62600,1,8,0:0:0:0:
288,160,62960,1,8,0:0:0:0:
288,160,63320,1,8,0:0:0:0:
224,160,63560,1,0,0:0:0:0:
224,160,64520,1,0,0:0:0:0:
224,224,65480,1,4,0:0:0:0:
288,160,65840,1,8,0:0:0:0:
288,160,66200,1,8,0:0:0:0:
288,160,66440,1,8,0:0:0:0:
288,160,66800,1,8,0:0:0:0:
288,160,67160,1,8,0:0:0:0:
224,160,67400,1,0,0:0:0:0:
288,160,67760,1,8,0:0:0:0:
288,160,68120,1,8,0:0:0:0:
288,160,68360,1,8,0:0:0:0:
288,160,68720,1,8,0:0:0:0:
288,160,69080,1,8,0:0:0:0:
224,160,69320,1,0,0:0:0:0:
288,160,69680,1,8,0:0:0:0:
288,160,70040,1,8,0:0:0:0:
288,160,70280,1,8,0:0:0:0:
288,160,70640,1,8,0:0:0:0:
288,160,71000,1,8,0:0:0:0:
224,160,71240,1,0,0:0:0:0:
288,160,72200,1,8,0:0:0:0:
288,224,73160,1,12,0:0:0:0:
224,160,74120,1,0,0:0:0:0:
224,160,74600,1,0,0:0:0:0:
224,160,74840,1,0,0:0:0:0:
288,224,75080,1,12,0:0:0:0:
288,160,75560,1,8,0:0:0:0:
224,160,75800,1,0,0:0:0:0:
288,160,76040,1,8,0:0:0:0:
288,160,76520,1,8,0:0:0:0:
288,160,77000,1,8,0:0:0:0:
288,160,77240,1,8,0:0:0:0:
288,160,77480,1,8,0:0:0:0:
224,160,77720,1,0,0:0:0:0:
288,160,77960,1,8,0:0:0:0:
288,160,78440,1,8,0:0:0:0:
288,160,78920,1,8,0:0:0:0:
224,160,79160,1,0,0:0:0:0:
288,160,79400,1,8,0:0:0:0:
288,160,79640,1,8,0:0:0:0:
288,160,79880,1,8,0:0:0:0:
288,160,80240,1,8,0:0:0:0:
288,160,80600,1,8,0:0:0:0:
288,160,80840,1,8,0:0:0:0:
224,160,81080,1,0,0:0:0:0:
288,160,81320,1,8,0:0:0:0:
288,224,81800,1,12,0:0:0:0:
288,224,82160,1,12,0:0:0:0:
224,224,82520,1,4,0:0:0:0:
288,224,82760,1,12,0:0:0:0:
288,160,83240,1,8,0:0:0:0:
224,160,83480,1,0,0:0:0:0:
288,160,83720,1,8,0:0:0:0:
288,160,84200,1,8,0:0:0:0:
288,160,84440,1,8,0:0:0:0:
288,160,84680,1,8,0:0:0:0:
288,160,85160,1,8,0:0:0:0:
224,160,85400,1,0,0:0:0:0:
288,160,85640,1,8,0:0:0:0:
288,160,86120,1,8,0:0:0:0:
224,160,86360,1,0,0:0:0:0:
224,160,86600,1,0,0:0:0:0:
288,160,86840,1,8,0:0:0:0:
288,160,87080,1,8,0:0:0:0:
288,160,87560,1,8,0:0:0:0:
288,160,87800,1,8,0:0:0:0:
288,160,88040,1,8,0:0:0:0:
288,160,88520,1,8,0:0:0:0:
288,160,88760,1,8,0:0:0:0:
288,160,89000,1,8,0:0:0:0:
224,160,89240,1,0,0:0:0:0:
288,224,89480,1,12,0:0:0:0:
288,224,89960,1,12,0:0:0:0:
288,224,90440,1,12,0:0:0:0:
224,160,90920,1,0,0:0:0:0:
288,160,91160,1,8,0:0:0:0:
224,160,91400,1,0,0:0:0:0:
288,160,91640,1,8,0:0:0:0:
288,160,91880,1,8,0:0:0:0:
288,160,92360,1,8,0:0:0:0:
288,160,92600,1,8,0:0:0:0:
224,160,92840,1,0,0:0:0:0:
288,160,93080,1,8,0:0:0:0:
224,160,93320,1,0,0:0:0:0:
288,160,93560,1,8,0:0:0:0:
288,160,93800,1,8,0:0:0:0:
224,160,94280,1,0,0:0:0:0:
224,160,94760,1,0,0:0:0:0:
288,160,95000,1,8,0:0:0:0:
288,160,95240,1,8,0:0:0:0:
288,160,95480,1,8,0:0:0:0:
224,160,95720,1,0,0:0:0:0:
224,160,96200,1,0,0:0:0:0:
288,160,96440,1,8,0:0:0:0:
288,160,96680,1,8,0:0:0:0:
224,160,96920,1,0,0:0:0:0:
288,224,97160,1,12,0:0:0:0:
288,224,97520,1,12,0:0:0:0:
288,224,97880,1,12,0:0:0:0:
224,160,98120,1,0,0:0:0:0:
224,160,98600,1,0,0:0:0:0:
288,160,98840,1,8,0:0:0:0:
288,160,99320,1,8,0:0:0:0:
224,160,99560,1,0,0:0:0:0:
288,160,99800,1,8,0:0:0:0:
224,160,100040,1,0,0:0:0:0:
288,160,100280,1,8,0:0:0:0:
224,160,100760,1,0,0:0:0:0:
288,160,101000,1,8,0:0:0:0:
224,160,101240,1,0,0:0:0:0:
224,160,101480,1,0,0:0:0:0:
224,160,101960,1,0,0:0:0:0:
224,160,102440,1,0,0:0:0:0:
224,160,102920,1,0,0:0:0:0:
288,160,103160,1,8,0:0:0:0:
288,160,103400,1,8,0:0:0:0:
288,160,103880,1,8,0:0:0:0:
288,160,104120,1,8,0:0:0:0:
288,160,104360,1,8,0:0:0:0:
288,224,104840,1,12,0:0:0:0:
288,224,105200,1,12,0:0:0:0:
288,224,105560,1,12,0:0:0:0:
224,224,105800,1,4,0:0:0:0:
288,160,106040,1,8,0:0:0:0:
224,160,106280,1,0,0:0:0:0:
224,160,106760,1,0,0:0:0:0:
288,160,107000,1,8,0:0:0:0:
224,160,107240,1,0,0:0:0:0:
224,160,107720,1,0,0:0:0:0:
288,160,107960,1,8,0:0:0:0:
224,160,108200,1,0,0:0:0:0:
224,160,108680,1,0,0:0:0:0:
288,160,108920,1,8,0:0:0:0:
224,160,109160,1,0,0:0:0:0:
224,160,109640,1,0,0:0:0:0:
288,160,109880,1,8,0:0:0:0:
224,160,110120,1,0,0:0:0:0:
224,160,110600,1,0,0:0:0:0:
288,160,110840,1,8,0:0:0:0:
224,160,111080,1,0,0:0:0:0:
224,160,111560,1,0,0:0:0:0:
288,160,112040,1,8,0:0:0:0:
288,224,112520,1,12,0:0:0:0:
288,224,112880,1,12,0:0:0:0:
288,224,113240,1,12,0:0:0:0:
224,224,113480,1,4,0:0:0:0:
288,160,113720,1,8,0:0:0:0:
224,160,113960,1,0,0:0:0:0:
288,160,114440,1,8,0:0:0:0:
288,160,114680,1,8,0:0:0:0:
224,160,114920,1,0,0:0:0:0:
224,160,115400,1,0,0:0:0:0:
288,160,115640,1,8,0:0:0:0:
224,160,115880,1,0,0:0:0:0:
288,160,116360,1,8,0:0:0:0:
288,160,116600,1,8,0:0:0:0:
224,160,116840,1,0,0:0:0:0:
224,160,117320,1,0,0:0:0:0:
288,160,117560,1,8,0:0:0:0:
224,160,117800,1,0,0:0:0:0:
288,160,118280,1,8,0:0:0:0:
288,160,118520,1,8,0:0:0:0:
224,160,118760,1,0,0:0:0:0:
224,160,119240,1,0,0:0:0:0:
288,160,119600,1,8,0:0:0:0:
288,160,119960,1,8,0:0:0:0:
288,160,120200,1,8,0:0:0:0:
288,160,120560,1,8,0:0:0:0:
224,160,120920,1,0,0:0:0:0:
288,224,121160,1,12,0:0:0:0:
288,160,121520,1,8,0:0:0:0:
288,160,121880,1,8,0:0:0:0:
288,160,122120,1,8,0:0:0:0:
288,160,122480,1,8,0:0:0:0:
224,160,122840,1,0,0:0:0:0:
288,224,123080,1,12,0:0:0:0:
288,160,124040,1,8,0:0:0:0:
224,160,124520,1,0,0:0:0:0:
288,224,125000,1,12,0:0:0:0:
