osu file format v13

[General]
AudioFilename: Intersect Thunderbolt.mp3
AudioLeadIn: 1500
PreviewTime: 9800
Countdown: 0
SampleSet: Normal
StackLeniency: 0.7
Mode: 1
LetterboxInBreaks: 0
WidescreenStoryboard: 0

[Editor]
Bookmarks: 200
DistanceSpacing: 1.2
BeatDivisor: 4
GridSize: 32
TimelineZoom: 3.399999

[Metadata]
Title:Intersect Thunderbolt-Remix
TitleUnicode:Intersect Thunderbolt-Remix
Artist:S.S.H.
ArtistUnicode:S.S.H.
Creator:Nwolf
Version:Exceed
Source:eXceed3rd-JADE PENETRATE-BLACK PACKAGE
Tags:Tennen Sozai Danmaku game Original Sound Track OST Saitama Saisyu Heiki SSH Stage 5 boss Lindwurm Celestia
BeatmapID:443657
BeatmapSetID:185613

[Difficulty]
HPDrainRate:5.8
CircleSize:4
OverallDifficulty:5.5
ApproachRate:8
SliderMultiplier:1.4
SliderTickRate:1

[Events]
//Background and Video events
0,0,"Exceed.jpg",0,0
//Break Periods
//Storyboard Layer 0 (Background)
//Storyboard Layer 1 (Fail)
//Storyboard Layer 2 (Pass)
//Storyboard Layer 3 (Foreground)
//Storyboard Sound Samples
//Background Colour Transformations
3,100,163,162,255

[TimingPoints]
200,240,4,1,0,85,1,0
200,-111.111111111111,4,1,0,85,0,0
9800,-100,4,1,0,85,0,1
40520,-100,4,1,0,85,0,0
90440,-94.3396226415094,4,1,0,85,0,1
125000,-94.3396226415094,4,1,0,85,0,0

[Colours]
Combo1 : 234,0,0
Combo2 : 234,117,0
Combo3 : 234,234,0

[HitObjects]
288,160,200,5,8,0:0:0:0:
224,160,320,1,0,0:0:0:0:
224,160,440,1,0,0:0:0:0:
288,160,560,1,8,0:0:0:0:
224,160,680,1,0,0:0:0:0:
224,160,800,1,0,0:0:0:0:
288,160,920,1,8,0:0:0:0:
224,160,1040,1,0,0:0:0:0:
224,160,1160,1,0,0:0:0:0:
288,160,1280,1,8,0:0:0:0:
224,160,1400,1,0,0:0:0:0:
224,160,1520,1,0,0:0:0:0:
288,160,1640,1,8,0:0:0:0:
224,160,1700,1,0,0:0:0:0:
224,160,1760,1,0,0:0:0:0:
224,160,1820,1,0,0:0:0:0:
288,160,1880,1,8,0:0:0:0:
224,160,2000,1,0,0:0:0:0:
288,224,2120,1,12,0:0:0:0:
224,160,2240,1,0,0:0:0:0:
288,160,2360,1,8,0:0:0:0:
288,160,2600,1,8,0:0:0:0:
224,160,2720,1,0,0:0:0:0:
288,160,2840,1,8,0:0:0:0:
288,160,2960,1,8,0:0:0:0:
288,160,3080,1,8,0:0:0:0:
224,160,3140,1,0,0:0:0:0:
288,160,3200,1,8,0:0:0:0:
288,160,3260,1,8,0:0:0:0:
224,160,3320,1,0,0:0:0:0:
224,160,3440,1,0,0:0:0:0:
288,160,3560,1,8,0:0:0:0:
224,160,3680,1,0,0:0:0:0:
224,224,3800,1,4,0:0:0:0:
288,224,4040,1,12,0:0:0:0:
224,160,4160,1,0,0:0:0:0:
288,160,4280,1,8,0:0:0:0:
224,160,4400,1,0,0:0:0:0:
288,160,4520,1,8,0:0:0:0:
224,160,4640,1,0,0:0:0:0:
224,160,4760,1,0,0:0:0:0:
224,160,4880,1,0,0:0:0:0:
288,160,5000,1,8,0:0:0:0:
224,160,5060,1,0,0:0:0:0:
224,160,5120,1,0,0:0:0:0:
288,160,5180,1,8,0:0:0:0:
288,160,5240,1,8,0:0:0:0:
288,160,5360,1,8,0:0:0:0:
224,160,5420,1,0,0:0:0:0:
288,160,5480,1,8,0:0:0:0:
224,160,5540,1,0,0:0:0:0:
224,160,5600,1,0,0:0:0:0:
224,160,5660,1,0,0:0:0:0:
288,160,5720,1,8,0:0:0:0:
288,224,5840,1,12,0:0:0:0:
288,224,5960,1,12,0:0:0:0:
224,160,6200,1,0,0:0:0:0:
224,160,6320,1,0,0:0:0:0:
288,160,6440,1,8,0:0:0:0:
224,160,6560,1,0,0:0:0:0:
288,160,6680,1,8,0:0:0:0:
224,160,6800,1,0,0:0:0:0:
288,160,6920,1,8,0:0:0:0:
224,160,6980,1,0,0:0:0:0:
288,160,7040,1,8,0:0:0:0:
288,160,7100,1,8,0:0:0:0:
224,160,7160,1,0,0:0:0:0:
224,160,7280,1,0,0:0:0:0:
288,160,7400,1,8,0:0:0:0:
224,160,7520,1,0,0:0:0:0:
224,224,7640,1,4,0:0:0:0:
288,224,7880,1,12,0:0:0:0:
224,160,8000,1,0,0:0:0:0:
288,160,8120,1,8,0:0:0:0:
224,160,8240,1,0,0:0:0:0:
288,160,8360,1,8,0:0:0:0:
224,160,8480,1,0,0:0:0:0:
288,224,8600,1,12,0:0:0:0:
288,160,8840,1,8,0:0:0:0:
224,160,8900,1,0,0:0:0:0:
224,160,8960,1,0,0:0:0:0:
224,160,9080,1,0,0:0:0:0:
288,160,9200,1,8,0:0:0:0:
224,160,9260,1,0,0:0:0:0:
224,160,9320,1,0,0:0:0:0:
224,160,9440,1,0,0:0:0:0:
288,160,9560,1,8,0:0:0:0:
224,160,9620,1,0,0:0:0:0:
224,160,9680,1,0,0:0:0:0:
288,224,9800,1,12,0:0:0:0:
224,160,9920,1,0,0:0:0:0:
288,160,10040,1,8,0:0:0:0:
288,160,10160,1,8,0:0:0:0:
224,160,10280,1,0,0:0:0:0:
224,160,10400,1,0,0:0:0:0:
288,160,10520,1,8,0:0:0:0:
224,160,10640,1,0,0:0:0:0:
288,160,10760,1,8,0:0:0:0:
224,160,10880,1,0,0:0:0:0:
288,160,11000,1,8,0:0:0:0:
224,160,11120,1,0,0:0:0:0:
288,160,11240,1,8,0:0:0:0:
224,160,11360,1,0,0:0:0:0:
288,160,11480,1,8,0:0:0:0:
224,160,11600,1,0,0:0:0:0:
288,160,11720,1,8,0:0:0:0:
224,160,11840,1,0,0:0:0:0:
288,160,11960,1,8,0:0:0:0:
288,160,12080,1,8,0:0:0:0:
288,160,12200,1,8,0:0:0:0:
224,160,12320,1,0,0:0:0:0:
288,160,12440,1,8,0:0:0:0:
224,160,12560,1,0,0:0:0:0:
288,160,12680,1,8,0:0:0:0:
224,160,12800,1,0,0:0:0:0:
288,160,12920,1,8,0:0:0:0:
224,160,13040,1,0,0:0:0:0:
288,160,13160,1,8,0:0:0:0:
224,160,13280,1,0,0:0:0:0:
288,160,13400,1,8,0:0:0:0:
224,160,13520,1,0,0:0:0:0:
224,160,13640,1,0,0:0:0:0:
224,160,13760,1,0,0:0:0:0:
288,160,13880,1,8,0:0:0:0:
288,160,14000,1,8,0:0:0:0:
224,160,14120,1,0,0:0:0:0:
224,160,14240,1,0,0:0:0:0:
288,160,14360,1,8,0:0:0:0:
288,160,14480,1,8,0:0:0:0:
288,160,14600,1,8,0:0:0:0:
224,160,14720,1,0,0:0:0:0:
288,160,14840,1,8,0:0:0:0:
224,160,14960,1,0,0:0:0:0:
288,160,15080,1,8,0:0:0:0:
224,160,15200,1,0,0:0:0:0:
288,160,15320,1,8,0:0:0:0:
224,160,15440,1,0,0:0:0:0:
224,160,15560,1,0,0:0:0:0:
224,160,15680,1,0,0:0:0:0:
288,160,15800,1,8,0:0:0:0:
288,160,15920,1,8,0:0:0:0:
224,160,16040,1,0,0:0:0:0:
288,160,16160,1,8,0:0:0:0:
288,160,16280,1,8,0:0:0:0:
224,160,16400,1,0,0:0:0:0:
288,160,16520,1,8,0:0:0:0:
224,160,16640,1,0,0:0:0:0:
288,160,16760,1,8,0:0:0:0:
224,160,16880,1,0,0:0:0:0:
288,160,17000,1,8,0:0:0:0:
224,160,17120,1,0,0:0:0:0:
288,160,17240,1,8,0:0:0:0:
224,160,17360,1,0,0:0:0:0:
224,160,17480,1,0,0:0:0:0:
224,160,17600,1,0,0:0:0:0:
288,224,17720,1,12,0:0:0:0:
224,160,17960,1,0,0:0:0:0:
224,160,18080,1,0,0:0:0:0:
288,160,18200,1,8,0:0:0:0:
224,160,18320,1,0,0:0:0:0:
288,160,18440,1,8,0:0:0:0:
224,160,18560,1,0,0:0:0:0:
288,160,18680,1,8,0:0:0:0:
224,160,18800,1,0,0:0:0:0:
288,160,18920,1,8,0:0:0:0:
224,160,19040,1,0,0:0:0:0:
288,160,19160,1,8,0:0:0:0:
224,160,19280,1,0,0:0:0:0:
224,160,19400,1,0,0:0:0:0:
288,160,19520,1,8,0:0:0:0:
288,160,19640,1,8,0:0:0:0:
224,160,19760,1,0,0:0:0:0:
224,160,19880,1,0,0:0:0:0:
288,160,20000,1,8,0:0:0:0:
288,160,20120,1,8,0:0:0:0:
224,160,20240,1,0,0:0:0:0:
288,160,20360,1,8,0:0:0:0:
224,160,20480,1,0,0:0:0:0:
288,160,20600,1,8,0:0:0:0:
224,160,20720,1,0,0:0:0:0:
288,160,20840,1,8,0:0:0:0:
224,160,20960,1,0,0:0:0:0:
288,160,21080,1,8,0:0:0:0:
224,160,21200,1,0,0:0:0:0:
288,160,21320,1,8,0:0:0:0:
224,160,21440,1,0,0:0:0:0:
288,160,21560,1,8,0:0:0:0:
288,160,21680,1,8,0:0:0:0:
288,160,21800,1,8,0:0:0:0:
224,160,21920,1,0,0:0:0:0:
288,160,22040,1,8,0:0:0:0:
224,160,22160,1,0,0:0:0:0:
288,160,22280,1,8,0:0:0:0:
224,160,22400,1,0,0:0:0:0:
288,224,22520,1,12,0:0:0:0:
288,160,22760,1,8,0:0:0:0:
224,160,22880,1,0,0:0:0:0:
288,160,23000,1,8,0:0:0:0:
224,160,23120,1,0,0:0:0:0:
288,160,23240,1,8,0:0:0:0:
288,224,23360,1,12,0:0:0:0:
224,160,23480,1,0,0:0:0:0:
224,160,23600,1,0,0:0:0:0:
288,160,23720,1,8,0:0:0:0:
224,160,23840,1,0,0:0:0:0:
288,160,23960,1,8,0:0:0:0:
224,160,24080,1,0,0:0:0:0:
288,160,24200,1,8,0:0:0:0:
224,160,24260,1,0,0:0:0:0:
224,160,24320,1,0,0:0:0:0:
224,160,24380,1,0,0:0:0:0:
288,160,24440,1,8,0:0:0:0:
224,160,24560,1,0,0:0:0:0:
224,160,24620,1,0,0:0:0:0:
288,160,24680,1,8,0:0:0:0:
224,160,24800,1,0,0:0:0:0:
288,160,24920,1,8,0:0:0:0:
224,160,24980,1,0,0:0:0:0:
224,160,25040,1,0,0:0:0:0:
288,160,25160,1,8,0:0:0:0:
224,160,25280,1,0,0:0:0:0:
288,160,25400,1,8,0:0:0:0:
288,160,25520,1,8,0:0:0:0:
224,160,25640,1,0,0:0:0:0:
288,160,25760,1,8,0:0:0:0:
288,160,25880,1,8,0:0:0:0:
224,160,26000,1,0,0:0:0:0:
288,160,26120,1,8,0:0:0:0:
224,160,26240,1,0,0:0:0:0:
288,160,26360,1,8,0:0:0:0:
224,160,26480,1,0,0:0:0:0:
288,160,26600,1,8,0:0:0:0:
224,160,26720,1,0,0:0:0:0:
288,160,26840,1,8,0:0:0:0:
224,160,26960,1,0,0:0:0:0:
288,160,27080,1,8,0:0:0:0:
224,160,27200,1,0,0:0:0:0:
288,160,27320,1,8,0:0:0:0:
288,160,27440,1,8,0:0:0:0:
224,160,27560,1,0,0:0:0:0:
224,160,27680,1,0,0:0:0:0:
288,160,27800,1,8,0:0:0:0:
224,160,27920,1,0,0:0:0:0:
288,160,28040,1,8,0:0:0:0:
224,160,28160,1,0,0:0:0:0:
288,160,28280,1,8,0:0:0:0:
224,160,28400,1,0,0:0:0:0:
288,160,28520,1,8,0:0:0:0:
224,160,28640,1,0,0:0:0:0:
288,160,28760,1,8,0:0:0:0:
224,160,28880,1,0,0:0:0:0:
224,160,29000,1,0,0:0:0:0:
224,160,29120,1,0,0:0:0:0:
288,160,29240,1,8,0:0:0:0:
288,160,29360,1,8,0:0:0:0:
224,160,29480,1,0,0:0:0:0:
224,160,29600,1,0,0:0:0:0:
288,160,29720,1,8,0:0:0:0:
288,160,29840,1,8,0:0:0:0:
288,160,29960,1,8,0:0:0:0:
224,160,30080,1,0,0:0:0:0:
288,160,30200,1,8,0:0:0:0:
224,160,30320,1,0,0:0:0:0:
288,160,30440,1,8,0:0:0:0:
224,160,30560,1,0,0:0:0:0:
288,160,30680,1,8,0:0:0:0:
224,160,30800,1,0,0:0:0:0:
224,160,30920,1,0,0:0:0:0:
224,160,31040,1,0,0:0:0:0:
288,160,31160,1,8,0:0:0:0:
288,160,31280,1,8,0:0:0:0:
288,160,31400,1,8,0:0:0:0:
224,160,31520,1,0,0:0:0:0:
288,160,31640,1,8,0:0:0:0:
224,160,31760,1,0,0:0:0:0:
288,160,31880,1,8,0:0:0:0:
224,160,32000,1,0,0:0:0:0:
288,160,32120,1,8,0:0:0:0:
224,160,32240,1,0,0:0:0:0:
288,160,32360,1,8,0:0:0:0:
224,160,32480,1,0,0:0:0:0:
288,160,32600,1,8,0:0:0:0:
224,160,32720,1,0,0:0:0:0:
224,160,32840,1,0,0:0:0:0:
224,160,32960,1,0,0:0:0:0:
288,224,33080,1,12,0:0:0:0:
224,160,33320,1,0,0:0:0:0:
224,160,33440,1,0,0:0:0:0:
288,160,33560,1,8,0:0:0:0:
224,160,33680,1,0,0:0:0:0:
288,160,33800,1,8,0:0:0:0:
224,160,33920,1,0,0:0:0:0:
288,160,34040,1,8,0:0:0:0:
224,160,34160,1,0,0:0:0:0:
288,160,34280,1,8,0:0:0:0:
224,160,34400,1,0,0:0:0:0:
288,160,34520,1,8,0:0:0:0:
224,160,34640,1,0,0:0:0:0:
224,160,34760,1,0,0:0:0:0:
288,160,34880,1,0,0:0:0:0:
288,160,35000,1,8,0:0:0:0:
224,160,35120,1,0,0:0:0:0:
224,160,35240,1,0,0:0:0:0:
288,160,35360,1,8,0:0:0:0:
288,160,35480,1,8,0:0:0:0:
224,160,35600,1,0,0:0:0:0:
288,160,35720,1,8,0:0:0:0:
224,160,35840,1,0,0:0:0:0:
288,160,35960,1,8,0:0:0:0:
224,160,36080,1,0,0:0:0:0:
288,160,36200,1,8,0:0:0:0:
224,160,36320,1,0,0:0:0:0:
288,160,36440,1,8,0:0:0:0:
224,160,36560,1,0,0:0:0:0:
288,160,36680,1,8,0:0:0:0:
224,160,36800,1,0,0:0:0:0:
288,224,36920,1,12,0:0:0:0:
288,160,37160,1,8,0:0:0:0:
224,160,37280,1,0,0:0:0:0:
224,160,37400,1,0,0:0:0:0:
288,160,37520,1,8,0:0:0:0:
288,160,37640,1,8,0:0:0:0:
224,160,37760,1,0,0:0:0:0:
288,224,37880,1,12,0:0:0:0:
224,160,38120,1,0,0:0:0:0:
224,160,38240,1,0,0:0:0:0:
288,160,38360,1,8,0:0:0:0:
224,160,38480,1,0,0:0:0:0:
288,160,38600,1,8,0:0:0:0:
288,224,38720,1,12,0:0:0:0:
224,160,38840,1,0,0:0:0:0:
224,160,38960,1,0,0:0:0:0:
288,224,39080,1,12,0:0:0:0:
224,160,39200,1,0,0:0:0:0:
288,224,39320,1,12,0:0:0:0:
224,160,39440,1,0,0:0:0:0:
288,160,39560,1,8,0:0:0:0:
224,160,39620,1,0,0:0:0:0:
224,160,39680,1,0,0:0:0:0:
224,160,39740,1,0,0:0:0:0:
288,160,39800,1,8,0:0:0:0:
224,160,39920,1,0,0:0:0:0:
224,160,40040,1,0,0:0:0:0:
224,160,40100,1,0,0:0:0:0:
224,160,40160,1,0,0:0:0:0:
224,160,40220,1,0,0:0:0:0:
288,160,40280,1,8,0:0:0:0:
224,160,40400,1,0,0:0:0:0:
288,160,40520,5,8,0:0:0:0:
224,160,40640,1,0,0:0:0:0:
288,160,40760,1,8,0:0:0:0:
224,160,40880,1,0,0:0:0:0:
288,160,41000,1,8,0:0:0:0:
288,160,41240,1,8,0:0:0:0:
224,160,41360,1,0,0:0:0:0:
288,160,41480,1,8,0:0:0:0:
224,160,41600,1,0,0:0:0:0:
224,160,41720,1,0,0:0:0:0:
288,160,41840,1,8,0:0:0:0:
224,160,41960,1,0,0:0:0:0:
288,160,42080,1,8,0:0:0:0:
288,160,42200,1,8,0:0:0:0:
224,160,42320,1,0,0:0:0:0:
288,160,42440,1,8,0:0:0:0:
224,160,42560,1,0,0:0:0:0:
288,160,42680,1,8,0:0:0:0:
288,160,42800,1,8,0:0:0:0:
288,160,42920,1,8,0:0:0:0:
224,160,43040,1,0,0:0:0:0:
224,160,43160,1,0,0:0:0:0:
288,160,43280,1,8,0:0:0:0:
288,160,43400,1,8,0:0:0:0:
224,160,43520,1,0,0:0:0:0:
224,160,43640,1,0,0:0:0:0:
288,160,43760,1,8,0:0:0:0:
224,160,43880,1,0,0:0:0:0:
288,160,44000,1,8,0:0:0:0:
288,160,44120,1,8,0:0:0:0:
224,160,44240,1,0,0:0:0:0:
224,160,44360,1,0,0:0:0:0:
224,160,44480,1,0,0:0:0:0:
288,160,44600,1,8,0:0:0:0:
224,160,44720,1,0,0:0:0:0:
288,160,44840,1,8,0:0:0:0:
224,160,44960,1,0,0:0:0:0:
288,160,45080,1,8,0:0:0:0:
288,160,45200,1,8,0:0:0:0:
288,160,45320,1,8,0:0:0:0:
224,160,45440,1,0,0:0:0:0:
288,160,45560,1,8,0:0:0:0:
288,160,45680,1,8,0:0:0:0:
224,160,45800,1,0,0:0:0:0:
288,160,45920,1,8,0:0:0:0:
288,160,46040,1,8,0:0:0:0:
224,160,46160,1,0,0:0:0:0:
288,160,46280,1,8,0:0:0:0:
224,160,46400,1,0,0:0:0:0:
288,224,46520,1,12,0:0:0:0:
224,160,46760,1,0,0:0:0:0:
224,160,46880,1,0,0:0:0:0:
288,224,47000,1,12,0:0:0:0:
224,160,47240,1,0,0:0:0:0:
224,160,47360,1,0,0:0:0:0:
288,224,47480,1,12,0:0:0:0:
288,224,47720,1,12,0:0:0:0:
224,160,47840,1,0,0:0:0:0:
288,224,47960,1,12,0:0:0:0:
224,160,48080,1,0,0:0:0:0:
288,160,48200,1,8,0:0:0:0:
224,160,48320,1,0,0:0:0:0:
288,160,48440,1,8,0:0:0:0:
224,160,48560,1,0,0:0:0:0:
224,160,48620,1,0,0:0:0:0:
288,160,48680,1,8,0:0:0:0:
224,160,48740,1,0,0:0:0:0:
224,160,48800,1,0,0:0:0:0:
224,160,48860,1,0,0:0:0:0:
224,160,48920,1,0,0:0:0:0:
288,160,49040,1,8,0:0:0:0:
288,160,49160,1,8,0:0:0:0:
224,160,49280,1,0,0:0:0:0:
288,160,49400,1,8,0:0:0:0:
288,160,49520,1,8,0:0:0:0:
288,160,49640,1,8,0:0:0:0:
224,160,49760,1,0,0:0:0:0:
288,160,49880,1,8,0:0:0:0:
224,160,50000,1,0,0:0:0:0:
224,160,50120,1,0,0:0:0:0:
288,160,50240,1,8,0:0:0:0:
288,160,50360,1,8,0:0:0:0:
224,160,50480,1,0,0:0:0:0:
288,160,50600,1,8,0:0:0:0:
224,160,50720,1,0,0:0:0:0:
288,160,50840,1,8,0:0:0:0:
288,160,50960,1,8,0:0:0:0:
288,160,51080,1,8,0:0:0:0:
224,160,51200,1,0,0:0:0:0:
288,160,51320,1,8,0:0:0:0:
288,160,51440,1,8,0:0:0:0:
224,160,51560,1,0,0:0:0:0:
288,160,51680,1,8,0:0:0:0:
224,160,51800,1,0,0:0:0:0:
288,160,51920,1,8,0:0:0:0:
288,160,52040,1,8,0:0:0:0:
224,160,52160,1,0,0:0:0:0:
288,224,52280,1,12,0:0:0:0:
224,160,52400,1,0,0:0:0:0:
288,160,52520,1,8,0:0:0:0:
288,160,52760,1,8,0:0:0:0:
224,160,52880,1,0,0:0:0:0:
288,160,53000,1,8,0:0:0:0:
224,160,53120,1,0,0:0:0:0:
288,160,53240,1,8,0:0:0:0:
224,160,53360,1,0,0:0:0:0:
288,160,53480,1,8,0:0:0:0:
288,160,53600,1,8,0:0:0:0:
288,160,53720,1,8,0:0:0:0:
224,160,53840,1,0,0:0:0:0:
288,160,53960,1,8,0:0:0:0:
224,160,54080,1,0,0:0:0:0:
288,160,54200,1,8,0:0:0:0:
224,160,54260,1,0,0:0:0:0:
224,160,54320,1,0,0:0:0:0:
224,160,54380,1,0,0:0:0:0:
288,160,54440,1,8,0:0:0:0:
224,160,54560,1,0,0:0:0:0:
288,160,54680,1,8,0:0:0:0:
224,160,54800,1,0,0:0:0:0:
288,160,54920,1,8,0:0:0:0:
288,160,54980,1,8,0:0:0:0:
224,160,55040,1,0,0:0:0:0:
288,160,55160,1,8,0:0:0:0:
224,160,55280,1,0,0:0:0:0:
288,224,55400,1,12,0:0:0:0:
288,224,55640,1,12,0:0:0:0:
288,160,55880,1,8,0:0:0:0:
224,160,56000,1,0,0:0:0:0:
288,160,56120,1,8,0:0:0:0:
288,160,56240,1,8,0:0:0:0:
288,160,56360,1,8,0:0:0:0:
224,160,56480,1,0,0:0:0:0:
288,160,56600,1,8,0:0:0:0:
224,160,56720,1,0,0:0:0:0:
288,160,56840,1,8,0:0:0:0:
224,160,56960,1,0,0:0:0:0:
224,160,57020,1,0,0:0:0:0:
288,160,57080,1,8,0:0:0:0:
288,160,57200,1,8,0:0:0:0:
224,160,57260,1,0,0:0:0:0:
224,160,57320,1,0,0:0:0:0:
224,160,57440,1,0,0:0:0:0:
224,160,57500,1,0,0:0:0:0:
288,160,57560,1,8,0:0:0:0:
224,160,57680,1,0,0:0:0:0:
288,224,57800,1,12,0:0:0:0:
224,160,57920,1,0,0:0:0:0:
288,160,58040,1,8,0:0:0:0:
224,160,58160,1,0,0:0:0:0:
224,160,58400,1,0,0:0:0:0:
288,160,58520,1,8,0:0:0:0:
288,160,58760,1,8,0:0:0:0:
224,160,58880,1,0,0:0:0:0:
224,160,59000,1,0,0:0:0:0:
288,160,59120,1,8,0:0:0:0:
224,160,59240,1,0,0:0:0:0:
288,160,59480,1,8,0:0:0:0:
288,160,59720,1,8,0:0:0:0:
224,160,59840,1,0,0:0:0:0:
288,160,59960,1,8,0:0:0:0:
288,160,60080,1,8,0:0:0:0:
224,160,60200,1,0,0:0:0:0:
224,160,60320,1,0,0:0:0:0:
288,160,60440,1,8,0:0:0:0:
288,160,60680,1,8,0:0:0:0:
224,160,60800,1,0,0:0:0:0:
224,160,60920,1,0,0:0:0:0:
288,160,61040,1,8,0:0:0:0:
224,160,61160,1,0,0:0:0:0:
288,160,61400,1,8,0:0:0:0:
288,160,61640,1,8,0:0:0:0:
224,160,61760,1,0,0:0:0:0:
288,160,61880,1,8,0:0:0:0:
288,160,62000,1,8,0:0:0:0:
224,160,62120,1,0,0:0:0:0:
288,160,62240,1,8,0:0:0:0:
288,160,62360,1,8,0:0:0:0:
288,160,62600,1,8,0:0:0:0:
224,160,62720,1,0,0:0:0:0:
288,160,62840,1,8,0:0:0:0:
288,160,62960,1,8,0:0:0:0:
224,160,63080,1,0,0:0:0:0:
288,160,63320,1,8,0:0:0:0:
288,160,63560,1,8,0:0:0:0:
224,160,63680,1,0,0:0:0:0:
288,224,63800,1,12,0:0:0:0:
288,160,63920,1,8,0:0:0:0:
224,160,64040,1,0,0:0:0:0:
224,160,64160,1,0,0:0:0:0:
288,160,64280,1,8,0:0:0:0:
288,160,64520,1,8,0:0:0:0:
224,160,64640,1,0,0:0:0:0:
288,224,64760,1,12,0:0:0:0:
288,160,64880,1,8,0:0:0:0:
224,160,65120,1,0,0:0:0:0:
288,160,65240,1,8,0:0:0:0:
288,224,65480,1,12,0:0:0:0:
224,160,65600,1,0,0:0:0:0:
288,224,65720,1,12,0:0:0:0:
224,160,65840,1,0,0:0:0:0:
224,160,66080,1,0,0:0:0:0:
288,160,66200,1,8,0:0:0:0:
288,160,66440,1,8,0:0:0:0:
224,160,66560,1,0,0:0:0:0:
224,160,66680,1,0,0:0:0:0:
288,160,66800,1,8,0:0:0:0:
224,160,66920,1,0,0:0:0:0:
288,160,67160,1,8,0:0:0:0:
288,160,67400,1,8,0:0:0:0:
224,160,67520,1,0,0:0:0:0:
288,160,67640,1,8,0:0:0:0:
288,160,67760,1,8,0:0:0:0:
224,160,67880,1,0,0:0:0:0:
224,160,68000,1,0,0:0:0:0:
288,160,68120,1,8,0:0:0:0:
288,160,68360,1,8,0:0:0:0:
224,160,68480,1,0,0:0:0:0:
224,160,68600,1,0,0:0:0:0:
288,160,68720,1,8,0:0:0:0:
224,160,68840,1,0,0:0:0:0:
288,160,69080,1,8,0:0:0:0:
288,160,69320,1,8,0:0:0:0:
224,160,69440,1,0,0:0:0:0:
288,160,69560,1,8,0:0:0:0:
288,160,69680,1,8,0:0:0:0:
224,160,69800,1,0,0:0:0:0:
288,160,69920,1,8,0:0:0:0:
288,160,70040,1,8,0:0:0:0:
288,160,70280,1,8,0:0:0:0:
224,160,70400,1,0,0:0:0:0:
288,160,70520,1,8,0:0:0:0:
288,160,70640,1,8,0:0:0:0:
224,160,70760,1,0,0:0:0:0:
288,160,71000,1,8,0:0:0:0:
288,160,71240,1,8,0:0:0:0:
224,160,71360,1,0,0:0:0:0:
288,224,71480,1,12,0:0:0:0:
288,160,71600,1,8,0:0:0:0:
224,160,71720,1,0,0:0:0:0:
224,160,71840,1,0,0:0:0:0:
288,224,71960,1,12,0:0:0:0:
288,160,72200,1,8,0:0:0:0:
224,160,72320,1,0,0:0:0:0:
288,160,72440,1,8,0:0:0:0:
288,160,72560,1,8,0:0:0:0:
224,160,72680,1,0,0:0:0:0:
224,160,72740,1,0,0:0:0:0:
224,160,72800,1,0,0:0:0:0:
224,160,72860,1,0,0:0:0:0:
288,160,72920,1,8,0:0:0:0:
224,160,73040,1,0,0:0:0:0:
288,224,73160,1,12,0:0:0:0:
256,192,73280,12,0,74000,0:0:0:0:
288,160,74120,5,8,0:0:0:0:
224,160,74180,1,0,0:0:0:0:
224,160,74240,1,0,0:0:0:0:
224,160,74360,1,0,0:0:0:0:
288,160,74480,1,8,0:0:0:0:
224,160,74540,1,0,0:0:0:0:
224,160,74600,1,0,0:0:0:0:
224,160,74720,1,0,0:0:0:0:
288,160,74840,1,8,0:0:0:0:
224,160,74900,1,0,0:0:0:0:
224,160,74960,1,0,0:0:0:0:
224,160,75020,1,0,0:0:0:0:
288,160,75080,1,8,0:0:0:0:
288,160,75140,1,8,0:0:0:0:
288,160,75200,1,8,0:0:0:0:
224,160,75320,1,0,0:0:0:0:
224,160,75440,1,0,0:0:0:0:
288,160,75560,1,8,0:0:0:0:
288,160,75800,1,8,0:0:0:0:
224,160,75920,1,0,0:0:0:0:
288,160,76040,1,8,0:0:0:0:
224,160,76160,1,0,0:0:0:0:
224,160,76280,1,0,0:0:0:0:
224,160,76400,1,0,0:0:0:0:
288,160,76520,1,8,0:0:0:0:
288,160,76580,1,8,0:0:0:0:
224,160,76640,1,0,0:0:0:0:
224,160,76760,1,0,0:0:0:0:
288,160,76880,1,8,0:0:0:0:
288,160,77000,1,8,0:0:0:0:
288,160,77080,1,8,0:0:0:0:
224,160,77160,1,0,0:0:0:0:
288,160,77240,1,8,0:0:0:0:
224,160,77320,1,0,0:0:0:0:
288,160,77400,1,8,0:0:0:0:
288,160,77480,1,8,0:0:0:0:
224,160,77560,1,0,0:0:0:0:
224,160,77640,1,0,0:0:0:0:
288,160,77720,1,8,0:0:0:0:
224,160,77840,1,0,0:0:0:0:
288,160,77960,1,8,0:0:0:0:
224,160,78080,1,0,0:0:0:0:
224,160,78140,1,0,0:0:0:0:
288,160,78200,1,8,0:0:0:0:
224,160,78260,1,0,0:0:0:0:
288,160,78320,1,8,0:0:0:0:
288,160,78380,1,8,0:0:0:0:
288,160,78440,1,8,0:0:0:0:
224,160,78500,1,0,0:0:0:0:
224,160,78560,1,0,0:0:0:0:
224,160,78620,1,0,0:0:0:0:
224,160,78680,1,0,0:0:0:0:
224,160,78740,1,0,0:0:0:0:
288,160,78800,1,8,0:0:0:0:
288,160,78860,1,8,0:0:0:0:
288,160,78920,1,8,0:0:0:0:
224,160,78980,1,0,0:0:0:0:
224,160,79040,1,0,0:0:0:0:
224,160,79100,1,0,0:0:0:0:
224,160,79160,1,0,0:0:0:0:
224,160,79220,1,0,0:0:0:0:
288,160,79280,1,8,0:0:0:0:
224,160,79340,1,0,0:0:0:0:
288,160,79400,1,8,0:0:0:0:
224,160,79520,1,0,0:0:0:0:
288,160,79640,1,8,0:0:0:0:
224,160,79760,1,0,0:0:0:0:
288,160,79880,1,8,0:0:0:0:
224,160,79940,1,0,0:0:0:0:
224,160,80000,1,0,0:0:0:0:
224,160,80120,1,0,0:0:0:0:
288,160,80240,1,8,0:0:0:0:
224,160,80300,1,0,0:0:0:0:
224,160,80360,1,0,0:0:0:0:
224,160,80480,1,0,0:0:0:0:
288,160,80600,1,8,0:0:0:0:
288,160,80720,1,8,0:0:0:0:
288,160,80780,1,8,0:0:0:0:
288,160,80840,1,8,0:0:0:0:
224,160,80920,1,0,0:0:0:0:
224,160,81000,1,0,0:0:0:0:
288,160,81080,1,8,0:0:0:0:
224,160,81160,1,0,0:0:0:0:
224,160,81240,1,0,0:0:0:0:
288,160,81320,1,8,0:0:0:0:
224,160,81400,1,0,0:0:0:0:
224,160,81480,1,0,0:0:0:0:
288,160,81560,1,8,0:0:0:0:
224,160,81640,1,0,0:0:0:0:
224,160,81720,1,0,0:0:0:0:
288,160,81800,1,8,0:0:0:0:
224,160,81880,1,0,0:0:0:0:
288,160,81960,1,8,0:0:0:0:
224,160,82040,1,0,0:0:0:0:
224,160,82120,1,0,0:0:0:0:
288,160,82200,1,8,0:0:0:0:
288,160,82280,1,8,0:0:0:0:
224,160,82360,1,0,0:0:0:0:
224,160,82440,1,0,0:0:0:0:
288,160,82520,1,8,0:0:0:0:
224,160,82600,1,0,0:0:0:0:
288,160,82680,1,8,0:0:0:0:
288,160,82760,1,8,0:0:0:0:
224,160,83000,1,0,0:0:0:0:
224,160,83120,1,0,0:0:0:0:
288,160,83240,1,8,0:0:0:0:
288,160,83480,1,8,0:0:0:0:
224,160,83600,1,0,0:0:0:0:
288,160,83720,1,8,0:0:0:0:
224,160,83840,1,0,0:0:0:0:
288,160,83960,1,8,0:0:0:0:
224,160,84080,1,0,0:0:0:0:
224,160,84140,1,0,0:0:0:0:
288,160,84200,1,8,0:0:0:0:
224,160,84320,1,0,0:0:0:0:
288,160,84380,1,8,0:0:0:0:
288,160,84440,1,8,0:0:0:0:
224,160,84560,1,0,0:0:0:0:
224,160,84680,1,0,0:0:0:0:
288,160,84920,1,8,0:0:0:0:
224,160,85040,1,0,0:0:0:0:
224,160,85160,1,0,0:0:0:0:
288,160,85280,1,8,0:0:0:0:
288,160,85400,1,8,0:0:0:0:
288,160,85460,1,8,0:0:0:0:
224,160,85520,1,0,0:0:0:0:
288,160,85640,1,8,0:0:0:0:
224,160,85720,1,0,0:0:0:0:
224,160,85800,1,0,0:0:0:0:
288,160,85880,1,8,0:0:0:0:
224,160,86000,1,0,0:0:0:0:
288,160,86120,1,8,0:0:0:0:
288,160,86200,1,8,0:0:0:0:
224,160,86280,1,0,0:0:0:0:
224,160,86360,1,0,0:0:0:0:
224,160,86440,1,0,0:0:0:0:
224,160,86520,1,0,0:0:0:0:
224,160,86600,1,0,0:0:0:0:
288,160,86720,1,8,0:0:0:0:
288,160,86780,1,8,0:0:0:0:
288,160,86840,1,8,0:0:0:0:
288,160,86960,1,8,0:0:0:0:
224,160,87020,1,0,0:0:0:0:
224,160,87080,1,0,0:0:0:0:
288,160,87200,1,8,0:0:0:0:
288,160,87260,1,8,0:0:0:0:
288,160,87320,1,8,0:0:0:0:
288,160,87440,1,8,0:0:0:0:
224,160,87500,1,0,0:0:0:0:
224,160,87560,1,0,0:0:0:0:
288,160,87680,1,8,0:0:0:0:
288,160,87740,1,8,0:0:0:0:
288,160,87800,1,8,0:0:0:0:
288,160,87920,1,8,0:0:0:0:
224,160,87980,1,0,0:0:0:0:
224,160,88040,1,0,0:0:0:0:
288,160,88160,1,8,0:0:0:0:
288,160,88220,1,8,0:0:0:0:
288,160,88280,1,8,0:0:0:0:
288,160,88400,1,8,0:0:0:0:
224,160,88460,1,0,0:0:0:0:
224,160,88520,1,0,0:0:0:0:
224,160,88600,1,0,0:0:0:0:
224,160,88680,1,0,0:0:0:0:
288,160,88760,1,8,0:0:0:0:
224,160,88840,1,0,0:0:0:0:
224,160,88920,1,0,0:0:0:0:
288,160,89000,1,8,0:0:0:0:
224,160,89080,1,0,0:0:0:0:
224,160,89160,1,0,0:0:0:0:
224,160,89240,1,0,0:0:0:0:
224,160,89320,1,0,0:0:0:0:
288,160,89400,1,8,0:0:0:0:
288,160,89480,1,8,0:0:0:0:
224,160,89540,1,0,0:0:0:0:
224,160,89600,1,0,0:0:0:0:
224,160,89660,1,0,0:0:0:0:
288,160,89720,1,8,0:0:0:0:
288,160,89780,1,8,0:0:0:0:
224,160,89840,1,0,0:0:0:0:
224,160,89900,1,0,0:0:0:0:
288,160,89960,1,8,0:0:0:0:
224,160,90080,1,0,0:0:0:0:
288,224,90200,1,12,0:0:0:0:
288,224,90440,5,12,0:0:0:0:
224,160,90560,1,0,0:0:0:0:
288,160,90680,1,8,0:0:0:0:
288,160,90800,1,8,0:0:0:0:
224,160,90920,1,0,0:0:0:0:
224,160,91040,1,0,0:0:0:0:
288,160,91160,1,8,0:0:0:0:
224,160,91280,1,0,0:0:0:0:
288,160,91400,1,8,0:0:0:0:
224,160,91520,1,0,0:0:0:0:
288,160,91640,1,8,0:0:0:0:
224,160,91760,1,0,0:0:0:0:
288,160,91880,1,8,0:0:0:0:
224,160,92000,1,0,0:0:0:0:
224,160,92060,1,0,0:0:0:0:
288,160,92120,1,8,0:0:0:0:
224,160,92240,1,0,0:0:0:0:
288,160,92360,1,8,0:0:0:0:
224,160,92480,1,0,0:0:0:0:
288,160,92600,1,8,0:0:0:0:
288,160,92720,1,8,0:0:0:0:
288,160,92840,1,8,0:0:0:0:
224,160,92960,1,0,0:0:0:0:
288,160,93080,1,8,0:0:0:0:
224,160,93200,1,0,0:0:0:0:
288,160,93320,1,8,0:0:0:0:
224,160,93440,1,0,0:0:0:0:
288,160,93560,1,8,0:0:0:0:
224,160,93680,1,0,0:0:0:0:
288,160,93800,1,8,0:0:0:0:
224,160,93920,1,0,0:0:0:0:
288,160,94040,1,8,0:0:0:0:
224,160,94160,1,0,0:0:0:0:
224,160,94280,1,0,0:0:0:0:
224,160,94400,1,0,0:0:0:0:
288,160,94520,1,8,0:0:0:0:
288,160,94640,1,8,0:0:0:0:
224,160,94760,1,0,0:0:0:0:
224,160,94880,1,0,0:0:0:0:
288,160,95000,1,8,0:0:0:0:
288,160,95120,1,8,0:0:0:0:
288,160,95240,1,8,0:0:0:0:
224,160,95360,1,0,0:0:0:0:
288,160,95480,1,8,0:0:0:0:
224,160,95600,1,0,0:0:0:0:
288,160,95720,1,8,0:0:0:0:
224,160,95840,1,0,0:0:0:0:
224,160,95900,1,0,0:0:0:0:
288,160,95960,1,8,0:0:0:0:
224,160,96080,1,0,0:0:0:0:
224,160,96200,1,0,0:0:0:0:
224,160,96260,1,0,0:0:0:0:
288,160,96320,1,8,0:0:0:0:
288,160,96380,1,8,0:0:0:0:
288,160,96440,1,8,0:0:0:0:
288,160,96500,1,8,0:0:0:0:
224,160,96560,1,0,0:0:0:0:
224,160,96620,1,0,0:0:0:0:
288,160,96680,1,8,0:0:0:0:
288,160,96740,1,8,0:0:0:0:
288,160,96800,1,8,0:0:0:0:
288,160,96860,1,8,0:0:0:0:
224,160,96920,1,0,0:0:0:0:
224,160,96980,1,0,0:0:0:0:
288,160,97040,1,8,0:0:0:0:
288,160,97100,1,8,0:0:0:0:
288,160,97160,1,8,0:0:0:0:
288,160,97220,1,8,0:0:0:0:
288,160,97280,1,8,0:0:0:0:
224,160,97340,1,0,0:0:0:0:
224,160,97400,1,0,0:0:0:0:
224,160,97460,1,0,0:0:0:0:
288,160,97520,1,8,0:0:0:0:
288,160,97580,1,8,0:0:0:0:
288,160,97640,1,8,0:0:0:0:
288,160,97700,1,8,0:0:0:0:
224,160,97760,1,0,0:0:0:0:
224,160,97820,1,0,0:0:0:0:
288,160,97880,1,8,0:0:0:0:
288,160,97940,1,8,0:0:0:0:
224,160,98000,1,0,0:0:0:0:
288,224,98120,1,12,0:0:0:0:
224,160,98240,1,0,0:0:0:0:
288,160,98360,1,8,0:0:0:0:
288,160,98480,1,8,0:0:0:0:
224,160,98600,1,0,0:0:0:0:
288,160,98720,1,8,0:0:0:0:
288,160,98840,1,8,0:0:0:0:
224,160,98960,1,0,0:0:0:0:
224,160,99080,1,0,0:0:0:0:
288,160,99200,1,8,0:0:0:0:
288,160,99260,1,8,0:0:0:0:
288,160,99320,1,8,0:0:0:0:
224,160,99440,1,0,0:0:0:0:
288,160,99560,1,8,0:0:0:0:
224,160,99620,1,0,0:0:0:0:
224,160,99680,1,0,0:0:0:0:
288,160,99800,1,8,0:0:0:0:
288,160,99920,1,8,0:0:0:0:
288,160,100040,1,8,0:0:0:0:
224,160,100160,1,0,0:0:0:0:
288,160,100280,1,8,0:0:0:0:
224,160,100400,1,0,0:0:0:0:
288,160,100520,1,8,0:0:0:0:
224,160,100640,1,0,0:0:0:0:
288,160,100760,1,8,0:0:0:0:
224,160,100880,1,0,0:0:0:0:
288,160,101000,1,8,0:0:0:0:
224,160,101120,1,0,0:0:0:0:
288,160,101240,1,8,0:0:0:0:
224,160,101360,1,0,0:0:0:0:
288,160,101480,1,8,0:0:0:0:
224,160,101600,1,0,0:0:0:0:
288,160,101720,1,8,0:0:0:0:
224,160,101840,1,0,0:0:0:0:
224,160,101960,1,0,0:0:0:0:
224,160,102020,1,0,0:0:0:0:
224,160,102080,1,0,0:0:0:0:
288,160,102200,1,8,0:0:0:0:
224,160,102320,1,0,0:0:0:0:
224,160,102380,1,0,0:0:0:0:
224,160,102440,1,0,0:0:0:0:
288,160,102560,1,8,0:0:0:0:
288,160,102680,1,8,0:0:0:0:
224,160,102740,1,0,0:0:0:0:
224,160,102800,1,0,0:0:0:0:
288,160,102920,1,8,0:0:0:0:
224,160,102980,1,0,0:0:0:0:
224,160,103040,1,0,0:0:0:0:
224,160,103100,1,0,0:0:0:0:
288,160,103160,1,8,0:0:0:0:
224,160,103280,1,0,0:0:0:0:
224,160,103340,1,0,0:0:0:0:
224,160,103400,1,0,0:0:0:0:
224,160,103520,1,0,0:0:0:0:
224,160,103580,1,0,0:0:0:0:
288,160,103640,1,8,0:0:0:0:
288,160,103760,1,8,0:0:0:0:
288,160,103880,1,8,0:0:0:0:
224,160,103940,1,0,0:0:0:0:
224,160,104000,1,0,0:0:0:0:
224,160,104060,1,0,0:0:0:0:
224,160,104120,1,0,0:0:0:0:
224,160,104180,1,0,0:0:0:0:
288,160,104240,1,8,0:0:0:0:
288,160,104300,1,8,0:0:0:0:
224,160,104360,1,0,0:0:0:0:
224,160,104420,1,0,0:0:0:0:
224,160,104480,1,0,0:0:0:0:
224,160,104540,1,0,0:0:0:0:
288,160,104600,1,8,0:0:0:0:
288,160,104660,1,8,0:0:0:0:
224,160,104720,1,0,0:0:0:0:
224,160,104780,1,0,0:0:0:0:
288,160,104840,1,8,0:0:0:0:
288,160,104900,1,8,0:0:0:0:
288,160,104960,1,8,0:0:0:0:
288,160,105020,1,8,0:0:0:0:
224,160,105080,1,0,0:0:0:0:
224,160,105140,1,0,0:0:0:0:
224,160,105200,1,0,0:0:0:0:
288,160,105260,1,8,0:0:0:0:
288,160,105320,1,8,0:0:0:0:
288,160,105380,1,8,0:0:0:0:
224,160,105440,1,0,0:0:0:0:
224,160,105500,1,0,0:0:0:0:
288,160,105560,1,8,0:0:0:0:
288,160,105620,1,8,0:0:0:0:
224,160,105680,1,0,0:0:0:0:
224,160,105740,1,0,0:0:0:0:
288,160,105800,1,8,0:0:0:0:
224,160,105920,1,0,0:0:0:0:
288,160,106040,1,8,0:0:0:0:
288,160,106160,1,8,0:0:0:0:
224,160,106280,1,0,0:0:0:0:
288,160,106520,1,8,0:0:0:0:
288,160,106640,1,8,0:0:0:0:
224,160,106760,1,0,0:0:0:0:
288,160,107000,1,8,0:0:0:0:
288,160,107120,1,8,0:0:0:0:
224,160,107240,1,0,0:0:0:0:
224,160,107360,1,0,0:0:0:0:
224,160,107420,1,0,0:0:0:0:
288,160,107480,1,8,0:0:0:0:
224,160,107600,1,0,0:0:0:0:
224,160,107720,1,0,0:0:0:0:
288,160,107960,1,8,0:0:0:0:
288,160,108080,1,8,0:0:0:0:
224,160,108200,1,0,0:0:0:0:
288,160,108440,1,8,0:0:0:0:
288,160,108560,1,8,0:0:0:0:
224,160,108680,1,0,0:0:0:0:
288,160,108920,1,8,0:0:0:0:
288,160,109040,1,8,0:0:0:0:
224,160,109160,1,0,0:0:0:0:
224,160,109280,1,0,0:0:0:0:
288,160,109400,1,8,0:0:0:0:
224,160,109520,1,0,0:0:0:0:
224,160,109640,1,0,0:0:0:0:
224,160,109760,1,0,0:0:0:0:
288,160,109880,1,8,0:0:0:0:
288,160,110000,1,8,0:0:0:0:
224,160,110120,1,0,0:0:0:0:
224,160,110240,1,0,0:0:0:0:
288,160,110360,1,8,0:0:0:0:
288,160,110480,1,8,0:0:0:0:
224,160,110600,1,0,0:0:0:0:
224,160,110720,1,0,0:0:0:0:
288,160,110840,1,8,0:0:0:0:
288,160,110960,1,8,0:0:0:0:
224,160,111080,1,0,0:0:0:0:
224,160,111200,1,0,0:0:0:0:
224,160,111260,1,0,0:0:0:0:
288,160,111320,1,8,0:0:0:0:
224,160,111440,1,0,0:0:0:0:
224,160,111560,1,0,0:0:0:0:
224,160,111620,1,0,0:0:0:0:
224,160,111680,1,0,0:0:0:0:
288,160,111740,1,8,0:0:0:0:
288,160,111800,1,8,0:0:0:0:
288,160,111860,1,8,0:0:0:0:
224,160,111920,1,0,0:0:0:0:
224,160,111980,1,0,0:0:0:0:
224,160,112040,1,0,0:0:0:0:
224,160,112160,1,0,0:0:0:0:
288,160,112280,1,8,0:0:0:0:
288,160,112400,1,8,0:0:0:0:
224,224,112520,1,4,0:0:0:0:
224,224,112880,1,4,0:0:0:0:
288,160,113240,1,8,0:0:0:0:
224,160,113300,1,0,0:0:0:0:
288,160,113360,1,8,0:0:0:0:
288,160,113420,1,8,0:0:0:0:
224,160,113480,1,0,0:0:0:0:
224,160,113600,1,0,0:0:0:0:
288,160,113720,1,8,0:0:0:0:
288,160,113840,1,8,0:0:0:0:
224,160,113960,1,0,0:0:0:0:
224,160,114080,1,0,0:0:0:0:
288,160,114200,1,8,0:0:0:0:
288,160,114320,1,8,0:0:0:0:
224,160,114440,1,0,0:0:0:0:
224,160,114560,1,0,0:0:0:0:
288,160,114680,1,8,0:0:0:0:
288,160,114800,1,8,0:0:0:0:
224,160,114920,1,0,0:0:0:0:
224,160,115040,1,0,0:0:0:0:
224,160,115100,1,0,0:0:0:0:
288,160,115160,1,8,0:0:0:0:
224,160,115280,1,0,0:0:0:0:
288,160,115400,1,8,0:0:0:0:
224,160,115520,1,0,0:0:0:0:
288,160,115640,1,8,0:0:0:0:
288,160,115760,1,8,0:0:0:0:
224,160,115880,1,0,0:0:0:0:
224,160,116000,1,0,0:0:0:0:
288,160,116120,1,8,0:0:0:0:
288,160,116240,1,8,0:0:0:0:
224,160,116360,1,0,0:0:0:0:
224,160,116480,1,0,0:0:0:0:
288,160,116600,1,8,0:0:0:0:
288,160,116720,1,8,0:0:0:0:
224,160,116840,1,0,0:0:0:0:
224,160,116960,1,0,0:0:0:0:
288,160,117080,1,8,0:0:0:0:
224,160,117200,1,0,0:0:0:0:
224,160,117320,1,0,0:0:0:0:
224,160,117440,1,0,0:0:0:0:
288,160,117560,1,8,0:0:0:0:
288,160,117680,1,8,0:0:0:0:
224,160,117800,1,0,0:0:0:0:
224,160,117920,1,0,0:0:0:0:
288,160,118040,1,8,0:0:0:0:
288,160,118160,1,8,0:0:0:0:
224,160,118280,1,0,0:0:0:0:
224,160,118400,1,0,0:0:0:0:
288,160,118520,1,8,0:0:0:0:
288,160,118640,1,8,0:0:0:0:
224,160,118760,1,0,0:0:0:0:
224,160,118880,1,0,0:0:0:0:
224,160,118940,1,0,0:0:0:0:
288,160,119000,1,8,0:0:0:0:
224,160,119120,1,0,0:0:0:0:
288,160,119240,1,8,0:0:0:0:
224,160,119360,1,0,0:0:0:0:
224,160,119480,1,0,0:0:0:0:
288,160,119600,1,8,0:0:0:0:
224,160,119720,1,0,0:0:0:0:
224,160,119840,1,0,0:0:0:0:
288,160,119960,1,8,0:0:0:0:
224,160,120080,1,0,0:0:0:0:
288,224,120200,1,12,0:0:0:0:
224,160,120320,1,0,0:0:0:0:
224,160,120440,1,0,0:0:0:0:
288,224,120560,1,12,0:0:0:0:
224,160,120680,1,0,0:0:0:0:
224,160,120800,1,0,0:0:0:0:
288,160,120920,1,8,0:0:0:0:
288,160,120980,1,8,0:0:0:0:
224,160,121040,1,0,0:0:0:0:
288,160,121160,1,8,0:0:0:0:
224,160,121220,1,0,0:0:0:0:
224,160,121280,1,0,0:0:0:0:
224,160,121340,1,0,0:0:0:0:
224,160,121400,1,0,0:0:0:0:
288,160,121520,1,8,0:0:0:0:
224,160,121580,1,0,0:0:0:0:
224,160,121640,1,0,0:0:0:0:
224,160,121700,1,0,0:0:0:0:
224,160,121760,1,0,0:0:0:0:
288,160,121880,1,8,0:0:0:0:
224,160,121940,1,0,0:0:0:0:
224,160,122000,1,0,0:0:0:0:
224,160,122060,1,0,0:0:0:0:
288,160,122120,1,8,0:0:0:0:
224,160,122240,1,0,0:0:0:0:
224,160,122300,1,0,0:0:0:0:
224,160,122360,1,0,0:0:0:0:
224,160,122420,1,0,0:0:0:0:
288,160,122480,1,8,0:0:0:0:
224,160,122540,1,0,0:0:0:0:
224,160,122600,1,0,0:0:0:0:
224,160,122660,1,0,0:0:0:0:
224,160,122720,1,0,0:0:0:0:
224,160,122780,1,0,0:0:0:0:
288,160,122840,1,8,0:0:0:0:
224,160,122960,1,0,0:0:0:0:
288,224,123080,1,12,0:0:0:0:
288,160,123320,1,8,0:0:0:0:
288,160,123560,1,8,0:0:0:0:
288,160,123800,1,8,0:0:0:0:
288,160,124040,1,8,0:0:0:0:
224,160,124120,1,0,0:0:0:0:
224,160,124200,1,0,0:0:0:0:
288,160,124280,1,8,0:0:0:0:
224,160,124360,1,0,0:0:0:0:
224,160,124440,1,0,0:0:0:0:
288,160,124520,1,8,0:0:0:0:
224,160,124640,1,0,0:0:0:0:
224,160,124700,1,0,0:0:0:0:
288,224,124760,1,12,0:0:0:0:
288,224,125000,1,12,0:0:0:0:
