osu file format v9

[General]
AudioFilename: Intersect Thunderbolt.mp3
AudioLeadIn: 2000
PreviewTime: 9870
Countdown: 0
SampleSet: Normal
StackLeniency: 0.7
Mode: 1
LetterboxInBreaks: 0

[Editor]
DistanceSpacing: 1
BeatDivisor: 4
GridSize: 8

[Metadata]
Title:Intersect Thunderbolt
Artist:S.S.H.
Creator:Deif
Version:Verdi's Taiko
Source:eXceed3rd
Tags:Saitama Saisyu Heiki Jade Penetrate Black Package DaxMasterix Verdisphena

[Difficulty]
HPDrainRate:6
CircleSize:5
OverallDifficulty:6
ApproachRate:5
SliderMultiplier:1.4
SliderTickRate:4

[Events]
//Background and Video events
0,0,"BG Taiko.jpg"
//Break Periods
//Storyboard Layer 0 (Background)
//Storyboard Layer 1 (Fail)
//Storyboard Layer 2 (Pass)
//Storyboard Layer 3 (Foreground)
//Storyboard Sound Samples
//Background Colour Transformations
3,100,163,162,255

[TimingPoints]
260,240,4,1,0,100,1,0
9860,-100,4,1,0,100,0,1
40580,-100,4,1,0,100,0,0
46820,-95.2380952380952,4,1,0,100,0,0
47300,-90.9090909090909,4,1,0,100,0,0
47780,-86.9565217391304,4,1,0,100,0,0
48260,-90.9090909090909,4,1,0,100,0,0
57980,-100,4,1,0,100,0,0
65540,-95.2380952380952,4,1,0,100,0,0
67460,-90.9090909090909,4,1,0,100,0,0
69380,-83.3333333333333,4,1,0,100,0,0
71300,-76.9230769230769,4,1,0,100,0,0
74000,-100,4,1,0,100,0,0
75380,-100,4,1,0,100,0,1
90500,-100,4,1,0,100,0,0

[Colours]
Combo1 : 128,0,0
Combo2 : 202,202,0
Combo3 : 255,128,0
Combo4 : 255,0,0

[HitObjects]
256,192,260,1,8
256,192,320,1,8
256,192,380,1,0
256,192,500,1,0
256,192,620,1,8
256,192,680,1,8
256,192,740,1,0
256,192,860,1,0
256,192,980,1,8
256,192,1040,1,8
256,192,1100,1,0
256,192,1220,1,0
256,192,1340,1,8
256,192,1400,1,8
256,192,1460,1,0
256,192,1580,1,0
256,192,1700,1,8
256,192,1760,1,8
256,192,1820,1,0
256,192,1880,1,0
256,192,1940,1,8
256,192,2000,1,8
256,192,2060,1,0
256,192,2120,1,8
256,192,2180,1,0
56,160,3860,1,4
408,96,4100,1,4
160,288,5060,1,8
160,288,5120,1,8
160,288,5180,1,0
160,288,5240,1,8
160,288,5300,1,0
328,240,5420,1,0
264,208,5540,1,8
128,200,5660,1,0
128,200,5780,1,8
128,200,5900,1,8
192,168,6020,1,4
168,352,7700,1,12
264,312,7940,1,4
384,304,8660,1,8
384,304,8780,1,0
144,104,8900,1,8
160,72,8960,1,8
160,72,9020,1,0
160,72,9080,1,0
160,72,9140,1,8
160,72,9200,1,8
160,72,9260,1,0
160,72,9320,1,0
192,72,9380,1,8
224,72,9440,1,8
256,72,9500,1,8
288,72,9560,1,8
312,96,9620,1,0
336,120,9680,1,0
416,184,9740,1,8
392,160,9800,1,8
360,168,9860,1,0
344,200,9980,1,0
280,216,10100,1,8
208,232,10220,1,0
144,240,10340,1,8
80,256,10460,1,8
152,240,10580,1,0
216,224,10700,1,8
280,248,10820,1,8
312,264,10880,1,8
344,272,10940,1,0
304,216,11060,1,8
272,152,11180,1,0
232,208,11300,1,8
192,264,11420,1,0
160,328,11540,1,8
192,264,11660,1,0
160,128,11780,1,0
160,128,11840,1,0
160,128,11900,1,0
144,56,12020,1,8
160,128,12140,1,0
176,192,12260,1,8
160,128,12380,1,8
160,128,12500,1,0
160,128,12620,1,8
160,128,12740,1,8
160,128,12800,1,8
160,128,12860,1,0
224,152,12980,1,8
288,176,13100,1,0
360,192,13220,1,8
360,264,13340,1,8
360,264,13400,1,0
368,328,13460,1,8
360,264,13580,1,0
296,248,13700,1,4
232,232,13820,1,0
168,216,13940,1,8
104,192,14060,1,0
32,176,14180,1,8
104,192,14300,1,8
168,160,14420,1,0
232,128,14540,1,8
296,96,14660,1,8
296,96,14720,1,8
312,128,14780,1,0
368,112,14900,1,8
296,120,15020,1,0
232,120,15140,1,8
296,144,15260,1,0
328,152,15320,1,0
360,168,15380,1,8
424,192,15500,1,0
360,224,15620,1,0
296,256,15740,1,0
232,288,15860,1,8
168,320,15980,1,0
104,344,16100,1,8
168,320,16220,1,8
224,280,16340,1,0
280,240,16460,1,8
216,256,16580,1,8
184,264,16640,1,8
152,272,16700,1,0
152,272,16820,1,8
136,200,16940,1,0
200,168,17060,1,8
264,136,17180,1,0
328,112,17300,1,8
296,128,17360,1,8
264,136,17420,1,0
304,192,17540,1,8
264,216,17660,1,0
320,256,17780,1,8
384,288,17900,1,0
440,328,18020,1,8
384,288,18140,1,8
328,248,18260,1,0
272,208,18380,1,8
264,176,18440,1,0
216,168,18500,1,8
280,208,18620,1,0
344,240,18740,1,8
400,280,18860,1,0
456,320,18980,1,8
400,280,19100,1,0
344,240,19220,1,8
280,216,19340,1,0
216,192,19460,1,4
88,136,19580,1,8
88,136,19700,1,8
88,136,19820,1,0
88,136,19940,1,8
88,136,20060,1,8
160,136,20180,1,0
192,136,20240,1,0
224,136,20300,1,8
296,128,20420,1,8
344,72,20540,1,0
384,24,20660,1,8
336,80,20780,1,0
296,128,20900,1,8
344,72,21020,1,0
344,72,21140,1,8
296,120,21260,1,0
272,144,21320,1,0
248,168,21380,1,0
224,232,21500,1,8
208,296,21620,1,8
144,272,21740,1,0
72,248,21860,1,8
136,272,21980,1,8
72,248,22100,1,0
104,264,22160,1,0
104,264,22220,1,8
80,200,22340,1,8
144,248,22400,1,0
128,216,22460,1,8
304,216,22580,1,0
320,272,22700,1,8
288,256,22760,1,0
320,272,22820,1,8
280,216,22940,1,8
304,216,23060,1,0
272,208,23120,1,0
240,200,23180,1,8
216,136,23300,1,8
248,136,23360,1,0
288,136,23420,1,8
360,136,23540,1,0
424,152,23660,1,8
352,160,23780,1,8
320,160,23840,1,0
280,168,23900,1,8
336,208,24020,1,0
400,240,24140,1,8
344,200,24260,1,8
312,184,24320,1,8
280,168,24380,1,0
248,144,24440,1,0
216,144,24500,1,8
192,152,24560,1,0
168,184,24620,1,8
152,216,24680,1,8
136,248,24740,1,8
200,216,24860,1,0
264,240,24980,1,8
328,264,25100,1,8
328,264,25220,1,4
264,232,25340,1,0
208,200,25460,1,8
232,64,25580,1,0
232,64,25700,1,8
232,64,25820,1,8
232,64,25940,1,0
200,80,26000,1,0
168,96,26060,1,8
104,128,26180,1,8
248,288,26300,1,0
200,232,26420,1,8
248,288,26540,1,0
256,256,26600,1,0
296,336,26660,1,8
320,272,26780,1,0
336,208,26900,1,8
352,136,27020,1,0
368,64,27140,1,0
312,104,27260,1,8
288,128,27320,1,0
256,144,27380,1,8
200,192,27500,1,0
144,240,27620,1,8
144,240,27740,1,8
208,264,27860,1,0
240,280,27920,1,0
272,296,27980,1,8
336,272,28100,1,8
400,248,28220,1,0
472,224,28340,1,8
400,216,28460,1,0
368,208,28520,1,0
336,200,28580,1,8
264,192,28700,1,0
200,184,28820,1,8
256,144,28940,1,0
184,144,29060,1,0
112,144,29180,1,8
112,144,29300,1,8
184,144,29420,1,0
216,144,29480,1,0
256,136,29540,1,8
328,136,29660,1,8
312,128,29720,1,8
392,112,29780,1,0
456,88,29900,1,8
384,80,30020,1,8
312,72,30140,1,0
248,64,30260,1,8
208,120,30380,1,0
184,152,30440,1,0
168,176,30500,1,8
224,224,30620,1,8
248,248,30680,1,0
272,264,30740,1,8
336,288,30860,1,8
400,312,30980,1,0
336,280,31100,1,8
400,312,31220,1,8
336,280,31340,1,0
280,248,31460,1,8
216,216,31580,1,8
288,208,31700,1,0
256,192,31760,1,0
352,192,31820,1,8
288,168,31940,1,8
224,144,32060,1,0
192,128,32120,1,0
160,120,32180,1,8
224,136,32300,1,0
296,152,32420,1,8
400,184,32540,1,8
400,184,32600,1,8
400,184,32660,1,8
328,192,32780,1,8
256,200,32900,1,0
200,240,33020,1,8
144,280,33140,1,8
216,280,33260,1,0
280,288,33380,1,8
352,288,33500,1,8
344,216,33620,1,0
336,144,33740,1,8
264,144,33860,1,8
232,144,33920,1,0
200,144,33980,1,0
128,144,34100,1,8
192,128,34220,1,8
224,120,34280,1,0
256,112,34340,1,8
288,176,34460,1,0
320,240,34580,1,8
320,240,34700,1,8
392,248,34820,1,0
320,248,34940,1,8
248,248,35060,1,8
176,240,35180,1,0
72,232,35300,1,8
72,232,35360,1,0
72,232,35420,1,8
128,192,35540,1,0
192,160,35660,1,8
248,120,35780,1,8
232,192,35900,1,0
352,56,36020,1,8
304,80,36140,1,0
272,88,36200,1,0
240,104,36260,1,8
168,96,36380,1,8
136,88,36440,1,8
104,80,36500,1,0
32,80,36620,1,8
88,120,36740,1,0
144,160,36860,1,8
200,200,36980,1,8
320,272,37100,1,0
320,272,37220,1,8
320,272,37340,1,8
328,200,37460,1,0
344,128,37580,1,8
304,184,37700,1,8
264,240,37820,1,8
168,272,37940,1,8
168,272,38060,1,0
208,328,38180,1,8
208,328,38300,1,8
168,272,38420,1,0
168,272,38540,1,8
240,272,38660,1,8
272,272,38720,1,0
312,272,38780,1,8
384,272,38900,1,8
384,272,38960,1,0
384,272,39020,1,8
384,272,39140,1,0
384,272,39200,1,8
384,272,39260,1,0
384,272,39320,1,0
384,272,39380,1,8
352,256,39440,1,0
320,232,39500,1,8
256,200,39620,1,0
224,176,39680,1,0
224,176,39740,1,0
224,176,39800,1,0
224,176,39860,1,8
224,176,39920,1,0
224,176,39980,1,8
224,176,40040,1,0
224,176,40100,1,8
224,176,40160,1,0
224,176,40220,1,0
160,200,40280,1,0
160,200,40340,1,8
224,176,40400,1,0
224,176,40460,1,0
224,176,40520,1,0
224,176,40580,1,0
360,160,40820,1,8
432,152,40940,1,0
496,144,41060,1,8
376,216,41300,1,0
320,256,41420,1,0
248,256,41540,1,8
208,200,41660,1,0
168,144,41780,1,0
128,80,41900,1,0
88,24,42020,1,8
152,48,42140,1,0
184,56,42200,1,0
216,64,42260,1,8
280,88,42380,1,0
288,160,42500,1,8
328,296,42740,1,8
328,296,42860,1,0
200,232,43100,1,8
136,200,43220,1,0
208,208,43340,1,0
280,208,43460,1,8
208,208,43580,1,0
176,208,43640,1,0
144,208,43700,1,0
208,184,43820,1,0
256,136,43940,1,8
288,104,44000,1,8
328,208,44060,1,8
432,232,44180,1,8
384,184,44300,1,0
328,136,44420,1,0
208,208,44660,1,8
128,320,44900,1,0
88,376,45020,1,0
120,368,45080,1,0
200,304,45140,1,8
176,264,45200,1,0
272,304,45260,1,8
344,304,45380,1,0
368,128,45620,1,8
232,112,45860,1,0
160,104,45980,1,0
88,96,46100,1,8
152,120,46220,1,0
216,144,46340,1,0
280,176,46460,1,8
344,200,46580,1,0
408,224,46700,1,8
344,200,46820,1,0
272,176,46940,1,8
336,200,47060,1,0
400,224,47180,1,8
336,200,47300,1,0
272,168,47420,1,8
336,200,47540,1,0
400,224,47660,1,8
336,200,47780,1,0
272,168,47900,1,8
336,200,48020,1,0
400,224,48140,1,8
120,208,48260,1,0
264,216,48380,1,8
192,208,48500,1,8
120,208,48620,1,8
304,104,48740,1,0
240,136,48860,1,8
232,168,48920,1,8
224,200,48980,1,0
304,104,49100,1,8
264,160,49220,1,8
304,104,49340,1,0
264,160,49460,1,8
304,104,49580,1,8
232,88,49700,1,0
160,80,49820,1,0
216,120,49940,1,0
216,184,50060,1,8
248,120,50180,1,8
288,176,50300,1,0
328,232,50420,1,0
328,304,50540,1,8
328,304,50660,1,8
256,296,50780,1,0
288,296,50840,1,0
184,280,50900,1,0
112,272,51020,1,8
112,272,51140,1,8
160,224,51260,1,0
208,176,51380,1,0
264,216,51500,1,8
224,160,51620,1,8
352,152,51740,1,8
368,224,51860,1,0
352,152,51980,1,0
280,144,52100,1,0
208,136,52220,1,8
136,128,52340,1,0
192,120,52460,1,8
144,120,52580,1,0
208,112,52700,1,8
280,112,52820,1,8
352,112,52940,1,0
280,112,53060,1,0
56,200,53180,1,0
152,160,53300,1,8
88,184,53420,1,8
56,200,53540,1,0
56,200,53660,1,8
120,216,53780,1,8
184,232,53900,1,0
248,248,54020,1,8
320,240,54140,1,0
384,232,54260,1,8
416,224,54320,1,8
416,224,54380,1,0
416,224,54440,1,8
416,224,54500,1,8
352,200,54620,1,0
368,128,54740,1,0
296,128,54860,1,8
224,112,54980,1,8
152,104,55100,1,0
88,88,55220,1,8
160,104,55340,1,0
224,120,55460,1,8
256,184,55580,1,0
312,224,55700,1,8
368,264,55820,1,8
96,320,55940,1,8
336,320,56060,1,0
232,320,56180,1,8
232,320,56300,1,8
232,320,56420,1,8
336,320,56540,1,0
160,256,56660,1,8
288,256,56780,1,0
288,256,56840,1,0
80,240,56900,1,8
144,176,57020,1,0
144,176,57080,1,0
144,176,57140,1,0
112,160,57260,1,8
112,160,57380,1,0
112,160,57440,1,0
112,160,57500,1,0
208,88,57620,1,8
208,88,57680,1,8
208,88,57740,1,0
208,88,57800,1,0
320,168,57860,1,8
320,168,58100,1,8
352,112,58220,1,0
416,216,58460,1,0
400,320,58580,1,8
272,168,58700,1,0
432,264,58820,1,8
216,224,58940,1,0
96,256,59180,1,8
96,256,59300,1,0
96,256,59420,1,0
96,256,59540,1,8
288,272,59780,1,0
208,88,60020,1,8
208,88,60140,1,0
176,328,60380,1,0
176,328,60500,1,8
400,256,60740,1,8
400,256,60860,1,0
112,152,61100,1,8
112,152,61220,1,0
112,152,61340,1,0
112,152,61460,1,8
208,232,61580,1,0
208,232,61700,1,0
288,168,61940,1,8
288,168,62060,1,0
288,168,62300,1,0
288,168,62420,1,8
192,80,62660,1,8
192,80,62780,1,0
88,264,63020,1,8
200,304,63140,1,0
200,304,63260,1,0
200,304,63380,1,8
224,160,63500,1,0
136,176,63560,1,0
224,160,63620,1,8
368,176,63740,1,0
368,176,63860,1,0
296,288,63980,1,8
136,176,64100,1,0
136,176,64220,1,0
400,160,64340,1,8
136,176,64460,1,0
136,176,64580,1,8
256,96,64640,1,0
280,224,64700,1,8
96,104,64820,1,0
96,104,64940,1,8
112,288,65000,1,0
368,232,65060,1,0
112,288,65180,1,8
160,144,65300,1,0
176,112,65420,1,8
352,352,65540,1,8
120,248,65660,1,0
120,248,65780,1,0
120,248,65900,1,8
320,120,66020,1,0
320,120,66140,1,0
320,120,66260,1,8
440,304,66380,1,0
440,304,66500,1,0
440,304,66620,1,8
400,72,66740,1,0
400,72,66860,1,8
184,304,66980,1,0
184,304,67100,1,0
184,304,67220,1,8
64,184,67340,1,0
352,352,67460,1,8
120,248,67580,1,0
120,248,67700,1,0
120,248,67820,1,8
320,120,67940,1,0
320,120,68060,1,0
320,120,68180,1,8
440,304,68300,1,0
440,304,68420,1,0
440,304,68540,1,8
400,72,68660,1,0
400,72,68780,1,8
184,304,68900,1,0
184,304,69020,1,0
184,304,69140,1,8
112,176,69260,1,0
352,352,69380,1,8
120,248,69500,1,0
120,248,69620,1,0
120,248,69740,1,8
320,120,69860,1,0
320,120,69980,1,0
320,120,70100,1,8
440,304,70220,1,0
440,304,70340,1,0
440,304,70460,1,8
400,72,70580,1,0
400,72,70700,1,8
184,304,70820,1,0
184,304,70940,1,0
184,304,71060,1,8
200,152,71180,1,0
352,352,71300,1,8
120,248,71420,1,0
120,248,71540,1,0
120,248,71660,1,8
320,120,71780,1,0
320,120,71900,1,0
320,120,72020,1,8
440,304,72140,1,0
440,304,72260,1,0
440,304,72380,1,8
400,72,72500,1,0
400,72,72620,1,8
184,304,72740,1,0
184,304,72860,1,0
184,304,72980,1,8
240,224,73100,1,0
56,88,73220,2,0,B|384:200|384:200|192:248,1,545.999990236759
56,288,74180,1,8
304,320,74240,1,0
304,320,74300,1,0
104,240,74420,1,0
104,240,74540,1,8
104,240,74600,1,0
104,240,74660,1,0
104,240,74780,1,0
104,240,74900,1,8
280,80,74960,1,0
280,80,75020,1,0
280,80,75080,1,0
280,80,75140,1,8
224,248,75200,1,8
224,248,75260,1,8
240,144,75320,1,8
240,144,75380,1,8
352,272,75620,1,0
352,128,75860,1,8
352,128,75980,1,8
320,128,76100,1,8
408,224,76220,1,0
400,352,76340,1,8
408,80,76460,1,8
160,160,76580,1,8
160,160,76640,1,0
160,160,76700,1,8
184,80,76820,1,8
80,104,76940,1,0
272,304,77060,1,8
296,216,77140,1,0
296,216,77220,1,0
296,216,77300,1,8
40,256,77420,1,0
144,240,77540,1,8
144,240,77660,1,8
256,272,77780,1,0
120,160,77900,1,0
264,104,78020,1,8
192,288,78140,1,0
192,288,78260,1,8
384,272,78340,1,8
384,272,78420,1,8
384,272,78500,1,0
384,272,78580,1,0
384,272,78660,1,0
96,272,78740,1,8
272,296,78860,1,0
272,296,78920,1,0
272,296,78980,1,8
137,136,79100,1,0
137,136,79220,1,8
200,208,79340,1,8
280,128,79460,1,0
280,128,79580,1,8
400,224,79700,1,8
400,224,79820,1,0
208,144,79940,1,8
208,144,80000,1,0
208,144,80060,1,8
328,64,80180,1,8
328,64,80300,1,0
328,64,80360,1,8
328,64,80420,1,0
312,208,80540,1,0
312,208,80660,1,8
312,208,80720,1,8
312,208,80780,1,0
312,208,80840,1,0
256,344,80900,1,8
416,336,80960,1,8
416,336,81020,1,8
416,336,81080,1,8
416,336,81140,1,0
416,336,81200,1,0
416,336,81260,1,0
416,336,81320,1,0
144,264,81380,1,8
96,112,81440,1,8
216,96,81500,1,8
216,96,81560,1,0
216,96,81620,1,8
408,144,81700,1,8
408,144,81780,1,0
152,216,81860,1,0
152,216,81940,1,0
152,216,82020,1,8
344,256,82100,1,8
32,304,82220,1,8
232,272,82340,1,0
232,272,82460,1,0
112,352,82580,1,8
304,328,82700,1,8
240,184,82820,1,8
336,128,83060,1,0
80,144,83300,1,8
80,144,83420,1,8
224,56,83540,1,0
344,72,83600,1,8
344,72,83660,1,8
432,216,83780,1,8
416,304,83900,1,0
240,344,84020,1,8
144,224,84140,1,8
264,120,84260,1,8
200,168,84380,1,8
72,240,84440,1,8
264,240,84500,1,0
72,240,84620,1,8
328,224,84740,1,8
408,144,84860,1,0
408,144,84980,1,8
336,360,85100,1,0
336,360,85220,1,8
336,360,85340,1,8
160,304,85460,1,8
464,272,85520,1,8
144,224,85580,1,0
208,104,85700,1,8
352,56,85760,1,8
352,56,85820,1,8
352,56,85880,1,8
352,56,85940,1,0
352,56,86000,1,0
352,56,86060,1,0
352,56,86120,1,0
152,208,86180,1,0
152,208,86240,1,0
152,208,86300,1,0
152,208,86360,1,0
152,208,86420,1,8
152,208,86480,1,8
152,208,86540,1,0
152,208,86600,1,0
296,232,86660,1,8
30,167,86780,1,0
231,212,86900,1,0
231,212,86980,1,0
275,125,87060,1,8
231,212,87140,1,0
231,212,87220,1,0
275,125,87300,1,8
231,212,87380,1,0
231,212,87460,1,0
275,125,87540,1,8
294,302,87620,1,0
294,302,87700,1,0
294,302,87780,1,8
365,264,87860,1,0
365,264,87940,1,0
365,264,88020,1,8
218,325,88100,1,0
218,325,88180,1,0
218,325,88260,1,8
136,317,88340,1,0
136,317,88420,1,0
136,317,88500,1,8
68,72,88580,1,0
142,165,88700,1,8
142,165,88760,1,8
142,165,88820,1,0
201,123,88940,1,0
201,123,89060,1,8
201,123,89120,1,8
201,123,89180,1,0
201,123,89300,1,8
201,123,89420,1,0
296,192,89540,1,8
281,111,89660,1,8
281,111,89780,1,8
281,111,89900,1,8
392,315,90020,1,0
392,315,90140,1,0
392,315,90260,1,0
392,315,90380,1,0
392,315,90500,1,4
175,295,90620,1,0
175,295,90740,1,8
175,295,90860,1,0
175,295,90980,1,8
219,247,91220,1,8
219,247,91340,1,8
219,247,91460,1,4
219,247,91580,1,8
182,161,91700,1,0
182,161,91820,1,8
295,202,91940,1,0
295,202,92000,1,8
295,202,92060,1,8
281,137,92180,1,0
281,137,92300,1,8
348,160,92420,1,4
318,262,92540,1,8
318,262,92660,1,8
318,262,92780,1,0
318,262,92900,1,8
131,109,93140,1,8
131,109,93260,1,8
211,167,93380,1,4
230,89,93500,1,8
230,89,93620,1,0
230,89,93740,1,8
165,260,93860,1,4
261,279,93980,1,0
261,279,94040,1,8
261,279,94100,1,0
261,279,94220,1,8
159,211,94340,1,4
339,183,94460,1,8
339,183,94580,1,8
339,183,94700,1,0
339,183,94820,1,8
64,258,94940,1,0
64,258,95000,1,0
64,258,95060,1,8
64,258,95180,1,8
255,166,95300,1,4
111,107,95420,1,8
111,107,95480,1,0
111,107,95540,1,8
111,107,95660,1,8
303,86,95780,1,0
303,86,95840,1,0
303,86,95900,1,0
303,86,95960,1,0
303,86,96020,1,8
398,260,96140,1,0
208,297,96260,1,0
208,297,96320,1,0
208,297,96380,1,0
208,297,96440,1,0
208,297,96500,1,8
208,297,96560,1,8
208,297,96620,1,8
208,297,96680,1,8
208,297,96740,1,0
208,297,96800,1,0
208,297,96860,1,0
208,297,96920,1,0
208,297,96980,1,8
208,297,97040,1,0
208,297,97100,1,0
208,297,97160,1,0
208,297,97220,1,8
208,297,97280,1,8
208,297,97340,1,0
208,297,97400,1,0
208,297,97460,1,8
208,297,97520,1,0
208,297,97580,1,0
208,297,97640,1,0
208,297,97700,1,8
183,170,97820,1,8
183,170,97880,1,8
183,170,97940,1,0
183,170,98000,1,8
183,170,98060,1,0
118,143,98180,1,8
262,211,98300,1,0
262,211,98420,1,0
344,151,98540,1,8
300,241,98660,1,0
300,241,98780,1,0
224,83,98900,1,8
140,214,99020,1,0
140,214,99140,1,0
224,83,99260,1,8
328,331,99380,1,0
328,331,99500,1,0
224,83,99620,1,8
418,237,99740,1,8
418,237,99800,1,8
302,93,99860,1,0
113,146,99980,1,0
384,116,100100,1,8
127,274,100220,1,0
127,274,100340,1,0
179,250,100460,1,0
206,271,100580,1,8
272,237,100700,1,0
272,237,100820,1,0
272,237,100940,1,0
158,93,101060,1,8
272,237,101180,1,0
272,237,101300,1,0
272,237,101420,1,0
158,93,101540,1,8
239,144,101660,1,0
239,144,101720,1,0
239,144,101780,1,0
239,144,101900,1,8
338,211,102020,1,0
338,211,102080,1,0
338,211,102140,1,0
338,211,102260,1,8
75,202,102380,1,8
75,202,102440,1,8
75,202,102500,1,0
75,202,102620,1,8
172,311,102740,1,8
288,309,102860,1,0
288,309,102920,1,0
288,309,102980,1,8
288,309,103100,1,0
288,309,103160,1,8
288,309,103220,1,0
288,309,103280,1,0
288,309,103340,1,8
288,309,103460,1,0
216,166,103580,1,0
216,166,103640,1,8
216,166,103700,1,8
129,123,103820,1,0
289,138,103940,1,8
289,138,104060,1,0
311,210,104120,1,0
289,138,104180,1,8
177,244,104300,1,8
177,244,104360,1,8
177,244,104420,1,0
177,244,104540,1,8
177,244,104600,1,0
177,244,104660,1,8
386,240,104780,1,0
386,240,104900,1,8
386,240,104960,1,8
386,240,105020,1,8
386,240,105080,1,8
386,240,105140,1,0
386,240,105200,1,0
386,240,105260,1,0
386,240,105320,1,0
95,240,105380,1,8
95,240,105500,1,0
95,240,105560,1,0
95,240,105620,1,0
95,240,105740,1,8
346,159,105860,1,4
