osu file format v9

[General]
AudioFilename: Intersect Thunderbolt.mp3
AudioLeadIn: 2000
PreviewTime: 9870
Countdown: 0
SampleSet: Normal
StackLeniency: 0.7
Mode: 0
LetterboxInBreaks: 0

[Editor]
DistanceSpacing: 0.7
BeatDivisor: 4
GridSize: 4

[Metadata]
Title:Intersect Thunderbolt
Artist:S.S.H.
Creator:Deif
Version:Thunderbolt
Source:eXceed3rd
Tags:Saitama Saisyu Heiki Jade Penetrate Black Package DaxMasterix Verdisphena

[Difficulty]
HPDrainRate:6
CircleSize:4
OverallDifficulty:7
ApproachRate:9
SliderMultiplier:2
SliderTickRate:1

[Events]
//Background and Video events
0,0,"BG.jpg"
//Break Periods
2,40780,47660
//Storyboard Layer 0 (Background)
//Storyboard Layer 1 (Fail)
//Storyboard Layer 2 (Pass)
//Storyboard Layer 3 (Foreground)
//Storyboard Sound Samples
//Background Colour Transformations
3,100,163,162,255

[TimingPoints]
260,240,4,1,1,60,1,0
2060,-100,4,1,1,70,0,0
3740,-100,4,1,1,60,0,0
3980,-100,4,1,1,70,0,0
4940,-100,4,1,1,60,0,0
5900,-100,4,1,1,70,0,0
7580,-100,4,1,1,60,0,0
7820,-100,4,1,1,70,0,0
8600,-100,4,1,1,50,0,0
8840,-100,4,1,1,60,0,0
57860,-100,4,1,1,50,0,0
73160,-100,4,2,0,60,0,0
74000,-100,4,1,1,60,0,0
75380,-100,4,1,1,75,0,1
90500,-100,4,1,1,60,0,0
121220,-100,4,1,1,75,0,0

[Colours]
Combo1 : 128,0,0
Combo2 : 202,202,0
Combo3 : 255,128,0
Combo4 : 255,0,0

[HitObjects]
156,136,260,6,0,B|108:104,2,50,8|0|0
256,152,500,1,0
356,136,620,2,0,B|404:104,2,50,8|0|0
256,152,860,1,0
184,224,980,5,8
160,232,1040,1,0
136,240,1100,2,0,B|88:256|88:304|136:320,1,100
328,224,1340,1,8
352,232,1400,1,0
376,240,1460,2,0,B|424:256|424:304|376:320,1,100
256,336,1700,5,8
96,56,1940,1,12
416,56,2180,1,12
256,336,3860,5,4
256,48,4100,1,12
400,191,5060,6,0,B|448:192,2,50,8|0|0
344,112,5300,2,0,B|304:120|288:160|288:160|256:160,1,100,8|0
344,272,5540,2,0,B|304:264|288:224|288:224|256:224,1,100,8|0
152,144,5780,6,0,B|128:192|152:240,1,100,12|0
360,192,6020,1,4
112,192,7700,5,4
400,192,7940,1,12
256,296,8660,6,0,B|208:296|208:296|176:248,1,100
208,88,8900,5,8
232,88,8960,1,0
256,88,9020,2,0,B|304:88|304:88|336:136,1,100
304,296,9260,5,8
280,296,9320,1,0
256,296,9380,2,0,B|208:296|208:296|176:248,1,100
256,192,9620,5,8
256,192,9680,1,0
256,192,9740,1,8
352,192,9860,6,0,B|424:192|424:128,1,100,4|0
376,48,10100,2,0,B|304:48|304:112,1,100,8|0
207,101,10340,2,0,B|208:48|136:48,1,100,0|0
88,138,10580,2,0,B|88:192|160:192,1,100,8|0
256,192,10820,5,0
448,248,11060,1,8
256,304,11300,1,0
64,248,11540,1,8
136,64,11780,6,0,B|112:168,1,100,0|0
184,232,12020,2,0,B|208:128,1,100,8|0
304,136,12260,2,0,B|326:233,1,100,0|0
398,161,12500,2,0,B|376:64,1,100,8|0
280,48,12740,5,0
120,168,12980,1,8
232,336,13220,1,0
392,216,13460,1,8
216,128,13700,6,0,B|168:104|120:136,1,100,0|0
192,208,13940,2,0,B|176:248|208:304,1,100,8|0
296,256,14180,2,0,B|344:280|392:248,1,100,0|0
320,176,14420,2,0,B|336:136|304:80,1,100,8|0
400,48,14660,5,0
112,96,14900,1,8
400,144,15140,1,0
112,192,15380,1,8
400,232,15620,6,0,B|344:232|344:232|312:192,1,100,0|0
224,232,15860,2,0,B|192:232|192:232|152:176,1,100,8|0
112,88,16100,2,0,B|168:88|168:88|200:128,1,100,0|0
288,88,16340,2,0,B|320:88|320:88|360:144,1,100,8|0
456,144,16580,5,0
56,192,16820,1,8
456,232,17060,1,0
56,280,17300,1,8
456,320,17540,6,0,B|400:320|400:320|368:288,1,100,0|0
384,192,17780,2,0,B|352:160|352:160|288:168,1,100,12|0
214,217,18020,2,0,B|160:224|160:224|128:192,1,100,0|0
143,95,18260,2,0,B|112:64|112:64|56:64,1,100,8|0
72,160,18500,5,0
256,320,18740,1,8
208,40,18980,1,0
432,272,19220,1,8
72,264,19460,6,0,B|104:264|136:240|168:240,1,100,0|0
176,144,19700,2,0,B|192:112|192:72|208:40,1,100,8|0
307,48,19940,2,0,B|320:72|320:112|336:144,1,100,0|0
343,239,20180,2,0,B|376:240|408:264|440:264,1,100,8|0
472,168,20420,5,0
256,312,20660,1,8
416,32,20900,1,0
80,208,21140,1,8
448,96,21380,6,0,B|416:136|360:152,1,100,2|0
480,248,21620,2,0,B|424:248|384:208,1,100,12|0
424,360,21860,2,0,B|376:328|368:272,1,100,2|0
240,200,22100,2,0,B|352:216,1,100,8|0
64,288,22340,6,0,B|96:248|152:232,1,100,2|0
32,136,22580,2,0,B|88:136|128:176,1,100,12|0
88,24,22820,2,0,B|136:56|144:112,1,100,2|0
272,184,23060,2,0,B|160:168,1,100,8|0
376,182,23300,6,0,B|400:144|360:112|328:128,1,100,2|0
265,312,23540,2,0,B|304:336|336:296|320:264,1,100,12|0
135,201,23780,2,0,B|112:240|152:272|183:256,1,100,6|0
246,71,24020,2,0,B|208:48|176:88|191:119,1,100,12|0
256,192,24260,6,0,B|288:232,2,50,8|0|0
312,112,24500,1,8
368,192,24620,1,0
368,288,24740,2,0,B|376:328|336:352|304:320,1,100,8|0
206,321,24980,2,0,B|176:352|136:328|144:288,1,100,12|0
120,192,25220,5,4
160,96,25340,1,0
256,56,25460,1,8
352,96,25580,1,0
392,192,25700,1,0
352,288,25820,1,0
256,328,25940,1,8
160,288,26060,1,0
232,168,26180,6,0,B|160:96,1,100,0|0
280,168,26420,2,0,B|352:96,1,100,8|0
280,216,26660,2,0,B|352:288,1,100,0|0
232,216,26900,2,0,B|160:288,1,100,8|0
120,192,27140,5,0
160,96,27260,1,0
256,56,27380,1,8
352,96,27500,1,0
392,192,27620,1,0
352,288,27740,1,0
256,328,27860,1,8
160,288,27980,1,0
161,97,28100,6,0,B|232:168,1,100,0|0
350,97,28340,2,0,B|280:168,1,100,8|0
350,286,28580,2,0,B|280:216,1,100,0|0
161,286,28820,2,0,B|232:216,1,100,8|0
304,144,29060,5,0
328,48,29180,1,0
424,56,29300,1,8
472,144,29420,1,0
472,240,29540,1,0
424,328,29660,1,0
328,336,29780,1,8
304,240,29900,1,0
220,292,30020,6,0,B|197:258|211:195,1,100,0|0
131,251,30261,2,0,B|164:210|212:194,1,100,8|0
381,133,30500,6,0,B|347:173|299:189,1,100,0|0
292,92,30740,2,0,B|314:125|300:188,1,100,8|0
208,144,30980,5,0
184,48,31100,1,0
88,56,31220,1,8
40,144,31340,1,0
40,240,31460,1,0
88,328,31580,1,0
184,336,31700,1,8
208,240,31820,1,0
152,160,31940,6,0,B|185:137|248:151,1,100,0|0
193,71,32180,2,0,B|233:104|249:152,1,100,8|0
452,208,32420,6,0,B|418:185|355:199,1,100,0|0
411,119,32660,2,0,B|370:152|354:200,1,100,8|0
400,288,32900,5,0
304,328,33020,1,0
208,328,33140,1,12
112,288,33260,1,0
112,192,33380,1,0
208,152,33500,1,0
304,152,33620,1,8
400,184,33740,1,0
312,232,33860,6,0,B|288:176|320:128,1,100,0|0
200,231,34100,2,0,B|224:176|196:135,1,100,8|0
468,163,34340,6,0,B|432:200|376:184,1,100,0|0
43,163,34580,2,0,B|80:200|136:184,1,100,8|0
112,96,34820,5,0
208,56,34940,1,0
304,56,35060,1,8
400,96,35180,1,0
400,192,35300,1,0
304,232,35420,1,0
208,232,35540,1,8
112,200,35660,1,0
200,152,35780,6,0,B|224:208|192:256,1,100,0|0
311,152,36020,2,0,B|288:208|315:248,1,100,8|0
96,272,36260,6,0,B|112:320|168:344,1,100,0|0
416,272,36500,2,0,B|400:320|344:344,1,100,8|0
192,264,36740,6,0,B|232:288|288:288,1,100,2|0
176,192,36980,2,0,B|216:216|272:216,1,100,12|0
152,120,37220,2,0,B|192:144|248:144,1,100,2|0
136,48,37460,2,0,B|176:72|232:72,1,100,8|0
320,120,37700,6,0,B|280:96|224:96,1,100,2|0
336,192,37940,2,0,B|296:168|240:168,1,100,12|0
360,264,38180,2,0,B|320:240|264:240,1,100,2|0
376,336,38420,2,0,B|336:312|280:312,1,100,8|0
128,328,38660,6,0,B|72:312|64:248,1,100,2|0
384,56,38900,2,0,B|440:72|448:136,1,100,12|0
160,240,39140,6,0,B|136:184|96:168,1,100,6|0
352,144,39380,2,0,B|376:200|416:216,1,100,12|0
256,192,39620,6,0,B|232:144,2,50,8|0|0
208,280,39860,1,8
304,280,39980,1,0
168,296,40100,1,8
344,296,40220,1,0
256,144,40340,5,8
256,120,40400,1,0
256,96,40460,1,0
256,72,40520,1,0
256,48,40580,1,12
136,64,48260,5,0
184,152,48380,1,0
256,80,48500,1,8
328,152,48620,1,0
376,64,48740,2,0,B|424:32,2,50,0|0|0
440,144,48980,2,0,B|415:185|439:209|415:249,1,100,8|0
400,336,49220,6,0,B|344:320|328:272,1,100,0|0
272,192,49460,1,8
256,96,49580,1,0
112,48,49700,6,0,B|168:64|184:112,1,100,0|0
240,192,49940,1,8
256,288,50060,1,0
344,248,50180,6,0,B|384:152,1,100,0|0
328,72,50420,2,0,B|384:160,1,100,8|0
432,240,50660,1,0
384,328,50780,1,0
288,320,50900,1,8
256,224,51020,1,0
168,136,51140,6,0,B|128:232,1,100,0|0
184,312,51380,2,0,B|128:224,1,100,8|0
80,144,51620,1,0
128,56,51740,1,0
224,64,51860,1,8
256,160,51980,1,0
432,64,52100,6,0,B|376:80|384:144,1,100,0|0
448,216,52340,2,0,B|408:256|344:232,1,100,12|0
256,208,52580,1,0
224,112,52700,1,0
128,128,52820,1,8
128,232,52940,1,0
80,320,53060,6,0,B|136:304|128:240,1,100,0|0
64,168,53300,2,0,B|104:128|168:152,1,100,12|0
256,176,53540,1,0
288,272,53660,1,0
384,256,53780,1,8
384,152,53900,1,0
304,88,54020,6,0,B|256:56|208:88,1,100,0|0
256,176,54260,2,0,B|256:224,2,50,12|0|0
340,228,54500,2,0,B|340:276|340:276|340:292|324:300|324:300|292:316,1,100,0|0
207,309,54740,2,0,B|188:300|188:300|172:292|172:276|172:276|172:228,1,100,8|0
120,144,54980,6,0,B|72:128,2,50,0|0|0
168,56,55220,2,0,B|272:64,1,100,12|0
216,152,55460,2,0,B|320:160,1,100,4|0
368,72,55700,2,0,B|424:96|424:152,1,100,12|0
392,240,55940,6,0,B|440:256,2,50,0|0|0
344,328,56180,2,0,B|240:320,1,100,8|0
296,232,56420,2,0,B|192:224,1,100,0|0
144,312,56660,2,0,B|88:288|88:232,1,100,8|0
184,208,56900,5,0
184,184,56960,1,0
184,160,57020,2,0,B|184:120|184:120|184:104|200:104|200:104|240:104,1,100,0|8
328,136,57260,1,0
328,160,57320,1,0
328,184,57380,2,0,B|328:224|328:224|328:240|312:240|312:240|272:240,1,100,0|0
212,316,57620,1,8
232,332,57680,1,0
256,336,57740,1,0
280,332,57800,1,0
300,316,57860,6,0,B|312:288|368:288|384:264,1,100,4|0
388,168,58100,2,0,B|376:140|320:140|304:116,1,100,8|0
207,116,58340,2,0,B|192:140|136:140|124:168,1,100,0|0
128,264,58580,2,0,B|144:288|200:288|212:316,1,100,8|0
256,224,58820,5,2
256,224,58940,1,0
328,152,59060,1,8
328,152,59180,1,0
256,80,59300,1,2
256,80,59420,1,0
184,152,59540,1,10
184,152,59660,1,0
160,248,59780,6,0,B|160:304|216:320,1,100,0|0
312,288,60020,2,0,B|368:288|384:232,1,100,8|0
352,136,60260,2,0,B|352:80|296:64,1,100,0|0
200,96,60500,2,0,B|144:96|128:152,1,100,8|0
224,192,60740,5,2
224,192,60860,1,0
312,248,60980,1,8
312,248,61100,1,0
400,192,61220,1,2
400,192,61340,1,0
312,144,61460,1,10
312,144,61580,1,0
216,112,61700,6,0,B|200:56|136:56,1,100,0|0
40,64,61940,2,0,B|56:128|96:144,1,100,8|0
94,240,62180,2,0,B|56:256|40:320,1,100,0|0
142,327,62420,2,0,B|200:328|216:272,1,100,8|0
312,248,62660,5,2
312,248,62780,1,0
416,248,62900,1,8
416,248,63020,1,0
416,144,63140,1,2
416,144,63260,1,0
312,144,63380,1,10
312,144,63500,1,0
216,144,63620,6,0,B|168:112|120:144,1,100,0|0
215,240,63860,2,0,B|168:272|122:241,1,100,12|0
296,240,64100,6,0,B|344:272|389:241,1,100,0|0
296,143,64340,2,0,B|344:112|389:142,1,100,8|0
352,48,64580,6,0,B|256:32|152:48,1,200,2|8
160,336,64940,2,0,B|256:352|360:336,1,200,2|8
256,192,65300,1,4
256,192,65540,5,4
352,192,65660,1,0
400,104,65780,1,8
352,16,65900,1,0
256,16,66020,1,0
208,104,66140,1,0
256,192,66260,1,8
304,280,66380,1,0
392,232,66500,6,0,B|328:152,1,100,2|0
200,200,66740,2,0,B|296:136,1,100,8|0
440,112,66980,2,0,B|328:104,1,100,2|0
192,64,67220,2,0,B|288:96,1,100,10|0
256,192,67460,5,0
160,192,67580,1,0
112,280,67700,1,8
160,368,67820,1,0
256,368,67940,1,0
304,280,68060,1,0
256,192,68180,1,8
208,104,68300,1,0
120,152,68420,6,0,B|184:232,1,100,2|0
312,184,68660,2,0,B|216:248,1,100,8|0
72,272,68900,2,0,B|184:280,1,100,2|0
320,320,69140,2,0,B|224:288,1,100,10|0
256,192,69380,5,0
336,128,69500,1,0
416,192,69620,1,12
336,256,69740,1,0
256,192,69860,1,0
176,128,69980,1,0
96,192,70100,1,8
176,256,70220,1,0
256,320,70340,6,0,B|296:272|352:296,1,100,2|0
384,192,70580,2,0,B|336:152|360:96,1,100,12|0
256,64,70820,2,0,B|216:112|160:88,1,100,2|0
128,192,71060,2,0,B|176:232|152:288,1,100,10|0
256,280,71300,6,0,B|312:280|336:232,2,100,4|4|4
256,103,71660,2,0,B|200:104|175:152,2,100,0|8|8
256,192,72020,1,8
408,64,72260,6,0,B|456:80,2,50,8|0|0
256,40,72500,1,0
104,64,72620,2,0,B|56:80,2,50,8|0|0
256,40,72860,2,0,B|256:144,1,100,8|0
232,336,73220,5,2
280,336,73460,5,2
216,336,73700,5,2
296,336,73940,5,2
160,192,74180,5,0
168,168,74240,1,0
176,144,74300,2,0,B|208:48,1,100
304,48,74540,1,0
312,72,74600,1,0
320,96,74660,2,0,B|352:192,1,100
256,224,74900,2,0,B|256:274,3,50
288,312,75140,6,0,B|240:368,2,66.6666666666667
352,328,75380,2,0,B|424:328|424:328|448:328|448:304|448:304|448:104,1,300
344,120,75860,5,0
304,208,75980,1,0
256,120,76100,1,8
208,208,76220,1,0
160,296,76340,1,0
256,328,76460,1,0
352,296,76580,2,0,B|376:344,2,50,8|0|0
432,240,76820,2,0,B|464:192|432:144,1,100,0|0
360,80,77060,6,0,B|304:40,2,66.6666666666667,8|0|0
312,128,77300,2,0,B|240:104,2,66.6666666666667,0|0|0
296,192,77540,2,0,B|224:192,2,66.6666666666667,8|0|0
312,256,77780,2,0,B|240:280,2,66.6666666666667,0|0|0
360,304,78020,5,8
400,280,78100,1,0
428,244,78180,1,0
432,196,78260,1,0
408,156,78340,1,0
376,124,78420,1,0
332,112,78500,1,8
284,112,78580,1,0
240,128,78660,1,0
208,164,78740,1,0
200,212,78820,1,0
220,256,78900,1,0
224,304,78980,6,0,B|160:336,2,66.6666666666667,8|0|0
288,304,79220,2,0,B|352:336,2,66.6666666666667,0|0|0
288,240,79460,2,0,B|384:264,1,100,8|0
224,240,79700,2,0,B|128:264,1,100,0|0
192,184,79940,5,8
208,168,80000,1,0
224,152,80060,2,0,B|192:128|192:88|224:64,1,100,0|0
320,56,80300,1,0
304,72,80360,1,0
288,88,80420,2,0,B|320:112|320:152|288:176,1,100,8|0
384,208,80660,6,0,B|356:249,3,50,0|0|0|0
304,288,80900,2,0,B|328:352,2,66.6666666666667,8|0|0
256,240,81140,2,0,B|256:168,2,66.6666666666667,0|0|0
208,288,81380,2,0,B|184:352,2,66.6666666666667,8|0|0
155,249,81620,2,0,B|128:208,3,50,0|0|0|0
112,160,81860,6,0,B|48:152|24:208,1,100,12|0
400,224,82220,2,0,B|464:232|488:176,1,100,0|8
104,248,82580,5,8
256,192,82700,1,0
408,136,82820,2,0,B|466:114|456:52|407:24|348:46|359:107,2,200,8|0|8
304,304,83540,6,0,B|336:272|376:312|344:344,2,100,0|0|8
208,304,83900,2,0,B|176:272|136:312|168:344,2,100,0|0|0
176,208,84260,1,8
256,144,84380,2,0,B|256:96,2,50,0|0|0
336,208,84620,1,0
384,296,84740,6,0,B|400:344|400:344|456:352,1,100,8|0
288,296,84980,2,0,B|304:344|304:344|360:352,1,100,0|0
184,296,85220,2,0,B|200:344|200:344|256:352,1,100,8|0
80,296,85460,2,0,B|96:344,2,50,0|0|0
136,208,85700,6,0,B|80:168,2,66.6666666666667,8|0|0
192,176,85940,2,0,B|160:112,2,66.6666666666667,0|0|0
256,160,86180,2,0,B|256:88,2,66.6666666666667,8|0|0
320,176,86420,2,0,B|352:112,2,66.6666666666667,0|0|0
376,208,86660,1,8
304,280,86780,6,0,B|288:232,2,50
208,280,87020,2,0,B|224:232,2,50,2|0|4
376,240,87260,2,0,B|392:288,2,50,0|0|0
136,240,87500,2,0,B|120:288,2,50,2|0|0
348,164,87740,6,0,B|332:116,2,50,0|0|0
164,164,87980,2,0,B|180:116,2,50,2|0|4
396,72,88220,2,0,B|411:119,2,50
116,72,88460,2,0,B|100:119,2,50,2|0|0
256,192,88700,12,4,90380
120,112,90500,5,4
80,200,90620,1,0
136,280,90740,1,8
216,224,90860,1,0
296,160,90980,1,0
376,104,91100,1,0
432,184,91220,1,8
392,272,91340,1,0
296,256,91460,6,0,B|272:304|216:312,1,100,2|0
132,264,91700,2,0,B|156:216|212:208,1,100,8|0
301,175,91940,2,0,B|356:168|380:120,1,100,2|0
294,72,92180,2,0,B|240:80|216:128,1,100,8|0
120,160,92420,5,0
168,248,92540,1,0
256,296,92660,1,8
344,248,92780,1,0
392,160,92900,1,0
304,104,93020,1,0
256,192,93140,1,8
208,104,93260,1,0
112,72,93380,6,0,B|88:128|88:128|96:176,1,100,2|0
160,240,93620,2,0,B|216:256|216:256|256:240,1,100,8|0
257,143,93860,2,0,B|296:128|296:128|352:144,1,100,2|0
417,217,94100,2,0,B|424:256|424:256|400:312,1,100,8|0
304,328,94340,5,0
256,240,94460,1,0
160,208,94580,1,8
176,112,94700,1,0
256,56,94820,1,0
336,112,94940,1,0
352,208,95060,1,8
256,240,95180,1,0
208,328,95300,6,0,B|168:288|112:288,1,100,2|0
120,184,95540,2,0,B|176:184|176:184|216:160,1,100,8|0
298,222,95780,2,0,B|336:200|336:200|392:200,1,100,2|0
393,95,96020,2,0,B|344:96|304:56,1,100,8|0
208,72,96260,5,0
228,112,96340,1,0
264,144,96420,1,0
304,168,96500,1,8
348,184,96580,1,0
388,208,96660,1,0
412,248,96740,1,0
411,294,96820,1,0
384,332,96900,1,0
340,348,96980,1,8
292,340,97060,1,0
248,336,97140,1,0
208,312,97220,6,0,B|152:376,2,66.6666666666667,0|0|0
160,264,97460,2,0,B|88:264,2,66.6666666666667,8|0|0
208,216,97700,2,0,B|152:152,2,66.6666666666667,0|0|0
256,264,97940,2,0,B|304:280,3,50,8|0|0|0
352,264,98180,5,4
408,184,98300,1,0
376,88,98420,1,8
312,160,98540,1,0
256,80,98660,1,0
200,160,98780,1,0
136,88,98900,1,8
104,184,99020,1,0
160,264,99140,1,0
256,296,99260,5,0
280,288,99320,1,0
304,280,99380,2,0,B|344:264|344:224|304:208,1,100,8|0
256,120,99620,1,0
232,128,99680,1,0
208,136,99740,2,0,B|168:152|168:192|208:208,2,100,0|8|0
136,72,100100,5,0
64,144,100220,1,0
64,240,100340,1,8
136,312,100460,1,0
232,280,100580,2,0,B|280:272|280:224|264:224|256:192,1,100,0|0
280,104,100820,2,0,B|232:112|232:160|248:160|256:192,1,100,8|0
376,72,101060,5,0
448,144,101180,1,0
448,240,101300,1,8
376,312,101420,1,0
280,280,101540,2,0,B|232:272|232:224|248:224|256:192,1,100,0|0
232,104,101780,2,0,B|280:112|280:160|264:160|256:192,1,100,8|0
176,232,102020,6,0,B|144:296,2,66.6666666666667,0|0|0
112,224,102260,2,0,B|80:288,2,66.6666666666667,8|0|0
112,160,102500,2,0,B|80:96,2,66.6666666666667,0|0|0
176,152,102740,2,0,B|144:88,2,66.6666666666667,8|0|0
240,144,102980,2,0,B|288:88,2,66.6666666666667,0|0|0
304,160,103220,2,0,B|368:144,2,66.6666666666667,8|0|0
304,224,103460,2,0,B|368:240,2,66.6666666666667,0|0|0
240,240,103700,2,0,B|288:296,2,66.6666666666667,8|0|0
176,224,103940,5,0
136,204,104020,1,0
120,160,104100,1,0
128,112,104180,1,8
164,84,104260,1,0
212,80,104340,1,0
256,96,104420,1,2
300,80,104500,1,0
348,84,104580,1,0
384,112,104660,5,8
392,160,104740,1,0
376,204,104820,1,0
336,224,104900,1,0
292,216,104980,1,0
248,204,105060,1,0
204,216,105140,1,8
188,260,105220,1,0
212,300,105300,1,0
256,312,105380,6,0,B|320:336,5,66.6666666666667,0|0|0|8|0|0
368,288,105860,5,4
448,232,105980,1,0
456,136,106100,1,8
384,64,106220,1,0
288,88,106340,2,0,B|241:103|241:103|225:151,2,100,0|0|8
360,160,106700,6,0,B|320:264,1,100,0|2
224,240,106940,1,0
224,240,107060,1,8
152,312,107180,2,0,B|112:208,1,100,0|2
117,218,107420,2,0,B|184:144,2,100,0|8|0
88,120,107780,5,0
160,48,107900,1,0
256,32,108020,1,8
352,48,108140,1,0
424,120,108260,2,0,B|456:160|456:160|448:208,2,100,0|0|8
360,192,108620,6,0,B|328:304,1,100,0|2
256,176,108860,1,0
256,176,108980,1,8
224,80,109100,2,0,B|144:152,1,100,0|2
149,146,109340,2,0,B|80:72,2,100,0|8|0
152,248,109700,5,0
192,336,109820,1,0
256,256,109940,1,8
320,336,110060,1,0
360,248,110180,2,0,B|384:200|384:200|432:200,2,100,0|0|8
288,184,110540,6,0,B|336:72,1,100,0|2
256,24,110780,1,0
256,24,110900,1,8
184,92,111020,2,0,B|224:184,1,100,0|2
224,183,111260,2,0,B|157:258,2,100,0|8|0
256,288,111620,5,0
300,282,111700,1,0
339,260,111780,1,0
362,220,111860,1,8
339,181,111940,1,0
300,159,112020,1,0
256,153,112100,1,0
211,159,112180,1,0
172,181,112260,1,0
149,220,112340,1,8
172,260,112420,1,0
211,282,112500,1,0
256,288,112580,6,0,B|256:236|256:236|248:216|248:216|264:216|264:216|256:196|256:196|256:116|256:116|248:96|248:96|264:96|264:96|256:76|256:76|256:16,2,300,8|0|8
352,288,113420,2,0,B|336:352,1,50,8|0
352,288,113540,6,0,B|400:264|424:216,1,100,0|0
328,184,113780,1,8
400,112,113900,1,0
304,88,114020,2,0,B|312:32|376:16,2,100,0|0|8
112,48,114380,5,0
208,64,114500,2,0,B|192:120|136:144,2,100,2|0|8
48,184,114860,5,0
104,272,114980,2,0,B|128:320|192:312,1,100,2|0
277,222,115220,2,0,B|232:192|184:224,1,100,8|0
136,136,115460,6,0,B|128:80|176:48,1,100,0|0
256,112,115700,1,8
336,48,115820,1,0
376,136,115940,2,0,B|432:112|432:56,2,100,0|0|8
256,296,116300,5,0
304,208,116420,2,0,B|256:184|208:208,2,100,2|0|8
112,264,116780,5,0
64,176,116900,2,0,B|48:128|48:128|80:72,1,100,2|0
251,86,117140,2,0,B|224:120|224:120|168:112,1,100,8|0
192,208,117380,6,0,B|296:232,1,100,0|0
264,328,117620,1,8
360,352,117740,1,0
392,256,117860,2,0,B|448:272|448:272|456:320,2,100,0|0|8
232,136,118220,5,0
176,56,118340,2,0,B|128:80|128:136,2,100,2|0|8
128,248,118700,5,0
184,336,118820,2,0,B|288:280,1,100,2|0
448,192,119060,2,0,B|359:239,1,100,8|0
288,168,119300,6,0,B|256:72,1,100,0|0
224,216,119540,2,0,B|256:312,1,100,8|0
352,128,119780,2,0,B|320:32,1,100,8|0
160,256,120020,2,0,B|192:352,1,100,0|0
88,288,120260,6,0,B|56:192|56:192|88:96,1,200,4|0
424,96,120620,2,0,B|456:192|456:192|424:288,1,200,4|0
256,312,120980,2,0,B|256:360,2,50,8|0|8
212,220,121220,5,4
204,196,121280,1,0
196,172,121340,2,0,B|220:124|220:124|196:84,1,100
300,84,121580,1,4
308,108,121640,1,0
316,132,121700,2,0,B|292:180|292:180|316:220,1,100
384,296,121940,2,0,B|416:336,2,50,4|0|0
400,200,122180,6,0,B|424:152|424:152|408:104,1,100,0|4
112,184,122420,2,0,B|88:232|88:232|104:280,1,100
336,144,122660,1,8
176,240,122780,1,0
256,192,122900,2,0,B|288:240,4,50,12|0|0|0|12
256,192,123260,12,4,125060
