osu file format v9

[General]
AudioFilename: Intersect Thunderbolt.mp3
AudioLeadIn: 2000
PreviewTime: 9870
Countdown: 0
SampleSet: Normal
StackLeniency: 0.7
Mode: 0
LetterboxInBreaks: 0

[Editor]
DistanceSpacing: 1
BeatDivisor: 2
GridSize: 8

[Metadata]
Title:Intersect Thunderbolt
Artist:S.S.H.
Creator:Deif
Version:Normal
Source:eXceed3rd
Tags:Saitama Saisyu Heiki Jade Penetrate Black Package DaxMasterix Verdisphena

[Difficulty]
HPDrainRate:4
CircleSize:3
OverallDifficulty:4
ApproachRate:5
SliderMultiplier:0.75
SliderTickRate:1

[Events]
//Background and Video events
0,0,"BG.jpg"
//Break Periods
2,40780,47060
//Storyboard Layer 0 (Background)
//Storyboard Layer 1 (Fail)
//Storyboard Layer 2 (Pass)
//Storyboard Layer 3 (Foreground)
//Storyboard Sound Samples
//Background Colour Transformations
3,100,163,162,255

[TimingPoints]
260,240,4,1,1,60,1,0
2060,-100,4,1,1,70,0,0
3740,-100,4,1,1,60,0,0
3980,-100,4,1,1,70,0,0
4940,-100,4,1,1,60,0,0
5900,-100,4,1,1,70,0,0
7580,-100,4,1,1,60,0,0
7820,-100,4,1,1,70,0,0
8600,-100,4,1,1,50,0,0
8840,-100,4,1,1,60,0,0
57860,-100,4,1,1,50,0,0
73160,-100,4,2,0,60,0,0
74000,-100,4,1,1,60,0,0
75380,-100,4,1,1,65,0,1
90500,-100,4,1,1,60,0,0
121220,-100,4,1,1,75,0,0

[Colours]
Combo1 : 128,0,0
Combo2 : 202,202,0
Combo3 : 255,128,0
Combo4 : 255,0,0

[HitObjects]
96,168,260,2,0,B|136:152|168:184|208:168,1,112.5,8|8
304,216,980,2,0,B|344:200|376:232|416:216,1,112.5,8|8
392,104,1700,5,8
392,104,1940,1,12
392,104,2180,1,12
392,104,3860,6,0,B|344:112|344:160,1,75,4|12
112,344,5060,6,0,B|92:296|124:256|124:256|120:232,2,112.5,0|0|12
180,308,6020,1,4
181,308,7700,6,0,B|229:300|229:252,1,75,4|12
376,88,8660,5,0
320,136,8900,2,0,B|280:144|264:184|264:184|224:176,2,112.5,0|8|8
336,208,9860,6,0,B|320:248|280:256,1,75,4|8
216,288,10340,1,0
144,304,10580,1,8
128,232,10820,2,0,B|139:196|179:180,3,75,0|8|0|8
248,152,11780,6,0,B|295:152|315:125,1,75,0|8
288,56,12260,1,0
216,40,12500,1,8
144,64,12740,2,0,B|136:112|152:144,3,75,0|8|0|8
224,120,13700,6,0,B|232:160|272:184,1,75,0|8
200,216,14180,2,0,B|248:256|280:248,1,75,0|8
224,312,14660,2,0,B|280:328|312:304,3,75,0|8|0|8
360,272,15620,6,0,B|392:247|392:207,1,75,0|8
456,168,16100,2,0,B|456:128|416:104,1,75,0|8
464,48,16580,2,0,B|440:16|392:24,3,75,0|8|0|8
328,48,17540,6,0,B|247:48|247:48|225:70,2,112.5,0|0|8
376,104,18500,2,0,B|344:176,1,75,0|8
272,168,18980,2,0,B|304:240,1,75,0|8
344,296,19460,6,0,B|376:224|376:224|416:224,2,112.5,0|0|8
272,320,20420,2,0,B|200:296,1,75,0|8
152,240,20900,2,0,B|184:168,1,75,0|8
256,192,21380,12,4,24260
312,192,24980,5,12
288,264,25220,2,0,B|240:256|200:288,1,75,4|8
144,296,25700,1,0
80,256,25940,1,8
64,184,26180,2,0,B|80:144|128:128,3,75,0|8|0|8
184,104,27140,6,0,B|232:104|256:72,1,75,0|8
320,104,27620,1,0
392,80,27860,1,8
416,152,28100,2,0,B|424:200|408:232,3,75,0|8|0|8
344,192,29060,6,0,B|336:232|296:256,1,75,0|8
264,184,29540,2,0,B|216:224|184:216,1,75,0|8
184,144,30020,2,0,B|152:160|112:160,3,75,0|8|0|8
40,168,30980,6,0,B|40:208|72:232,1,75,0|8
24,288,31460,2,0,B|72:296|80:344,1,75,0|8
128,280,31940,2,0,B|152:320|192:320,3,75,0|8|0|8
264,320,32900,6,0,B|344:320|344:320|368:296,2,112.5,0|0|8
224,256,33860,2,0,B|192:184,1,75,0|8
256,144,34340,2,0,B|288:216,1,75,0|8
360,192,34820,6,0,B|328:120|328:120|336:88,2,112.5,0|0|8
400,256,35780,2,0,B|328:280,1,75,0|8
256,296,36260,2,0,B|256:216,1,75,0|8
256,192,36740,12,4,39620
256,192,40340,5,8
256,192,40580,1,12
368,128,48260,6,0,B|352:200|352:200|288:248,1,150
224,280,48980,1,8
152,256,49220,2,0,B|168:184|168:184|232:136,1,150
296,104,49940,1,8
368,80,50180,6,0,B|328:16,2,75,0|8|0
440,104,50900,1,8
384,152,51140,2,0,B|304:168,3,75,0|8|0|8
240,184,52100,6,0,B|232:144|200:120,1,75,0|12
136,88,52580,2,0,B|96:80|64:104,1,75,0|8
104,168,53060,2,0,B|128:152|160:168|160:192|160:192|160:272,1,150
160,344,53780,1,8
232,320,54020,6,0,B|264:344|304:336,2,75,0|12|0
280,264,54740,2,0,B|280:203|236:160,2,112.5,8|0|4
352,280,55700,1,12
376,208,55940,5,0
376,208,56180,1,8
400,136,56420,1,0
400,136,56660,1,8
424,64,56900,2,0,B|464:80|472:120|472:120|480:176,2,112.5,0|0|8
352,48,57860,6,0,B|240:32,1,112.5,4|0
320,112,58580,2,0,B|208:96,1,112.5,8|0
96,88,59300,2,0,B|72:160,1,75,2|10
48,232,59780,6,0,B|159:247,1,112.5
64,304,60500,2,0,B|175:319,1,112.5,8|0
288,320,61220,2,0,B|304:280|288:248,1,75,2|10
264,176,61700,6,0,B|248:120|264:64,1,112.5
344,144,62420,2,0,B|359:199|343:255,1,112.5,8|0
240,296,63140,2,0,B|200:296|168:280,1,75,2|10
184,208,63620,6,0,B|200:152|184:96,1,112.5
256,184,64340,1,8
328,208,64580,2,0,B|312:152|328:96,1,112.5,2|2
256,184,65300,1,4
256,184,65540,6,0,B|256:320|256:336|256:336|240:336|184:336,1,225,4|8
184,264,66500,2,0,B|184:184,1,75,2|8
184,112,66980,1,2
184,112,67220,1,10
184,112,67460,6,0,B|256:64|320:112|320:112|296:152|320:192,1,225,0|8
384,152,68420,2,0,B|424:152|440:200,1,75,2|8
456,272,68900,1,2
456,272,69140,1,10
456,272,69380,6,0,B|440:320|408:320|392:320|392:320|376:320|320:320|352:248|280:248,1,225,0|8
208,240,70340,2,0,B|168:240|136:216,1,75,2|12
80,168,70820,1,2
80,168,71060,1,10
80,168,71300,6,0,B|120:136|120:96,1,75,4|4
180,152,71780,2,0,B|220:120|220:80,1,75,8|8
292,90,72260,2,0,B|292:120|332:152,1,75,8|0
392,106,72740,2,0,B|392:136|432:168,1,75
256,192,73220,12,0,75140
256,272,75860,5,0
312,224,76100,2,0,B|392:224,2,75,8|0|8
256,176,76820,2,0,B|256:136|224:112,1,75,0|8
152,88,77300,2,0,B|120:80|120:80|120:72|120:72|88:64,2,75,0|8|0
168,160,78020,5,8
128,224,78260,2,0,B|120:256|120:256|112:256|112:256|104:288,2,75,0|8|0
204,224,78980,2,0,B|212:256|212:256|220:256|220:256|228:288,2,75,8|0|8
256,168,79700,5,0
304,224,79940,1,8
304,224,80180,1,0
352,168,80420,1,8
352,168,80660,6,0,B|336:128|336:88,1,75,0|8
292,36,81140,2,0,B|256:56|220:36,1,75,0|8
175,95,81620,2,0,B|176:128|160:168,1,75,0|12
140,240,82100,5,0
213,240,82340,2,0,B|212:281|177:302,1,75,8|8
214,366,82820,2,0,B|283:324|285:242,1,150,8|8
288,168,83540,6,0,B|296:120|328:104,1,75,0|8
392,136,84020,1,0
464,136,84260,2,0,B|464:96|432:72,2,75,8|0|8
480,208,84980,5,0
480,208,85220,1,8
464,280,85460,2,0,B|464:320|432:344,2,75,0|8|0
392,280,86180,2,0,B|368:248|328:248,1,75,8|0
216,248,86780,6,0,B|136:248,3,75,0|2|0|2
144,176,87740,2,0,B|224:176,3,75,0|2|0|2
256,192,88700,12,4,90500
88,96,91460,6,0,B|168:96,1,75,0|8
128,160,91940,2,0,B|208:160,1,75,0|8
240,96,92420,1,0
384,144,92900,1,0
424,288,93380,6,0,B|344:288,1,75,0|8
384,224,93860,2,0,B|304:224,1,75,0|8
272,288,94340,1,0
128,240,94820,1,0
216,120,95300,6,0,B|240:88|280:88,1,75,0|8
296,160,95780,2,0,B|272:192|232:192,1,75,0|8
256,192,96260,12,4,98180
112,120,99140,5,0
256,80,99620,1,0
208,224,100100,6,0,B|220:304,1,75,0|8
292,298,100580,2,0,B|304:224,1,75,0|8
376,248,101060,2,0,B|384:208|360:176,1,75,0|8
296,144,101540,2,0,B|248:136|256:88,1,75,0|8
320,56,102020,6,0,B|368:24|416:88|464:56,2,150
256,192,103460,1,0
192,328,103940,6,0,B|144:360|96:296|48:328,1,150
160,232,104900,2,0,B|120:184|160:128,1,112.5
256,72,105620,1,8
256,72,105860,6,0,B|288:128|256:184|256:184|256:216,2,150,4|0|0
392,128,107300,1,0
392,128,107540,1,8
392,128,107780,6,0,B|344:128|344:128|336:72|312:32,2,150
320,264,109220,1,0
320,264,109460,1,8
320,264,109700,6,0,B|328:200|328:200|416:200,2,150
256,128,111140,1,0
256,128,111380,1,8
256,128,111620,6,0,B|184:128|184:128|144:192|144:192|64:192,1,225,0|8
40,264,112580,2,0,B|152:264,1,112.5,8|0
256,312,113300,1,8
328,304,113540,6,0,B|328:264|288:240,1,75
216,240,114020,2,0,B|216:200|256:176,1,75,0|8
328,176,114500,1,0
408,48,114980,1,0
408,48,115220,1,8
408,48,115460,6,0,B|328:48,1,75,0|8
292,112,115940,2,0,B|256:96|220:112,1,75,0|8
180,48,116420,1,0
256,176,116900,1,0
256,176,117140,1,8
256,176,117380,6,0,B|216:240,1,75,0|8
256,176,117860,2,0,B|296:240,1,75,0|8
256,304,118340,1,0
160,192,118820,1,0
160,192,119060,1,8
160,192,119300,6,0,B|160:112|232:64,1,150,0|8
256,136,120020,1,0
282,66,120260,2,0,B|352:112|352:192,1,150,4|0
352,264,120980,1,8
280,280,121220,6,0,B|248:328|184:328,2,112.5,4|4|4
216,240,122180,2,0,B|248:192|312:192,2,112.5,0|0|12
256,192,123140,12,4,125060
