osu file format v9

[General]
AudioFilename: Intersect Thunderbolt.mp3
AudioLeadIn: 2000
PreviewTime: 9870
Countdown: 0
SampleSet: Normal
StackLeniency: 0.7
Mode: 0
LetterboxInBreaks: 0

[Editor]
DistanceSpacing: 1
BeatDivisor: 4
GridSize: 4

[Metadata]
Title:Intersect Thunderbolt
Artist:S.S.H.
Creator:Deif
Version:Insane
Source:eXceed3rd
Tags:Saitama Saisyu Heiki Jade Penetrate Black Package DaxMasterix Verdisphena

[Difficulty]
HPDrainRate:6
CircleSize:4
OverallDifficulty:6
ApproachRate:8
SliderMultiplier:1.5
SliderTickRate:1

[Events]
//Background and Video events
0,0,"BG.jpg"
//Break Periods
2,40780,47510
//Storyboard Layer 0 (Background)
//Storyboard Layer 1 (Fail)
//Storyboard Layer 2 (Pass)
//Storyboard Layer 3 (Foreground)
//Storyboard Sound Samples
//Background Colour Transformations
3,100,163,162,255

[TimingPoints]
260,240,4,1,1,60,1,0
2060,-100,4,1,1,70,0,0
3740,-100,4,1,1,60,0,0
3980,-100,4,1,1,70,0,0
4940,-100,4,1,1,60,0,0
5900,-100,4,1,1,70,0,0
7580,-100,4,1,1,60,0,0
7820,-100,4,1,1,70,0,0
8600,-100,4,1,1,50,0,0
8840,-100,4,1,1,60,0,0
57860,-100,4,1,1,50,0,0
73160,-100,4,2,0,60,0,0
74000,-100,4,1,1,60,0,0
75380,-100,4,1,1,75,0,1
90500,-100,4,1,1,60,0,0
121220,-100,4,1,1,75,0,0

[Colours]
Combo1 : 128,0,0
Combo2 : 202,202,0
Combo3 : 255,128,0
Combo4 : 255,0,0

[HitObjects]
304,128,260,2,0,B|264:112|240:80,2,75,8|0|0
344,192,620,2,0,B|384:176|440:184,2,75,8|0|0
208,256,980,6,0,B|248:272|272:304,2,75,8|0|0
168,192,1340,2,0,B|128:208|72:200,2,75,8|0|0
128,128,1700,5,8
384,256,1940,1,12
256,192,2180,1,12
157,234,3860,5,4
354,149,4100,1,12
157,149,5060,5,8
204,208,5180,1,0
241,142,5300,2,0,B|270:114|312:114,1,75,8|0
411,156,5540,2,0,B|383:184|340:184,1,75,8|0
340,297,5780,2,0,B|284:234,2,75,12|0|4
354,149,7700,5,4
157,234,7940,1,12
404,227,8660,6,0,B|432:262|418:304,1,75
347,319,8900,1,8
277,290,9020,1,0
206,262,9140,1,0
121,227,9260,5,8
206,199,9380,1,0
291,170,9500,1,0
375,135,9620,2,0,B|404:163,2,37.5,8|0|8
220,79,9860,6,0,B|258:79|293:64,2,75,4|0|8
143,79,10220,1,0
93,135,10340,2,0,B|72:170|100:206,1,75
164,163,10580,2,0,B|206:149|241:177,1,75,8|0
284,234,10820,6,0,B|319:262|390:262|425:234,1,150,0|8
227,234,11300,2,0,B|192:262|121:262|86:234,1,150,0|8
157,100,11780,6,0,B|119:100|84:114,2,75,0|0|8
234,107,12140,1,0
312,114,12260,2,0,B|333:79|375:79,1,75
383,156,12500,2,0,B|425:163|453:206,1,75,8|0
383,234,12740,6,0,B|375:255|347:269|319:255|319:255|326:206|326:206|305:184,1,150,0|8
128,234,13220,2,0,B|136:255|164:269|192:255|192:255|185:206|185:206|206:184,1,150,0|8
256,326,13700,6,0,B|298:326|298:326|319:297,2,75,0|0|8
178,326,14060,1,0
136,262,14180,2,0,B|107:192,1,75
185,192,14420,2,0,B|213:262,1,75,8|0
284,234,14660,6,0,B|326:184|326:184|368:206|411:177,1,150,0|8
227,149,15140,2,0,B|185:199|185:199|143:177|100:206,1,150,0|8
185,79,15620,6,0,B|157:114|157:114|128:114,2,75,0|0|8
256,57,15980,1,0
326,79,16100,2,0,B|354:114|354:114|383:114,1,75
446,156,16340,2,0,B|418:192|418:192|390:192,1,75,8|0
312,192,16580,6,0,B|319:241|361:262|361:262|333:319,1,150,0|8
199,192,17060,2,0,B|192:142|150:121|150:121|178:64,1,150,0|8
107,199,17540,6,0,B|58:135,2,75,0|0|12
157,255,17900,1,0
220,297,18020,2,0,B|256:319|291:297,1,75
291,220,18260,2,0,B|256:199|220:220,1,75,8|0
157,255,18500,6,0,B|143:220|157:184|157:184|199:149|178:114,1,150,0|8
354,255,18980,2,0,B|368:220|354:184|354:184|312:149|333:114,1,150,0|8
432,227,19460,6,0,B|432:184|416:144,2,75,0|0|8
418,304,19820,1,0
347,319,19940,2,0,B|312:340|277:333,1,75
291,262,20180,2,0,B|254:254|218:275,1,75,8|0
206,199,20420,6,0,B|157:163|107:227|58:192,1,150,0|8
305,184,20900,2,0,B|354:220|404:156|453:192,1,150,0|8
328,96,21380,6,0,B|288:88|248:112,1,75,2|0
184,128,21620,1,12
112,112,21740,1,0
104,184,21860,2,0,B|104:232|144:256,1,75,2|0
208,232,22100,2,0,B|216:280|184:304,1,75,8|0
304,232,22340,6,0,B|296:280|328:304,1,75,2|0
376,248,22580,1,12
424,192,22700,1,0
400,120,22820,2,0,B|392:80|352:64,1,75,2|0
280,48,23060,2,0,B|232:40|208:72,1,75,8|0
328,152,23300,6,0,B|288:160|264:120,1,75,2|0
192,144,23540,1,4
120,168,23660,1,0
104,240,23780,2,0,B|104:296|64:312,1,75,2|0
136,352,24020,2,0,B|168:328|216:344,1,75,12|0
264,296,24260,6,0,B|256:256,2,37.5,8|0|0
336,288,24500,2,0,B|368:312|416:296,2,75,8|0|8
208,200,24860,2,0,B|240:176|288:192,2,75,0|12|0
80,112,25220,6,0,B|40:104|16:72,2,75,4|0|8
152,128,25580,2,0,B|192:128|216:96,1,75
256,32,25820,1,0
295,95,25940,2,0,B|320:128|360:128,1,75,8|0
432,128,26180,6,0,B|448:201,2,75,0|0|8
80,256,26660,2,0,B|63:182,2,75,0|0|8
128,112,27140,6,0,B|145:186,2,75,0|0|8
192,72,27500,2,0,B|192:112|224:144,1,75,0|0
280,184,27740,1,0
328,240,27860,2,0,B|360:208|352:168,1,75,8|0
382,103,28100,6,0,B|344:88|312:112,2,75,0|0|8
129,104,28580,2,0,B|168:88|200:112,2,75,0|0|8
152,256,29060,6,0,B|104:240|72:264,2,75,0|0|8
224,280,29420,2,0,B|272:296|304:272,1,75
368,256,29660,1,0
408,192,29780,2,0,B|408:144|376:128,1,75,8|0
320,80,30020,6,0,B|352:56|352:56|392:56,2,75,0|0|8
192,304,30500,2,0,B|160:328|160:328|120:328,2,75,0|0|8
344,304,30980,6,0,B|312:328|312:328|272:328,2,75,0|0|8
400,256,31340,2,0,B|432:224|432:224|440:192,1,75
432,120,31580,1,0
384,64,31700,2,0,B|352:48|352:48|312:48,1,75,8|0
240,48,31940,6,0,B|248:88|248:88|272:112,2,75,0|0|8
272,336,32420,2,0,B|264:296|264:296|240:272,2,75,0|0|8
136,272,32900,6,0,B|88:336,2,75,0|0|12
176,208,33260,2,0,B|200:176|200:136,1,75
192,64,33500,1,0
120,32,33620,2,0,B|72:48|72:88,1,75,8|0
120,144,33860,6,0,B|112:176|88:184|64:160,2,75,0|0|8
392,144,34340,2,0,B|400:176|424:184|448:160,2,75,0|0|8
256,200,34820,6,0,B|256:280,2,75,0|0|8
288,136,35180,2,0,B|272:112|240:112|224:136,1,75
168,184,35420,1,0
112,240,35540,2,0,B|72:256|40:232,1,75,8|0
80,168,35780,6,0,B|88:120|128:104,2,75,0|0|8
432,216,36260,2,0,B|424:264|384:280,2,75,0|0|8
384,72,36740,6,0,B|344:64|304:88,1,75,2|0
256,136,36980,1,12
184,112,37100,1,0
136,168,37220,2,0,B|136:216|96:240,1,75,2|0
32,256,37460,2,0,B|24:304|56:328,1,75,8|0
168,336,37700,6,0,B|152:288|192:256,1,75,2|0
248,232,37940,1,12
320,256,38060,1,0
376,208,38180,2,0,B|360:168|384:136,1,75,2|0
392,64,38420,2,0,B|344:72|320:40,1,75,8|0
216,80,38660,6,0,B|256:72|280:112,1,75,2|0
288,184,38900,1,12
224,224,39020,1,0
160,264,39140,2,0,B|160:320|200:336,1,75,6|0
264,336,39380,2,0,B|303:349|335:325,1,75,12|0
408,304,39620,6,0,B|416:344,2,37.5,8|0|0
368,240,39860,2,0,B|336:216|288:232,2,75,8|0|8
240,160,40220,2,0,B|208:136|160:152,2,75,0|8|0
104,96,40580,1,4
416,168,48260,6,0,B|400:208|400:208|416:240,1,75
448,304,48500,1,8
384,344,48620,1,0
328,296,48740,2,0,B|344:272|344:272|320:224,2,75,0|0|8
272,344,49100,1,0
224,288,49220,6,0,B|216:240|176:224,1,75
184,152,49460,2,0,B|176:104|136:88,1,75,8|0
288,96,49700,6,0,B|296:144|336:160,1,75
328,232,49940,2,0,B|336:280|376:296,1,75,8|0
424,240,50180,6,0,B|456:272|440:320,2,75,0|0|8
400,168,50540,1,0
352,112,50660,2,0,B|320:80|280:88,1,75
216,120,50900,2,0,B|208:168|144:160,1,75,8|0
88,144,51140,6,0,B|56:112|72:64,2,75,0|0|8
112,216,51500,1,0
160,272,51620,2,0,B|192:304|232:296,1,75
296,264,51860,2,0,B|304:216|368:224,1,75,8|0
368,152,52100,6,0,B|413:145|421:193,1,75
440,264,52340,1,12
376,304,52460,1,0
312,344,52580,2,0,B|264:360|232:344,1,75
168,320,52820,2,0,B|176:288|208:288|216:256,1,75,8|0
144,232,53060,6,0,B|98:238|90:190,1,75
72,120,53300,1,12
136,80,53420,1,0
200,40,53540,2,0,B|248:24|280:40,1,75
344,64,53780,2,0,B|336:96|304:96|296:128,1,75,8|0
312,192,54020,6,0,B|304:240|320:272,1,75
256,312,54260,2,0,B|256:232,2,75,12|0|0
194,265,54620,2,0,B|208:240|200:192,1,75,0|8
256,144,54860,1,0
208,88,54980,6,0,B|184:104|152:72|128:88,1,75
160,152,55220,2,0,B|136:168|104:136|80:152,1,75,12|0
304,88,55460,2,0,B|328:104|360:72|384:88,1,75,4|0
352,152,55700,2,0,B|376:168|408:136|432:152,1,75,12|0
392,216,55940,6,0,B|368:288,1,75
215,303,56180,2,0,B|192:232,1,75,8|0
320,232,56420,2,0,B|296:304,1,75
143,287,56660,2,0,B|120:216,1,75,8|0
168,160,56900,6,0,B|152:112|112:104,2,75,0|0|8
256,104,57260,1,0
344,160,57380,2,0,B|360:112|400:104,2,75,0|0|8
256,216,57740,1,0
168,160,57860,6,0,B|128:216|168:280|168:280|152:320,1,150,4|8
96,344,58220,1,0
80,272,58340,2,0,B|48:192|96:128,1,150,0|8
224,56,58820,6,0,B|200:96|160:88,1,75,2|0
232,120,59060,2,0,B|256:160|296:152,1,75,8|0
224,184,59300,2,0,B|200:224|160:216,1,75,2|0
232,248,59540,2,0,B|256:288|296:280,1,75,10|0
344,224,59780,6,0,B|384:168|344:104|344:104|360:64,1,150,0|8
416,40,60140,1,0
432,112,60260,2,0,B|464:192|416:256,1,150,0|8
288,328,60740,6,0,B|312:288|352:296,1,75,2|0
280,264,60980,2,0,B|256:224|216:232,1,75,8|0
288,200,61220,2,0,B|312:160|352:168,1,75,2|0
280,136,61460,2,0,B|256:96|216:104,1,75,10|0
144,96,61700,6,0,B|144:128|160:152|160:152|200:184|192:232,1,150,0|8
120,216,62060,1,0
48,200,62180,2,0,B|39:248|79:280|79:280|64:352,1,150,0|8
216,336,62660,6,0,B|288:320,1,75,2|0
352,280,62900,2,0,B|280:264,1,75,8|0
216,224,63140,2,0,B|288:208,1,75,2|0
352,168,63380,2,0,B|280:152,1,75,10|0
216,112,63620,6,0,B|136:80|72:128,1,150,0|12
58,268,63980,2,0,B|26:188|73:126,1,150
128,180,64340,1,8
296,272,64580,6,0,B|376:304|440:256,1,150,2|8
453,115,64940,2,0,B|485:195|439:258,1,150,2|0
384,204,65300,1,12
88,64,65540,6,0,B|144:176|144:176|176:184,1,150,4|8
200,112,65900,1,0
224,40,66020,2,0,B|256:48|256:48|288:128|288:128|320:136,1,150,0|8
216,248,66500,6,0,B|144:264,2,75,2|0|8
288,232,66860,1,0
344,280,66980,2,0,B|416:240,1,75,2|0
464,192,67220,2,0,B|480:272,1,75,10|0
424,320,67460,6,0,B|368:208|368:208|336:200,1,150,0|8
312,272,67820,1,0
288,344,67940,2,0,B|256:336|256:336|224:256|224:256|192:248,1,150,0|8
296,136,68420,6,0,B|368:120,2,75,2|0|8
224,152,68780,1,0
168,104,68900,2,0,B|96:144,1,75,2|0
48,192,69140,2,0,B|32:112,1,75,10|0
80,64,69380,6,0,B|152:24|152:24|200:16|224:56,1,150,0|12
256,104,69740,1,0
298,42,69860,2,0,B|312:16|360:24|360:24|432:64,1,150,0|8
320,168,70340,6,0,B|336:96,2,75,2|0|12
296,240,70700,1,0
224,272,70820,2,0,B|176:272|152:248,1,75,2|0
152,176,71060,2,0,B|173:154|221:154,1,75,10|0
240,80,71300,6,0,B|193:93|161:69,2,75,4|4|12
384,80,71660,2,0,B|430:93|462:69,2,75
312,160,72020,1,8
272,304,72260,6,0,B|318:290|350:314,2,75,0|0|8
128,304,72620,2,0,B|81:290|49:314,2,75
200,224,72980,1,8
256,192,73220,12,0,74900
128,192,75140,6,0,B|112:144,2,50,8|0|0
144,240,75380,2,0,B|160:312|248:336|248:336|272:296|312:288,1,225,0|0
384,296,75860,2,0,B|424:312|464:280,1,75
496,224,76100,6,0,B|464:198|424:214,1,75,8|0
352,224,76340,2,0,B|320:192|320:152,1,75
296,88,76580,2,0,B|344:48,2,50,8|0|0
256,112,76820,1,0
184,120,76940,1,0
112,136,77060,6,0,B|80:88,2,50,8|0|0
72,168,77300,2,0,B|24:144,2,50
56,216,77540,1,8
64,248,77620,1,0
80,280,77700,1,0
104,304,77780,2,0,B|143:303|184:272,1,75
248,272,78020,6,0,B|264:320,2,50,8|0|0
288,248,78260,2,0,B|336:288,2,50
304,216,78500,1,8
312,184,78580,1,0
312,152,78660,1,0
312,120,78740,2,0,B|296:72,2,50
360,120,78980,6,0,B|384:72,2,50,8|0|0
400,152,79220,2,0,B|448:120,2,50,0|0|0
416,200,79460,1,8
432,232,79540,1,0
448,264,79620,1,0
464,296,79700,2,0,B|428:320|388:304,1,75
320,288,79940,6,0,B|288:264|248:264,2,75,8|0|0
168,264,80300,2,0,B|130:264|98:240,2,75,0|8|0
40,184,80660,2,0,B|16:160|16:112,1,75
88,128,80900,6,0,B|96:96|80:72,2,50,8|0|0
136,128,81140,2,0,B|144:160|128:184,2,50
184,128,81380,2,0,B|192:96|176:72,2,50,8|0|0
232,128,81620,2,0,B|240:184|280:208,1,75
328,232,81860,6,0,B|368:256|408:256,1,75,12|0
184,232,82220,2,0,B|144:256|104:256,1,75,0|8
328,144,82580,6,0,B|296:160|248:168,1,75
184,144,82820,2,0,B|184:72|256:88|256:16,2,150,8|0|8
160,296,83540,6,0,B|176:336|224:336,1,75,0|0
293,335,83780,2,0,B|336:336|352:296,1,75,8|0
291,253,84020,2,0,B|256:271|220:253,1,75,0|0
192,184,84260,1,8
256,144,84380,2,0,B|256:64,2,75
320,184,84740,6,0,B|360:200|360:240,1,75,8|0
288,264,84980,2,0,B|256:228|224:264,1,75
151,241,85220,2,0,B|152:200|192:184,1,75,8|0
256,144,85460,2,0,B|256:64,1,75
328,104,85700,6,0,B|328:56,2,50,8|0|0
372,128,85940,2,0,B|412:80,2,50
404,168,86180,1,8
404,204,86260,1,0
388,236,86340,1,0
360,260,86420,1,0
328,276,86500,1,0
292,276,86580,1,0
260,260,86660,1,8
216,200,86780,6,0,B|176:128|104:104,1,150,0|2
296,184,87260,2,0,B|336:256|408:280,1,150,0|2
144,216,87740,6,0,B|112:176|56:160|56:160|32:112,1,150,0|2
368,168,88220,2,0,B|400:208|456:224|456:224|480:272,1,150,0|2
256,192,88700,12,4,90380
72,104,90500,5,4
112,168,90620,1,0
144,104,90740,2,0,B|128:24,2,75,8|0|0
184,168,91100,2,0,B|200:208|240:216,2,75,0|8|0
216,104,91460,5,0
144,232,91700,1,8
368,152,91940,1,0
296,280,92180,1,8
296,128,92420,5,0
352,80,92540,1,0
424,104,92660,2,0,B|432:56|408:32,2,75,8|0|0
440,176,93020,2,0,B|472:200|472:248,2,75,0|8|0
400,240,93380,5,0
208,248,93620,1,8
304,136,93860,1,0
112,144,94100,1,8
56,288,94340,5,0
112,336,94460,1,0
152,272,94580,2,0,B|144:232|96:216,2,75,8|0|0
216,312,94940,2,0,B|224:352|272:368,2,75,0|8|0
288,296,95300,5,0
112,144,95540,1,8
400,240,95780,1,0
224,88,96020,1,8
376,88,96260,6,0,B|344:136,5,50,0|0|0|8|0|0
328,176,96740,2,0,B|272:180,5,50,0|0|0|8|0|0
228,184,97220,5,0
192,188,97300,1,0
160,204,97380,1,0
148,236,97460,1,8
152,272,97540,1,0
176,296,97620,1,0
212,296,97700,6,0,B|224:244,2,50
256,320,97940,2,0,B|240:372,2,50,8|0|0
300,344,98180,6,0,B|376:344,1,75,4|0
416,280,98420,2,0,B|376:264|368:224,1,75,8|0
392,152,98660,2,0,B|464:168,2,75,0|0|8
320,136,99020,1,0
256,96,99140,5,0
192,136,99260,2,0,B|128:88,2,75,0|8|0
320,248,99620,6,0,B|384:296,2,75,0|0|8
256,288,99980,1,0
192,248,100100,6,0,B|120:272,1,75
136,200,100340,2,0,B|48:216,1,75,8|0
80,64,100580,6,0,B|128:120,1,75
200,144,100820,2,0,B|184:72,1,75,8|0
328,70,101060,6,0,B|312:144,1,75
383,120,101300,2,0,B|432:64,1,75,8|0
449,213,101540,6,0,B|376:200,1,75
391,271,101780,2,0,B|320:248,1,75,8|0
256,288,102020,6,0,B|200:264,5,50,0|0|0|8|0|0
160,256,102500,2,0,B|128:216,5,50,0|0|0|8|0|0
128,167,102980,2,0,B|160:128,5,50,0|0|0|8|0|0
210,115,103460,2,0,B|256:96,5,50,0|0|0|8|0|0
308,92,103940,5,0
324,124,104020,1,0
340,156,104100,1,0
356,188,104180,2,0,B|404:188,2,50,8|0|0
356,240,104420,5,0
324,256,104500,1,0
292,272,104580,1,0
260,288,104660,2,0,B|260:336,2,50,8|0|0
208,288,104900,5,0
192,256,104980,1,0
176,224,105060,1,0
160,192,105140,2,0,B|112:192,2,50,8|0|0
156,140,105380,5,0
188,124,105460,1,0
220,108,105540,1,0
252,92,105620,2,0,B|252:132|284:156,1,75,8|0
352,192,105860,5,4
416,232,105980,1,0
352,272,106100,2,0,B|368:312|400:328,2,75,8|0|0
288,232,106460,2,0,B|248:216|232:184,1,75,0|8
216,112,106700,5,0
288,88,106820,2,0,B|312:120|352:120,2,75,0|0|8
232,40,107180,1,0
160,64,107300,6,0,B|96:104,1,75
32,216,107540,2,0,B|95:176,1,75,8|0
168,192,107780,5,0
208,256,107900,1,0
256,312,108020,2,0,B|224:344|184:352,2,75,8|0|0
304,256,108380,2,0,B|328:224|368:216,1,75,0|8
440,200,108620,5,0
392,144,108740,2,0,B|416:72,2,75,0|0|8
320,160,109100,1,0
248,152,109220,6,0,B|192:96,1,75
72,48,109460,2,0,B|128:104,1,75,8|0
136,176,109700,5,0
160,248,109820,1,0
136,320,109940,2,0,B|104:352|64:360,2,75,8|0|0
208,344,110300,2,0,B|248:336|264:296,1,75,0|8
256,224,110540,5,0
232,152,110660,2,0,B|200:128|200:88,2,75,0|0|8
304,168,111020,1,0
360,216,111140,6,0,B|416:160,1,75
464,40,111380,2,0,B|408:96,1,75,8|0
336,104,111620,5,0
304,104,111700,1,0
272,104,111780,1,0
240,104,111860,1,8
208,112,111940,1,0
176,128,112020,1,0
152,152,112100,6,0,B|136:176|140:200,3,50,0|0|0|8
140,276,112460,1,0
192,332,112580,2,0,B|216:244|292:244|296:192|256:164|212:192,2,225,8|0|8
140,276,113420,1,0
268,332,113540,6,0,B|296:296|324:280,1,75
380,232,113780,1,8
344,164,113900,1,0
284,120,114020,2,0,B|236:128|212:112,1,75
136,92,114260,2,0,B|136:132|112:164,1,75,8|0
52,208,114500,5,0
72,280,114620,1,0
136,320,114740,1,8
208,344,114860,1,0
272,304,114980,2,0,B|296:264|336:264,1,75
352,192,115220,2,0,B|312:168|312:128,1,75,8|0
384,120,115460,6,0,B|376:72|352:56,1,75
280,40,115700,1,8
208,64,115820,1,0
168,128,115940,2,0,B|160:176|176:200,1,75
248,176,116180,2,0,B|270:206|270:246,1,75,8|0
232,312,116420,5,0
296,352,116540,1,0
368,328,116660,1,8
408,264,116780,1,0
432,192,116900,2,0,B|408:152|368:152,1,75
304,120,117140,2,0,B|264:96|264:56,1,75,8|0
192,40,117380,6,0,B|166:56|158:104,1,75
136,176,117620,1,8
96,240,117740,1,0
72,312,117860,2,0,B|96:344|144:336,1,75
208,312,118100,2,0,B|208:272|232:240,1,75,8|0
288,192,118340,5,0
352,152,118460,1,0
392,88,118580,1,8
352,24,118700,1,0
280,48,118820,2,0,B|244:47|220:87,1,75
152,56,119060,2,0,B|152:91|112:115,1,75,8|0
120,192,119300,6,0,B|40:200,2,75,0|0|8
184,232,119660,1,0
208,304,119780,2,0,B|144:360,2,75,0|0|8
280,312,120140,1,0
344,280,120260,6,0,B|296:200|320:136,1,150,4|8
168,104,120620,2,0,B|216:184|192:248,1,150,4|0
120,192,120980,1,8
392,192,121220,6,0,B|472:184,2,75,4|0|8
328,152,121580,1,4
304,80,121700,2,0,B|368:24,2,75,0|0|12
232,72,122060,1,0
160,88,122180,6,0,B|176:152|128:200|128:200|136:232,1,150,0|8
352,296,122540,2,0,B|336:232|384:184|384:184|376:152,1,150
432,264,122900,5,12
80,120,123140,1,4
256,192,123260,12,4,125060
