osu file format v9

[General]
AudioFilename: Intersect Thunderbolt.mp3
AudioLeadIn: 2000
PreviewTime: 9870
Countdown: 0
SampleSet: Normal
StackLeniency: 0.7
Mode: 0
LetterboxInBreaks: 0

[Editor]
DistanceSpacing: 1
BeatDivisor: 2
GridSize: 8

[Metadata]
Title:Intersect Thunderbolt
Artist:S.S.H.
Creator:Deif
Version:Easy
Source:eXceed3rd
Tags:Saitama Saisyu Heiki Jade Penetrate Black Package DaxMasterix Verdisphena

[Difficulty]
HPDrainRate:2
CircleSize:3
OverallDifficulty:2
ApproachRate:3
SliderMultiplier:0.500000005960464
SliderTickRate:1

[Events]
//Background and Video events
0,0,"BG.jpg"
//Break Periods
2,40780,46820
//Storyboard Layer 0 (Background)
//Storyboard Layer 1 (Fail)
//Storyboard Layer 2 (Pass)
//Storyboard Layer 3 (Foreground)
//Storyboard Sound Samples
//Background Colour Transformations
3,100,163,162,255

[TimingPoints]
260,240,4,1,1,60,1,0
3980,-100,4,1,1,70,0,0
4940,-100,4,1,1,60,0,0
5900,-100,4,1,1,70,0,0
7580,-100,4,1,1,60,0,0
7820,-100,4,1,1,70,0,0
8840,-100,4,1,1,60,0,0
57860,-100,4,1,1,50,0,0
73160,-100,4,2,0,60,0,0
74000,-100,4,1,1,60,0,0
75380,-100,4,1,1,65,0,1
90500,-100,4,1,1,60,0,0
121220,-100,4,1,1,75,0,0

[Colours]
Combo1 : 128,0,0
Combo2 : 202,202,0
Combo3 : 255,128,0
Combo4 : 255,0,0

[HitObjects]
240,160,260,2,0,B|184:160|184:160|136:104,2,125.000001490116
288,144,1700,2,0,B|320:104,2,50.0000005960464,0|0|12
96,304,3860,6,0,B|152:304,1,50.0000005960464,4|12
344,304,5060,2,0,B|408:304|440:264,2,100.000001192093,8|8|4
48,40,7700,6,0,B|104:40,1,50.0000005960464,4|12
296,40,8900,2,0,B|216:40,2,75.0000008940696,8|8|8
336,72,9860,6,0,B|320:160|224:168,1,150.000001788139,4|8
184,168,10820,1,0
184,268,11300,1,0
264,328,11780,6,0,B|350:322|365:235,1,150.000001788139,0|8
368,184,12740,1,0
328,96,13220,1,0
232,64,13700,6,0,B|216:144|128:160,1,150.000001788139,0|8
80,160,14660,1,0
96,256,15140,1,0
160,328,15620,6,0,B|120:352|80:344,2,75.0000008940696,0|0|8
208,312,16580,1,0
304,284,17060,1,0
360,200,17540,6,0,B|320:176|280:184,2,75.0000008940696,0|0|8
400,232,18500,1,0
448,144,18980,1,0
360,96,19460,6,0,B|392:72|400:32,2,75.0000008940696,0|0|8
312,108,20420,1,0
256,192,20900,1,0
256,192,21380,12,4,24260
256,192,25220,5,4
168,248,25700,1,0
152,344,26180,2,0,B|80:320|64:272,1,100.000001192093
56,192,27140,5,0
88,96,27620,1,0
184,64,28100,2,0,B|208:56|232:56,3,50.0000005960464,0|8|0|8
280,56,29060,5,0
344,136,29540,1,0
400,224,30020,2,0,B|400:256|384:280,3,50.0000005960464,0|8|0|8
344,296,30980,6,0,B|360:344|360:344|384:360,2,75.0000008940696,0|0|8
304,264,31940,2,0,B|264:224,3,50.0000005960464,0|8|0|8
216,216,32900,6,0,B|184:264|184:264|192:288,2,75.0000008940696,0|0|8
200,168,33860,2,0,B|184:112,3,50.0000005960464,0|8|0|8
176,72,34820,6,0,B|128:64|128:64|96:80,2,75.0000008940696,0|0|8
224,80,35780,2,0,B|280:88,3,50.0000005960464,0|8|0|8
256,192,36740,12,4,39620
256,192,40580,5,12
384,104,48260,6,0,B|336:80|288:104,1,100.000001192093,0|8
192,136,49220,1,0
104,184,49700,1,8
128,280,50180,6,0,B|176:304|224:280,1,100.000001192093,0|8
320,248,51140,1,0
408,200,51620,1,8
368,104,52100,6,0,B|392:56,2,50.0000005960464,0|12|0
272,128,53060,1,0
184,88,53540,2,0,B|176:32,2,50.0000005960464,0|8|0
112,160,54500,5,8
160,248,54980,2,0,B|216:264|256:224,1,100.000001192093,0|12
256,192,55940,12,4,57860
168,120,58820,5,2
256,72,59300,1,2
344,120,59780,1,0
168,216,60740,5,2
256,168,61220,1,2
344,216,61700,1,0
168,312,62660,5,2
256,264,63140,1,2
344,312,63620,1,0
416,240,64100,6,0,B|440:192|416:144,1,100.000001192093,0|2
328,96,65060,2,0,B|304:144|328:192,1,100.000001192093,2|4
128,160,66500,5,2
200,88,66980,1,2
232,184,67460,1,0
424,232,68420,5,2
352,160,68900,1,2
320,256,69380,1,0
128,312,70340,5,2
200,240,70820,1,2
232,336,71300,1,4
328,296,71780,6,0,B|368:256|352:200,1,100.000001192093,8|0
256,192,72740,1,0
256,192,73220,12,4,75140
184,192,76100,5,8
256,120,76580,2,0,B|256:64,2,50.0000005960464,8|0|8
320,192,77540,6,0,B|376:192|400:240,1,100.000001192093,8|8
312,288,78500,2,0,B|344:344,2,50.0000005960464,8|0|8
224,240,79460,6,0,B|176:200|136:200,1,100.000001192093,8|8
40,232,80420,2,0,B|40:288,2,50.0000005960464,8|0|8
40,128,81380,6,0,B|96:136|128:184,1,100.000001192093,8|12
224,160,82340,2,0,B|200:112,1,50.0000005960464,8|8
160,88,82820,6,0,B|256:40|352:88,1,200.000002384186,8|8
352,192,84260,1,8
400,280,84740,6,0,B|352:304|304:280,1,100.000001192093,8|8
256,192,85700,2,0,B|256:112,2,75.0000008940696,8|0|0
224,232,86660,6,0,B|200:280|224:328,1,100.000001192093,8|2
136,280,87620,2,0,B|160:232|136:184,2,100.000001192093,0|2|8
256,192,88820,12,4,90500
160,104,91460,6,0,B|216:104,1,50.0000005960464,0|8
264,104,91940,2,0,B|304:64,2,50.0000005960464,0|8|0
352,280,93380,6,0,B|296:280,1,50.0000005960464,0|8
248,280,93860,2,0,B|208:320,2,50.0000005960464,0|8|0
216,80,95300,6,0,B|192:128,1,50.0000005960464,0|8
192,176,95780,2,0,B|216:224,1,50.0000005960464,0|8
256,192,96260,12,4,98180
208,104,99140,6,0,B|176:56|112:72,2,100.000001192093,8|0|8
256,192,100580,1,0
304,280,101060,2,0,B|336:328|400:312,1,100.000001192093,8|0
256,192,102020,12,4,105860
104,120,106820,5,0
184,184,107300,2,0,B|208:160|208:128,2,50.0000005960464,0|8|0
112,248,108260,1,0
200,296,108740,5,0
272,232,109220,2,0,B|288:256|320:256,2,50.0000005960464,0|8|0
344,160,110180,1,0
368,64,110660,6,0,B|304:56|272:96,1,100.000001192093
208,160,111620,2,0,B|168:128|168:128|128:156|128:156|88:128|88:128|48:160,1,200.000002384186,0|8
184,312,113540,6,0,B|112:240,2,100.000001192093,8|0|8
256,240,114980,1,0
328,312,115460,6,0,B|400:240,2,100.000001192093,8|0|8
256,240,116900,1,0
208,152,117380,6,0,B|160:64,2,100.000001192093,8|0|8
256,240,118820,1,0
304,152,119300,6,0,B|352:64,1,100.000001192093,0|8
440,112,120260,2,0,B|392:200,1,100.000001192093,4|8
344,288,121220,6,0,B|296:320|248:288,1,100.000001192093,4|8
184,216,122180,2,0,B|232:184|280:216,1,100.000001192093,0|8
256,192,123140,12,4,125060
