osu file format v9

[General]
AudioFilename: Intersect Thunderbolt.mp3
AudioLeadIn: 2000
PreviewTime: 9870
Countdown: 0
SampleSet: Normal
StackLeniency: 0.7
Mode: 0
LetterboxInBreaks: 0

[Editor]
DistanceSpacing: 0.8
BeatDivisor: 2
GridSize: 8

[Metadata]
Title:Intersect Thunderbolt
Artist:S.S.H.
Creator:Deif
Version:Dax's Hard
Source:eXceed3rd
Tags:Saitama Saisyu Heiki Jade Penetrate Black Package DaxMasterix Verdisphena

[Difficulty]
HPDrainRate:6
CircleSize:4
OverallDifficulty:6
ApproachRate:7
SliderMultiplier:1
SliderTickRate:1

[Events]
//Background and Video events
0,0,"BG.jpg"
//Break Periods
//Storyboard Layer 0 (Background)
//Storyboard Layer 1 (Fail)
//Storyboard Layer 2 (Pass)
//Storyboard Layer 3 (Foreground)
//Storyboard Sound Samples
//Background Colour Transformations
3,100,163,162,255

[TimingPoints]
260,240,4,1,1,60,1,0
75380,-100,4,1,1,60,0,1
90500,-100,4,1,1,60,0,0

[Colours]
Combo1 : 128,0,0
Combo2 : 202,202,0
Combo3 : 255,128,0
Combo4 : 255,0,0

[HitObjects]
128,128,260,2,0,B|136:216|216:240,1,150.00000089407,8|0
384,128,980,2,0,B|376:216|296:240,1,150.00000089407,8|0
192,64,1700,1,8
320,64,1940,1,8
320,64,2060,1,8
320,64,2180,1,12
160,56,3860,6,0,B|160:120|104:144,1,100.000000596046,0|12
286,257,5060,5,0
321,161,5300,1,8
225,126,5540,1,0
190,222,5780,1,12
236,240,5900,1,0
286,257,6020,1,12
352,56,7700,6,0,B|352:120|408:144,1,100.000000596046,0|12
112,128,8660,1,0
112,128,8780,1,0
112,128,8900,2,8,B|64:280,2,150.00000089407
316,181,9860,6,0,B|400:128,1,100.000000596046,0|8
376,56,10340,2,0,B|288:112,1,100.000000596046,0|8
256,112,10700,1,0
221,109,10820,2,0,B|136:56,1,100.000000596046,0|8
112,128,11300,2,0,B|197:181,1,100.000000596046,0|8
256,224,11780,5,0
200,280,12020,1,8
256,336,12260,1,0
312,280,12500,1,8
336,240,12620,1,0
328,200,12740,2,0,B|336:144|288:104,1,100.000000596046,0|8
217,110,13220,2,0,B|176:144|184:200,1,100.000000596046,0|8
200,280,13700,6,0,B|144:288|112:240,1,100,0|8
112,160,14180,1,0
120,80,14420,1,8
168,88,14540,1,0
213,109,14660,1,0
295,109,14900,2,0,B|336:80|388:80,1,100.000000596046,8|0
400,160,15380,1,8
398,242,15620,6,0,B|368:288|312:280,1,100,0|8
288,360,16100,1,0
200,344,16340,1,8
200,304,16460,1,0
200,264,16580,2,8,B|144:248|128:184,1,100.000000596046
276,116,17060,2,0,B|264:168|208:184,1,100.000000596046,0|8
200,104,17540,6,0,B|144:120|128:184,1,100.000000596046,0|8
208,184,18020,2,0,B|200:240|216:288,1,100.000000596046,0|8
256,288,18380,1,0
297,282,18500,2,0,B|312:240|304:184,1,100.000000596046,0|8
380,171,18980,2,0,B|368:120|312:104,1,100.000000596046,0|8
256,48,19460,5,0
200,104,19700,1,8
256,160,19940,1,0
312,216,20180,1,8
296,256,20300,1,0
256,272,20420,2,0,B|216:304|160:304,1,100.000000596046,0|8
72,171,20900,2,0,B|72:224|104:264,1,100.000000596046,0|8
256,192,21380,12,6,24260
42,70,25220,6,0,B|65:117|119:127,1,100.000000596046,0|8
197,109,25700,2,0,B|173:61|119:51,1,100.000000596046,0|8
120,92,26060,1,0
120,128,26180,2,0,B|143:175|197:185,1,100.000000596046,0|8
274,166,26660,2,0,B|250:118|196:108,1,100.000000596046,0|8
256,48,27140,5,0
336,56,27380,1,8
344,136,27620,1,0
424,144,27860,1,8
408,180,27980,1,0
376,208,28100,2,0,B|376:264|336:304,1,100.000000596046,0|8
210,279,28580,2,0,B|264:272|296:232,1,100.000000596046,0|8
216,200,29060,5,0
168,136,29300,2,0,B|120:112|120:32,1,100.000000596046,8|0
200,48,29780,1,8
228,76,29900,1,0
256,104,30020,1,0
312,48,30260,1,8
391,52,30500,2,0,B|392:112|344:136,1,100.000000596046,0|8
296,200,30980,5,0
256,272,31220,1,8
216,200,31460,1,0
176,272,31700,1,8
184,320,31820,1,0
218,357,31940,1,0
293,357,32180,2,0,B|336:336|336:272,1,100.000000596046,8|0
296,200,32660,1,8
216,200,32900,6,0,B|160:200|120:160,1,100.000000596046,4|8
120,88,33380,2,0,B|176:88|216:128,1,100.000000596046,0|8
256,112,33740,1,0
300,123,33860,2,0,B|336:88|392:88,1,100.000000596046,0|8
387,164,34340,2,0,B|352:200|296:200,1,100.000000596046,0|8
216,200,34820,6,0,B|200:256|160:280,1,100.000000596046,0|8
120,352,35300,2,0,B|168:360|232:336,1,100.000000596046,0|8
256,336,35660,1,0
293,339,35780,2,0,B|344:359|392:352,1,100.000000596046,0|8
351,279,36260,2,0,B|312:256|296:200,1,100.000000596046,0|8
256,192,36740,12,6,39620
40,224,40580,6,0,B|136:192|136:192|88:72|208:24,1,300.000001788138,0|8
256,88,41540,1,0
256,208,41900,1,8
256,328,42260,1,8
256,328,42500,6,0,B|365:284|317:164|317:164|413:132,1,300.000001788138,0|8
392,56,43460,1,0
272,64,43820,1,8
152,72,44180,1,8
152,72,44420,6,0,B|192:176|128:256|128:256|152:312|216:336,1,300.000001788138,0|8
256,272,45380,1,0
256,152,45740,1,8
256,32,46100,1,8
256,32,46340,6,0,B|352:80,1,100.000000596046,0|8
166,196,46820,2,0,B|256:152,1,100.000000596046,0|8
345,316,47300,2,0,B|256:272,1,100.000000596046
166,316,47780,2,0,B|256:272,1,100.000000596046,0|8
166,316,48260,6,0,B|32:224|104:48,1,300.000001788138,0|8
176,104,49220,1,0
256,192,49580,1,8
336,104,49940,1,8
409,50,50180,6,0,B|480:224|345:316,1,300.000001788138,0|8
256,272,51140,2,0,B|208:240|192:176,1,100.000000596046,0|8
216,144,51500,1,0
256,112,51620,2,8,B|304:144|320:208,1,100.000000596046
256,192,52100,12,6,55940
112,64,57860,6,0,B|56:216,2,150.000000894069,0|8|8
256,192,58940,1,0
256,72,59300,1,8
392,64,59540,1,8
400,88,59660,1,0
408,112,59780,6,0,B|464:264,2,150.000000894069,0|8|8
256,192,60860,1,0
256,72,61220,1,8
120,128,61460,1,8
112,152,61580,1,0
104,176,61700,6,0,B|48:328,2,150.000000894069,0|8|8
256,256,62780,1,0
256,72,63140,1,8
392,192,63380,1,8
400,216,63500,1,0
408,240,63620,6,0,B|368:312|288:328,2,150.000000894069,0|8|8
256,256,64580,2,0,B|296:184|376:168,2,150.000000894069,0|8|8
288,56,65540,6,0,B|232:200|64:248,1,300.000001788138,0|8
224,328,66500,2,0,B|280:184|448:136,1,300.000001788138,0|8
227,55,67460,6,0,B|237:209|105:323,1,300.000001788138,0|8
284,328,68420,2,0,B|274:174|406:60,1,300.000001788138,0|8
172,80,69380,6,0,B|246:215|175:375,1,300.000001788138,0|8
339,303,70340,2,0,B|265:168|336:8,1,300.000001788138,0|8
132,125,71300,6,0,B|257:217|260:391,1,300.000001788138,0|8
379,258,72260,2,0,B|254:166|251:-7,1,300.000001788138,0|8
256,192,73220,12,4,74900
200,96,75140,6,0,B|144:192|200:296,1,200.000001192092,0|8
256,192,75860,1,0
312,96,76100,2,0,B|368:192|312:296,1,200.000001192092,0|8
176,192,77060,5,0
336,192,77540,1,8
256,88,78020,1,0
256,296,78500,1,8
256,296,78740,1,0
256,296,78980,6,0,B|160:272|88:192,1,200.000001192092,0|8
120,72,79700,1,0
256,88,79940,2,0,B|352:112|424:192,1,200.000001192092,0|8
256,192,80900,5,0
168,256,81380,1,8
344,128,81860,2,0,B|336:72|288:32,1,100.000000596046
168,128,82340,2,0,B|176:72|224:32,1,100.000000596046,0|8
256,192,82820,6,0,B|192:272|64:288,1,200.000001192092,0|8
256,312,83540,1,0
256,192,83780,2,0,B|320:272|448:288,1,200.000001192092,0|8
144,192,84740,5,0
256,192,84980,1,0
368,192,85220,1,8
256,292,85700,1,0
256,192,85940,1,8
256,92,86180,2,0,B|256:192,1,100.000000596046,0|8
256,192,86660,12,6,89060
256,192,89540,5,4
256,192,90020,1,4
256,192,90500,6,0,B|280:232|344:272,1,100.000000596046,0|8
256,192,90980,2,0,B|232:152|168:112,1,100.000000596046,0|8
256,296,91460,1,0
160,192,91700,1,8
256,88,91940,1,0
336,192,92180,1,8
256,192,92420,6,0,B|260:238|301:301,1,100.000000596046,0|8
256,192,92900,2,0,B|251:145|210:82,1,100.000000596046,0|8
207,295,93380,1,0
160,147,93620,1,8
304,88,93860,1,0
335,229,94100,1,8
256,192,94340,6,0,B|240:236|251:310,1,100.000000596046,0|8
256,192,94820,2,0,B|271:147|260:73,1,100.000000596046,0|8
168,265,95300,1,0
188,111,95540,1,8
343,118,95780,1,0
312,259,96020,1,8
256,192,96260,12,4,97940
40,64,98180,6,0,B|64:168,1,100.000000596046,0|8
152,200,98660,2,0,B|128:96,1,100.000000596046,0|8
192,40,99140,2,0,B|216:144,1,100.000000596046,0|8
256,148,99500,1,0
297,137,99620,6,0,B|320:40,1,100.000000596046,0|8
382,102,100100,2,0,B|360:200,1,100.000000596046,0|8
449,161,100580,2,0,B|472:64,1,100.000000596046,0|8
382,102,101060,5,0
297,137,101300,1,8
256,148,101420,1,0
214,137,101540,1,0
129,102,101780,1,8
144,192,102020,6,0,B|208:280,1,100.000000596046
256,280,102380,1,0
309,272,102500,2,0,B|368:192,1,100.000000596046,0|8
368,192,102980,2,0,B|304:104,1,100.000000596046,0|8
256,104,103340,1,0
202,111,103460,2,0,B|144:192,1,100.000000596046,0|8
256,192,103940,5,0
202,272,104180,1,8
309,111,104420,1,0
185,86,104660,1,8
324,295,104900,1,4
128,184,105140,1,8
384,200,105380,1,8
256,40,105620,1,12
256,40,105740,1,8
256,40,105860,6,0,B|192:32|144:64,1,100.000000596046,0|8
256,144,106340,2,0,B|320:152|368:120,1,100.000000596046,0|8
256,248,106820,2,0,B|192:240|144:272,1,100.000000596046,0|8
256,352,107300,2,0,B|320:360|368:328,1,100.000000596046,0|8
353,336,107660,1,8
352,336,107780,6,0,B|402:296|409:256,1,100.000000596046,0|8
276,262,108260,2,0,B|225:301|218:341,1,100.000000596046,0|8
204,188,108740,2,0,B|254:148|261:108,1,100.000000596046,0|8
129,115,109220,2,0,B|78:154|71:194,1,100.000000596046,0|8
71,194,109580,1,8
71,194,109700,6,0,B|96:312,1,100.000000596046,0|8
204,188,110180,2,0,B|176:88,1,100.000000596046,0|8
308,196,110660,2,0,B|336:296,1,100.000000596046,0|8
440,189,111140,2,0,B|420:91,1,100.000000596046,0|8
256,192,111620,12,6,112580
88,72,113300,5,8
88,72,113420,1,8
88,72,113540,2,0,B|80:144|136:168,1,100.000000596046,0|8
208,184,114020,2,0,B|216:112|160:88,1,100.000000596046,0|8
304,184,114500,2,0,B|296:112|352:88,1,100.000000596046,0|8
424,72,114980,2,0,B|432:144|376:168,1,100.000000596046,0|8
390,160,115340,1,8
392,160,115460,6,0,B|408:272,1,100.000000596046,0|8
304,184,115940,2,0,B|312:296,1,100.000000596046,0|8
208,184,116420,2,0,B|200:283,1,100.000000596046,0|8
120,160,116900,2,0,B|105:258,1,100.000000596046,0|8
105,258,117260,1,8
105,258,117380,6,0,B|128:312|184:336,1,100.000000596046,0|8
339,330,117860,2,0,B|384:312|406:258,1,100.000000596046,0|8
406,125,118340,2,0,B|384:72|328:48,1,100.000000596046,0|8
172,53,118820,2,0,B|128:72|105:125,1,100.000000596046,0|8
256,192,119300,12,6,125060
