osu file format v13

[General]
AudioFilename: mp2 - touhou cut5.mp3
AudioLeadIn: 0
PreviewTime: -1
Countdown: 1
SampleSet: Soft
StackLeniency: 0.2
Mode: 0
LetterboxInBreaks: 1
WidescreenStoryboard: 0

[Editor]
DistanceSpacing: 1
BeatDivisor: 4
GridSize: 4
TimelineZoom: 2.3

[Metadata]
Title:Uzuki no Shougatsu
TitleUnicode:卯月の正月
Artist:S.S.H
ArtistUnicode:S.S.H
Creator:terametis
Version:alacat style
Source:Touhou
Tags:Guy alacat NewRulerNA Satellite litoluna wring laurier
BeatmapID:577827
BeatmapSetID:0

[Difficulty]
HPDrainRate:6
CircleSize:4
OverallDifficulty:0
ApproachRate:9
SliderMultiplier:1.70000000596046
SliderTickRate:1

[Events]
//Background and Video events
0,0,"2015年BG.png",0,0
//Break Periods
//Storyboard Layer 0 (Background)
//Storyboard Layer 1 (Fail)
//Storyboard Layer 2 (Pass)
//Storyboard Layer 3 (Foreground)
//Storyboard Sound Samples

[TimingPoints]
21047,329.579785773139,4,2,1,70,1,0
21047,-166.666666666667,4,2,1,70,0,0
89599,-50,4,2,1,70,0,0
121198,-100,4,2,1,70,0,0
142167,-50,4,2,1,70,0,0
212038,-50,4,2,1,5,0,0

[Colours]
Combo1 : 255,205,155
Combo2 : 255,128,128
Combo3 : 255,255,128
Combo4 : 128,255,128
Combo5 : 128,255,255
Combo6 : 151,203,255
Combo7 : 255,140,198
Combo8 : 186,117,255

[HitObjects]
76,348,21047,6,0,L|140:344,1,50.9999986224174
244,276,21376,2,0,L|193:272,1,50.9999986224174
28,212,21706,2,0,L|80:208,1,50.9999986224174
324,328,22035,2,0,L|376:324,1,50.9999986224174
484,216,22365,6,0,L|433:212,1,50.9999986224174
244,276,22694,2,0,L|193:272,1,50.9999986224174
324,144,23024,2,0,L|375:140,1,50.9999986224174
208,64,23353,2,0,L|157:60,1,50.9999986224174
28,212,23683,6,0,L|80:208,1,50.9999986224174
208,352,24013,2,0,L|157:348,1,50.9999986224174
240,188,24342,2,0,L|232:240,2,50.9999986224174,0|0|0,0:0|0:0|0:0,0:0:0:0:
408,52,24837,6,0,P|356:44|308:56,1,101.999997244835
160,120,25331,2,0,L|164:176,1,50.9999986224174
324,220,25661,2,0,L|312:276,1,50.9999986224174
424,152,25990,2,0,L|436:208,1,50.9999986224174
355,60,26320,6,0,L|304:64,1,50.9999986224174
137,140,26649,2,0,L|188:144,1,50.9999986224174
319,272,26979,2,0,L|268:276,1,50.9999986224174
79,212,27308,2,0,L|28:216,1,50.9999986224174
137,324,27638,6,0,L|188:328,1,50.9999986224174
433,208,27967,2,0,L|484:212,1,50.9999986224174
319,272,28297,2,0,L|268:276,1,50.9999986224174
385,344,28626,2,0,L|436:348,1,50.9999986224174
348,168,28956,6,0,L|297:171,1,50.9999986224174
52,53,29285,2,0,L|1:56,1,50.9999986224174
144,208,29615,2,0,L|140:259,2,50.9999986224174,0|0|0,0:0|0:0|0:0,0:0:0:0:
224,28,30110,6,0,L|232:136,1,101.999997244835
72,160,30604,2,0,L|21:156,2,50.9999986224174,0|0|0,0:0|0:0|0:0,0:0:0:0:
240,268,31099,2,0,L|260:264,3,16.9999995408058,0|0|0|0,0:0|0:0|0:0|0:0,0:0:0:0:
396,332,31593,6,0,B|404:288|440:272|440:272|412:196|412:196|452:148|428:96|384:88|384:88|352:104|324:88,1,356.999990356922
180,56,32911,6,0,B|164:96|120:112|120:112|220:136|220:136|88:164|84:224,1,356.999990356922
184,320,34230,6,0,B|332:280|392:356|392:356|320:344|276:224,1,407.999988979339
216,44,35878,6,0,L|216:76,3,25.4999993112087,0|0|0|0,0:0|0:0|0:0|0:0,0:0:0:0:
128,112,36207,2,0,L|120:140,1,25.4999993112087
36,116,36372,2,0,L|16:132,2,25.4999993112087,0|0|0,0:0|0:0|0:0,0:0:0:0:
276,232,36866,6,0,B|380:244|380:244|332:260|332:260|340:212,1,203.999994489669
420,112,37690,6,0,L|448:116,2,25.4999993112087,0|0|0,0:0|0:0|0:0,0:0:0:0:
292,36,38020,2,0,L|264:40,2,25.4999993112087,0|0|0,0:0|0:0|0:0,0:0:0:0:
380,196,38679,6,0,L|408:200,2,25.4999993112087,0|0|0,0:0|0:0|0:0,0:0:0:0:
252,120,39009,2,0,L|224:124,2,25.4999993112087,0|0|0,0:0|0:0|0:0,0:0:0:0:
297,259,39338,2,0,L|272:256,2,25.4999993112087,0|0|0,0:0|0:0|0:0,0:0:0:0:
368,332,39503,6,0,L|396:336,28,25.4999993112087,0|0|0|0|0|0|0|0|0|0|0|0|0|0|0|0|0|0|0|0|0|0|0|0|0|0|0|0|0,0:0|0:0|0:0|0:0|0:0|0:0|0:0|0:0|0:0|0:0|0:0|0:0|0:0|0:0|0:0|0:0|0:0|0:0|0:0|0:0|0:0|0:0|0:0|0:0|0:0|0:0|0:0|0:0|0:0,0:0:0:0:
184,312,41975,2,0,L|184:344,2,25.4999993112087,0|0|0,0:0|0:0|0:0,0:0:0:0:
116,96,42469,6,0,L|84:200,1,101.999997244835
68,296,42964,6,0,L|40:300,2,25.4999993112087,0|0|0,0:0|0:0|0:0,0:0:0:0:
196,220,43294,2,0,L|224:224,2,25.4999993112087,0|0|0,0:0|0:0|0:0,0:0:0:0:
288,144,43623,6,0,L|356:156,1,50.9999986224174
464,288,43952,2,0,L|436:304,1,25.4999993112087
352,336,44117,2,0,L|380:360,1,25.4999993112087
416,144,44364,6,0,L|424:116,1,25.4999993112087
496,76,44529,2,0,L|500:112,2,25.4999993112087,0|0|0,0:0|0:0|0:0,0:0:0:0:
384,84,44776,6,0,L|280:84,1,101.999997244835
126,152,45435,2,0,L|228:152,1,101.999997244835
304,56,46095,2,0,L|200:56,1,101.999997244835
76,44,46589,2,0,P|52:100|52:144,1,101.999997244835
240,236,47083,1,0,0:0:0:0:
120,248,47248,1,0,0:0:0:0:
304,56,47413,5,0,0:0:0:0:
208,328,48072,1,0,0:0:0:0:
392,144,48731,1,0,0:0:0:0:
160,164,49226,5,0,0:0:0:0:
228,240,49391,1,0,0:0:0:0:
464,56,49720,5,0,0:0:0:0:
360,36,49885,1,0,0:0:0:0:
256,40,50050,1,0,0:0:0:0:
108,324,50379,5,0,0:0:0:0:
224,352,50544,1,0,0:0:0:0:
340,320,50709,1,0,0:0:0:0:
360,232,50873,1,0,0:0:0:0:
308,156,51038,1,0,0:0:0:0:
196,164,51203,1,0,0:0:0:0:
340,320,51368,2,0,P|392:336|440:328,2,101.999997244835,0|0|0,0:0|0:0|0:0,0:0:0:0:
124,84,52357,6,0,L|68:84,2,50.9999986224174,0|0|0,0:0|0:0|0:0,0:0:0:0:
352,252,53345,1,0,0:0:0:0:
236,44,54004,2,0,B|236:88|216:112|216:112|240:101|264:108|264:108|248:120|252:148,1,152.999995867252
256,232,54664,1,0,0:0:0:0:
60,344,54993,5,0,0:0:0:0:
84,252,55158,1,0,0:0:0:0:
44,168,55323,1,0,0:0:0:0:
360,80,55652,5,0,0:0:0:0:
256,64,55817,1,0,0:0:0:0:
336,180,55982,1,0,0:0:0:0:
156,96,56147,1,0,0:0:0:0:
336,180,56312,1,0,0:0:0:0:
336,180,56476,1,0,0:0:0:0:
252,304,56641,6,0,L|260:336,12,25.4999993112087,0|0|0|0|0|0|0|0|0|0|0|0|0,0:0|0:0|0:0|0:0|0:0|0:0|0:0|0:0|0:0|0:0|0:0|0:0|0:0,0:0:0:0:
148,152,57795,1,0,0:0:0:0:
8,128,57959,6,0,B|48:84|108:76|108:76|180:88|224:140|224:140|20:324|20:324|216:324,1,713.999980713843
456,348,60596,6,0,B|520:268|516:180|516:180|496:76|404:28|404:28|328:96|304:208|304:208|320:284|376:328,1,713.999980713843
228,352,63233,6,0,B|40:352|40:352|152:304|152:304|152:16|152:16|88:112,1,713.999980713843
316,332,65869,6,0,B|384:344|432:324|432:324|488:284|492:224|492:224|464:180|416:176|416:176|320:176|320:176|320:44|320:44|480:44,1,713.999980713843
256,260,68341,5,0,0:0:0:0:
256,260,68424,1,0,0:0:0:0:
256,260,68506,1,0,0:0:0:0:
184,192,68671,1,0,0:0:0:0:
256,124,68836,1,0,0:0:0:0:
328,192,69000,1,0,0:0:0:0:
256,289,69165,5,0,0:0:0:0:
152,192,69330,1,0,0:0:0:0:
256,94,69495,1,0,0:0:0:0:
359,192,69660,1,0,0:0:0:0:
256,318,69824,5,0,0:0:0:0:
121,192,69989,1,0,0:0:0:0:
256,65,70154,1,0,0:0:0:0:
390,192,70318,1,0,0:0:0:0:
256,348,70483,5,0,0:0:0:0:
88,192,70648,1,0,0:0:0:0:
256,34,70813,1,0,0:0:0:0:
422,192,70977,1,0,0:0:0:0:
256,376,71143,5,0,0:0:0:0:
58,192,71308,1,0,0:0:0:0:
256,6,71473,1,0,0:0:0:0:
452,192,71637,1,0,0:0:0:0:
20,192,71802,5,0,0:0:0:0:
492,192,71967,1,0,0:0:0:0:
20,192,72131,1,0,0:0:0:0:
152,288,72296,2,0,L|256:288,1,101.999997244835
352,128,72791,2,0,L|300:128,1,50.9999986224174
112,88,73120,2,0,L|164:88,1,50.9999986224174
324,228,73450,2,0,L|376:228,1,50.9999986224174
229,254,73779,5,0,0:0:0:0:
189,163,73944,1,0,0:0:0:0:
282,129,74109,1,0,0:0:0:0:
322,220,74273,1,0,0:0:0:0:
218,281,74438,5,0,0:0:0:0:
160,151,74603,1,0,0:0:0:0:
294,101,74768,1,0,0:0:0:0:
350,232,74932,1,0,0:0:0:0:
206,307,75097,5,0,0:0:0:0:
131,139,75262,1,0,0:0:0:0:
305,75,75427,1,0,0:0:0:0:
379,244,75592,1,0,0:0:0:0:
194,335,75756,5,0,0:0:0:0:
101,126,75921,1,0,0:0:0:0:
317,46,76086,1,0,0:0:0:0:
409,256,76250,1,0,0:0:0:0:
183,361,76416,5,0,0:0:0:0:
74,114,76581,1,0,0:0:0:0:
328,20,76746,1,0,0:0:0:0:
436,268,76910,1,0,0:0:0:0:
38,99,77075,5,0,0:0:0:0:
473,284,77240,1,0,0:0:0:0:
38,99,77404,1,0,0:0:0:0:
128,248,77569,2,0,P|196:248|224:232,1,101.999997244835
352,104,78064,2,0,L|360:164,1,50.9999986224174
160,48,78393,2,0,L|156:108,1,50.9999986224174
292,332,78723,2,0,L|304:272,1,50.9999986224174
384,36,79053,5,0,0:0:0:0:
280,48,79217,1,0,0:0:0:0:
384,36,79382,1,0,0:0:0:0:
256,136,79547,1,0,0:0:0:0:
384,36,79712,5,0,0:0:0:0:
300,220,79876,1,0,0:0:0:0:
384,36,80041,1,0,0:0:0:0:
396,244,80206,1,0,0:0:0:0:
384,36,80371,5,0,0:0:0:0:
488,296,80536,1,0,0:0:0:0:
384,36,80700,1,0,0:0:0:0:
424,376,80865,1,0,0:0:0:0:
384,36,81030,5,0,0:0:0:0:
304,376,81195,1,0,0:0:0:0:
384,36,81360,1,0,0:0:0:0:
216,316,81524,1,0,0:0:0:0:
384,36,81689,5,0,0:0:0:0:
200,216,81854,1,0,0:0:0:0:
384,36,82019,1,0,0:0:0:0:
120,160,82184,1,0,0:0:0:0:
384,36,82348,5,0,0:0:0:0:
36,200,82513,1,0,0:0:0:0:
384,36,82678,1,0,0:0:0:0:
248,176,82843,2,0,P|288:216|336:216,1,101.999997244835
480,140,83337,2,0,L|424:140,1,50.9999986224174
152,284,83667,2,0,L|96:288,1,50.9999986224174
48,128,83996,2,0,L|112:140,1,50.9999986224174
256,304,84326,5,0,0:0:0:0:
256,56,84491,1,0,0:0:0:0:
256,304,84655,1,0,0:0:0:0:
256,56,84820,1,0,0:0:0:0:
256,304,84985,5,0,0:0:0:0:
256,304,85150,1,0,0:0:0:0:
256,56,85314,1,0,0:0:0:0:
256,56,85479,1,0,0:0:0:0:
256,304,85644,5,0,0:0:0:0:
256,56,85809,1,0,0:0:0:0:
256,56,85974,1,0,0:0:0:0:
256,304,86138,1,0,0:0:0:0:
256,304,86303,5,0,0:0:0:0:
256,56,86468,1,0,0:0:0:0:
256,304,86633,1,0,0:0:0:0:
256,56,86798,1,0,0:0:0:0:
64,248,86962,6,0,B|112:348|112:348|164:272,1,203.999994489669
352,136,87786,5,0,0:0:0:0:
132,192,87951,1,0,0:0:0:0:
356,336,88116,2,0,P|436:300|460:272,1,101.999997244835
220,116,88610,1,0,0:0:0:0:
192,332,89105,5,0,0:0:0:0:
192,332,89187,1,0,0:0:0:0:
192,332,89270,1,0,0:0:0:0:
392,220,89434,1,0,0:0:0:0:
324,364,89599,6,0,P|464:308|504:136,1,340.000001192092
188,20,90258,2,0,P|48:76|8:248,1,340.000001192092
256,192,90917,5,0,0:0:0:0:
256,192,91082,1,0,0:0:0:0:
368,164,91247,1,0,0:0:0:0:
144,220,91412,1,0,0:0:0:0:
460,232,91577,1,0,0:0:0:0:
52,152,91741,1,0,0:0:0:0:
500,120,91906,1,0,0:0:0:0:
248,344,92236,6,0,B|160:344|160:344|200:344|200:344|240:344|240:344|180:344|180:344|64:344|64:344,1,340.000001192092
320,76,92895,6,2,P|424:88|416:284,1,340.000001192092,0|0,0:0|0:0,0:0:0:0:
28,216,93389,6,0,L|368:180,1,340.000001192092
28,216,93884,1,0,0:0:0:0:
256,320,94048,1,0,0:0:0:0:
256,320,94131,1,0,0:0:0:0:
256,320,94213,1,0,0:0:0:0:
256,320,94296,1,0,0:0:0:0:
256,320,94378,1,0,0:0:0:0:
100,80,94543,1,0,0:0:0:0:
120,320,94708,1,0,0:0:0:0:
316,104,94872,5,0,0:0:0:0:
380,312,95202,1,0,0:0:0:0:
140,220,95532,1,0,0:0:0:0:
408,200,95861,1,0,0:0:0:0:
260,360,96191,5,0,0:0:0:0:
148,360,96355,1,0,0:0:0:0:
72,280,96520,1,0,0:0:0:0:
40,168,96685,1,0,0:0:0:0:
100,64,96850,1,0,0:0:0:0:
220,40,97015,1,0,0:0:0:0:
328,56,97179,1,0,0:0:0:0:
260,216,97344,5,0,0:0:0:0:
260,216,97427,1,0,0:0:0:0:
260,216,97509,2,0,B|260:328|260:328|152:272|140:140,1,340.000001192092
432,52,98168,2,0,P|484:224|404:360,1,340.000001192092
40,264,98663,6,0,B|160:240|224:324|224:324|352:324|352:324|392:232|328:148,1,510.000001788138
192,16,99322,1,0,0:0:0:0:
192,16,99404,1,0,0:0:0:0:
192,16,99486,2,0,L|212:192,1,170.000000596046
40,120,99816,1,0,0:0:0:0:
360,84,99981,1,0,0:0:0:0:
144,192,100146,5,0,0:0:0:0:
368,192,100475,1,0,0:0:0:0:
32,288,100805,1,0,0:0:0:0:
480,96,101134,1,0,0:0:0:0:
108,120,101464,6,0,P|96:252|184:336,2,255.000000894069,0|0|0,0:0|0:0|0:0,0:0:0:0:
340,124,102123,1,0,0:0:0:0:
108,120,102288,1,0,0:0:0:0:
256,52,102453,1,0,0:0:0:0:
256,52,102782,6,0,L|224:224,1,170.000000596046
416,352,103112,2,0,P|456:272|444:196,1,170.000000596046
160,40,103441,2,0,P|72:56|16:120,1,170.000000596046
232,312,103771,1,0,0:0:0:0:
300,148,103936,6,0,P|116:156|48:288,1,340.000001192092
424,140,104430,2,0,P|376:64|304:36,1,170.000000596046
116,136,104760,1,0,0:0:0:0:
360,296,104925,1,0,0:0:0:0:
300,148,105089,1,0,0:0:0:0:
224,352,105254,5,0,0:0:0:0:
224,352,105337,1,0,0:0:0:0:
224,352,105419,2,0,B|4:352|4:352|-36:288|4:240,1,340.000001192092
432,56,106078,2,0,L|88:40,1,340.000001192092
152,296,106737,5,0,0:0:0:0:
224,352,106902,1,0,0:0:0:0:
324,352,107067,1,0,0:0:0:0:
400,312,107232,1,0,0:0:0:0:
400,216,107396,1,0,0:0:0:0:
308,188,107561,1,0,0:0:0:0:
252,264,107726,1,0,0:0:0:0:
172,72,108056,6,0,L|0:64,1,170.000000596046
308,188,108385,2,0,L|480:180,1,170.000000596046
172,72,108715,1,0,0:0:0:0:
308,188,108880,1,0,0:0:0:0:
172,72,109044,1,0,0:0:0:0:
356,324,109209,6,0,P|412:164|308:48,1,340.000001192092
72,156,109703,2,0,L|44:328,1,170.000000596046
308,188,110033,2,0,P|216:188|160:244,1,170.000000596046
256,364,110363,1,0,0:0:0:0:
444,184,110527,5,0,0:0:0:0:
444,184,110610,1,0,0:0:0:0:
444,184,110692,2,0,B|396:84|396:84|500:64|500:64|468:16|396:4,1,340.000001192092
68,184,111351,2,0,B|116:84|116:84|12:64|12:64|44:16|116:4,1,340.000001192092
256,180,112011,6,0,B|256:356|256:356|256:276,2,255.000000894069,0|0|0,0:0|0:0|0:0,0:0:0:0:
256,277,112670,1,0,0:0:0:0:
256,180,112834,1,0,0:0:0:0:
256,277,112999,1,0,0:0:0:0:
96,276,113164,5,0,0:0:0:0:
96,276,113246,1,0,0:0:0:0:
96,276,113329,2,0,L|264:316,1,170.000000596046
384,100,113658,2,0,L|208:128,1,170.000000596046
68,80,113988,2,0,P|156:76|216:128,2,170.000000596046,0|0|0,0:0|0:0|0:0,0:0:0:0:
184,332,114482,6,0,P|368:332|420:208,1,340.000001192092
216,36,114977,2,0,P|188:116|212:200,1,170.000000596046
472,352,115306,2,0,P|500:264|484:188,1,170.000000596046
136,248,115636,1,0,0:0:0:0:
352,136,115801,5,0,0:0:0:0:
352,136,115883,1,0,0:0:0:0:
352,136,115965,2,0,B|264:136|264:136|428:88|428:88|384:160,1,340.000001192092
216,328,116625,2,0,B|36:328|36:328|56:224|56:224|0:232,1,340.000001192092
280,48,117284,5,0,0:0:0:0:
400,80,117449,1,0,0:0:0:0:
452,172,117613,1,0,0:0:0:0:
448,272,117778,1,0,0:0:0:0:
376,324,117943,1,0,0:0:0:0:
264,320,118108,1,0,0:0:0:0:
192,232,118273,1,0,0:0:0:0:
328,128,118437,5,0,0:0:0:0:
328,128,118520,1,0,0:0:0:0:
328,128,118602,2,0,L|152:116,1,170.000000596046
28,344,118932,2,0,L|200:316,1,170.000000596046
452,172,119261,1,0,0:0:0:0:
248,48,119426,1,0,0:0:0:0:
376,324,119591,1,0,0:0:0:0:
212,120,119756,6,0,P|44:120|16:272,1,340.000001192092
272,364,120250,2,0,P|300:276|296:196,1,170.000000596046
132,40,120580,1,0,0:0:0:0:
24,192,120744,1,0,0:0:0:0:
492,192,120909,1,0,0:0:0:0:
256,56,121074,5,0,0:0:0:0:
256,56,121156,1,0,0:0:0:0:
256,56,121239,2,0,L|256:228,1,170.000000596046
88,344,121898,1,0,0:0:0:0:
44,252,122063,1,0,0:0:0:0:
112,176,122227,1,0,0:0:0:0:
396,292,122557,5,0,0:0:0:0:
288,296,122722,1,0,0:0:0:0:
396,184,122887,1,0,0:0:0:0:
288,192,123051,1,0,0:0:0:0:
176,328,123216,1,0,0:0:0:0:
328,80,123381,1,0,0:0:0:0:
84,272,123546,1,0,0:0:0:0:
256,24,123711,1,0,0:0:0:0:
420,352,123875,6,0,P|496:228|444:52,1,340.000001192092
256,140,124699,1,0,0:0:0:0:
256,140,124782,1,0,0:0:0:0:
256,140,124864,1,0,0:0:0:0:
136,72,125029,1,0,0:0:0:0:
136,72,125111,1,0,0:0:0:0:
136,72,125194,2,0,B|0:92|0:92|20:64,1,170.000000596046
136,72,125688,1,0,0:0:0:0:
72,192,125853,1,0,0:0:0:0:
256,20,126018,5,0,0:0:0:0:
256,364,126182,1,0,0:0:0:0:
408,192,126347,5,0,0:0:0:0:
408,192,126430,1,0,0:0:0:0:
408,192,126512,2,0,L|152:192,2,255.000000894069,0|0|0,0:0|0:0|0:0,0:0:0:0:
36,340,127830,2,0,L|292:340,2,255.000000894069,0|0|0,0:0|0:0|0:0,0:0:0:0:
256,192,129149,12,0,131621,0:0:0:0:
123,89,131785,5,0,0:0:0:0:
123,89,131868,1,0,0:0:0:0:
123,89,131950,1,0,0:0:0:0:
256,192,132115,1,0,0:0:0:0:
416,40,132280,5,0,0:0:0:0:
416,40,132363,1,0,0:0:0:0:
416,40,132445,1,0,0:0:0:0:
256,192,132609,1,0,0:0:0:0:
36,280,132774,5,0,0:0:0:0:
36,280,132857,1,0,0:0:0:0:
36,280,132939,1,0,0:0:0:0:
256,192,133104,1,0,0:0:0:0:
512,344,133269,5,0,0:0:0:0:
512,344,133352,1,0,0:0:0:0:
512,344,133434,1,0,0:0:0:0:
256,192,133598,1,0,0:0:0:0:
108,356,133763,5,0,0:0:0:0:
108,356,133845,1,0,0:0:0:0:
108,356,133928,1,0,0:0:0:0:
376,256,134092,1,0,0:0:0:0:
116,156,134257,5,0,0:0:0:0:
116,156,134340,1,0,0:0:0:0:
116,156,134422,2,0,P|144:116|176:96,1,85.000000298023
396,228,134752,2,0,P|368:268|336:288,1,85.000000298023
104,272,135081,1,0,0:0:0:0:
280,176,135246,1,0,0:0:0:0:
116,156,135411,1,0,0:0:0:0:
228,336,135575,6,0,P|320:352|400:332,1,170.000000596046
460,136,136070,1,0,0:0:0:0:
192,252,136235,1,0,0:0:0:0:
364,80,136399,1,0,0:0:0:0:
12,192,136564,5,0,0:0:0:0:
500,192,136729,1,0,0:0:0:0:
256,96,136894,5,0,0:0:0:0:
256,96,136976,1,0,0:0:0:0:
256,96,137059,1,0,0:0:0:0:
256,96,137142,1,0,0:0:0:0:
256,96,137224,1,0,0:0:0:0:
96,248,137388,1,0,0:0:0:0:
476,184,137553,5,0,0:0:0:0:
476,184,137636,1,0,0:0:0:0:
476,184,137718,1,0,0:0:0:0:
256,96,137883,1,0,0:0:0:0:
432,288,138048,5,0,0:0:0:0:
432,288,138131,1,0,0:0:0:0:
432,288,138213,1,0,0:0:0:0:
144,362,138377,1,0,0:0:0:0:
36,200,138542,5,0,0:0:0:0:
36,200,138625,1,0,0:0:0:0:
36,200,138707,1,0,0:0:0:0:
256,288,138872,1,0,0:0:0:0:
80,96,139037,5,0,0:0:0:0:
80,96,139120,1,0,0:0:0:0:
80,96,139202,1,0,0:0:0:0:
368,22,139366,1,0,0:0:0:0:
288,148,139530,5,0,0:0:0:0:
247,157,139612,1,0,0:0:0:0:
205,151,139694,5,0,0:0:0:0:
166,134,139777,1,0,0:0:0:0:
131,110,139859,1,0,0:0:0:0:
99,82,139941,1,0,0:0:0:0:
70,50,140024,5,0,0:0:0:0:
43,53,140106,1,0,0:0:0:0:
19,88,140189,1,0,0:0:0:0:
5,128,140271,1,0,0:0:0:0:
0,170,140353,5,0,0:0:0:0:
11,205,140436,1,0,0:0:0:0:
47,228,140518,1,0,0:0:0:0:
75,259,140601,1,0,0:0:0:0:
94,297,140683,5,0,0:0:0:0:
105,338,140765,1,0,0:0:0:0:
118,325,140848,1,0,0:0:0:0:
136,286,140930,1,0,0:0:0:0:
157,249,141013,5,0,0:0:0:0:
183,216,141095,1,0,0:0:0:0:
214,187,141177,1,0,0:0:0:0:
249,162,141260,1,0,0:0:0:0:
287,143,141342,5,0,0:0:0:0:
327,129,141425,1,0,0:0:0:0:
358,142,141507,1,0,0:0:0:0:
386,174,141589,1,0,0:0:0:0:
421,197,141672,5,0,0:0:0:0:
461,212,141754,1,0,0:0:0:0:
497,221,141837,1,0,0:0:0:0:
460,242,141919,1,0,0:0:0:0:
431,273,142001,5,0,0:0:0:0:
411,310,142084,1,0,0:0:0:0:
356,352,142167,6,0,P|260:348|160:232,1,255.000000894069
172,88,142497,5,0,0:0:0:0:
240,76,142579,1,0,0:0:0:0:
308,64,142661,1,0,0:0:0:0:
376,56,142744,1,0,0:0:0:0:
444,44,142826,1,0,0:0:0:0:
276,204,142991,5,0,0:0:0:0:
208,192,143073,1,0,0:0:0:0:
140,180,143155,1,0,0:0:0:0:
72,172,143238,1,0,0:0:0:0:
4,160,143320,1,0,0:0:0:0:
324,360,143485,6,0,L|360:280,1,85.000000298023
440,136,143650,2,0,L|468:216,2,85.000000298023,0|0|0,0:0|0:0|0:0,0:0:0:0:
164,44,143980,5,0,0:0:0:0:
152,112,144062,1,0,0:0:0:0:
140,180,144144,1,0,0:0:0:0:
132,248,144227,1,0,0:0:0:0:
120,316,144309,1,0,0:0:0:0:
280,100,144474,5,0,0:0:0:0:
317,80,144556,1,0,0:0:0:0:
359,72,144638,1,0,0:0:0:0:
401,77,144721,1,0,0:0:0:0:
437,99,144803,1,0,0:0:0:0:
460,134,144885,1,0,0:0:0:0:
472,176,144968,6,0,L|456:260,3,85.000000298023,0|0|0|0,0:0|0:0|0:0|0:0,0:0:0:0:
440,299,145298,1,0,0:0:0:0:
413,335,145380,1,0,0:0:0:0:
375,353,145462,1,0,0:0:0:0:
333,359,145545,1,0,0:0:0:0:
291,354,145627,5,0,0:0:0:0:
251,338,145709,1,0,0:0:0:0:
217,314,145792,1,0,0:0:0:0:
190,280,145874,1,0,0:0:0:0:
172,242,145957,1,0,0:0:0:0:
150,206,146039,1,0,0:0:0:0:
116,184,146121,1,0,0:0:0:0:
72,184,146204,1,0,0:0:0:0:
32,204,146287,6,0,P|8:240|4:284,3,85.000000298023,0|0|0|0,0:0|0:0|0:0|0:0,0:0:0:0:
24,316,146616,1,0,0:0:0:0:
52,348,146698,1,0,0:0:0:0:
92,364,146781,1,0,0:0:0:0:
132,372,146863,1,0,0:0:0:0:
176,368,146945,5,0,0:0:0:0:
214,349,147028,1,0,0:0:0:0:
247,323,147110,1,0,0:0:0:0:
271,288,147193,1,0,0:0:0:0:
286,248,147275,1,0,0:0:0:0:
289,206,147357,1,0,0:0:0:0:
281,165,147440,1,0,0:0:0:0:
262,126,147522,1,0,0:0:0:0:
228,100,147605,6,0,L|152:60,3,85.000000298023,0|0|0|0,0:0|0:0|0:0|0:0,0:0:0:0:
118,84,147934,1,0,0:0:0:0:
101,123,148016,1,0,0:0:0:0:
97,165,148099,1,0,0:0:0:0:
109,205,148181,1,0,0:0:0:0:
136,238,148264,5,0,0:0:0:0:
172,259,148346,1,0,0:0:0:0:
213,271,148428,1,0,0:0:0:0:
255,268,148511,1,0,0:0:0:0:
290,245,148593,1,0,0:0:0:0:
317,212,148676,1,0,0:0:0:0:
340,176,148758,1,0,0:0:0:0:
362,140,148840,1,0,0:0:0:0:
386,105,148923,5,0,0:0:0:0:
376,64,149006,1,0,0:0:0:0:
348,32,149088,1,0,0:0:0:0:
311,11,149171,1,0,0:0:0:0:
269,6,149253,1,0,0:0:0:0:
227,13,149335,1,0,0:0:0:0:
189,32,149418,1,0,0:0:0:0:
156,58,149500,1,0,0:0:0:0:
131,93,149583,5,0,0:0:0:0:
117,132,149665,1,0,0:0:0:0:
114,175,149747,1,0,0:0:0:0:
122,216,149830,1,0,0:0:0:0:
140,255,149912,1,0,0:0:0:0:
166,288,149995,1,0,0:0:0:0:
197,317,150077,1,0,0:0:0:0:
232,341,150159,1,0,0:0:0:0:
272,332,150242,6,0,P|312:324|360:328,3,85.000000298023,0|0|0|0,0:0|0:0|0:0|0:0,0:0:0:0:
392,348,150571,1,0,0:0:0:0:
484,229,150736,5,0,0:0:0:0:
496,188,150818,1,0,0:0:0:0:
493,146,150901,1,0,0:0:0:0:
470,111,150983,1,0,0:0:0:0:
437,84,151066,1,0,0:0:0:0:
327,95,151230,5,0,0:0:0:0:
292,71,151313,1,0,0:0:0:0:
248,68,151395,1,0,0:0:0:0:
204,68,151478,1,0,0:0:0:0:
172,40,151560,1,0,0:0:0:0:
256,192,151642,12,0,152714,0:0:0:0:
24,316,152878,6,0,L|200:300,1,170.000000596046
472,256,153126,2,0,L|300:228,1,170.000000596046
56,144,153373,2,0,L|228:120,1,170.000000596046
488,64,153620,2,0,L|316:32,1,170.000000596046
68,20,153867,5,0,0:0:0:0:
52,60,153950,1,0,0:0:0:0:
60,100,154032,1,0,0:0:0:0:
56,144,154114,1,0,0:0:0:0:
28,176,154197,6,0,L|56:344,1,170.000000596046
164,248,154444,2,0,L|192:80,1,170.000000596046
320,180,154691,2,0,L|348:348,1,170.000000596046
456,252,154938,2,0,L|484:84,1,170.000000596046
312,48,155185,5,0,0:0:0:0:
284,80,155268,1,0,0:0:0:0:
244,84,155350,1,0,0:0:0:0:
220,120,155433,1,0,0:0:0:0:
228,160,155515,5,0,0:0:0:0:
228,204,155597,1,0,0:0:0:0:
192,228,155680,1,0,0:0:0:0:
156,248,155762,1,0,0:0:0:0:
132,284,155845,6,0,P|220:320|304:316,1,170.000000596046
332,296,156092,1,0,0:0:0:0:
372,312,156174,1,0,0:0:0:0:
412,332,156257,1,0,0:0:0:0:
452,316,156339,1,0,0:0:0:0:
416,128,156504,5,0,0:0:0:0:
380,108,156586,1,0,0:0:0:0:
344,108,156669,1,0,0:0:0:0:
300,112,156751,1,0,0:0:0:0:
284,152,156833,6,0,L|112:144,1,170.000000596046
52,304,157081,2,0,L|224:272,1,170.000000596046
360,208,157328,1,0,0:0:0:0:
160,32,157493,5,0,0:0:0:0:
127,71,157575,1,0,0:0:0:0:
117,120,157657,1,0,0:0:0:0:
142,164,157740,1,0,0:0:0:0:
179,198,157822,5,0,0:0:0:0:
215,235,157904,1,0,0:0:0:0:
231,282,157987,1,0,0:0:0:0:
211,328,158069,1,0,0:0:0:0:
176,365,158152,5,0,0:0:0:0:
40,168,158316,1,0,0:0:0:0:
40,168,158481,1,0,0:0:0:0:
320,288,158646,5,0,0:0:0:0:
320,288,158728,1,0,0:0:0:0:
320,288,158811,1,0,0:0:0:0:
476,200,158976,1,0,0:0:0:0:
320,116,159140,5,0,0:0:0:0:
436,312,159305,1,0,0:0:0:0:
436,312,159470,1,0,0:0:0:0:
184,212,159635,5,0,0:0:0:0:
184,212,159717,1,0,0:0:0:0:
184,212,159800,1,0,0:0:0:0:
424,116,159964,1,0,0:0:0:0:
204,84,160129,5,0,0:0:0:0:
164,104,160212,1,0,0:0:0:0:
124,112,160294,1,0,0:0:0:0:
84,100,160376,1,0,0:0:0:0:
52,72,160459,1,0,0:0:0:0:
56,232,160624,5,0,0:0:0:0:
56,232,160706,1,0,0:0:0:0:
56,232,160788,2,0,B|196:296|312:176|312:176|416:236|396:344|396:344|295:377|248:256,1,680.000002384184
276,48,161612,5,0,0:0:0:0:
316,36,161695,1,0,0:0:0:0:
356,52,161777,5,0,0:0:0:0:
400,56,161859,1,0,0:0:0:0:
440,68,161942,1,0,0:0:0:0:
468,96,162024,1,0,0:0:0:0:
480,136,162107,5,0,0:0:0:0:
464,176,162189,1,0,0:0:0:0:
464,220,162271,1,0,0:0:0:0:
480,260,162354,1,0,0:0:0:0:
472,300,162436,5,0,0:0:0:0:
440,332,162519,1,0,0:0:0:0:
396,332,162601,1,0,0:0:0:0:
368,364,162683,1,0,0:0:0:0:
324,356,162766,5,0,0:0:0:0:
284,364,162848,1,0,0:0:0:0:
240,368,162931,1,0,0:0:0:0:
208,340,163013,1,0,0:0:0:0:
192,300,163095,5,0,0:0:0:0:
200,260,163178,1,0,0:0:0:0:
164,236,163260,1,0,0:0:0:0:
120,236,163343,1,0,0:0:0:0:
84,260,163425,5,0,0:0:0:0:
256,40,164743,5,0,0:0:0:0:
480,192,166062,5,0,0:0:0:0:
48,192,167710,6,0,B|220:192|220:192|144:192|144:192|260:192,2,340.000001192092,0|0|0,0:0|0:0|0:0,0:0:0:0:
256,40,168698,5,0,0:0:0:0:
128,300,169522,5,0,0:0:0:0:
128,300,169605,1,0,0:0:0:0:
128,300,169687,1,0,0:0:0:0:
212,200,169852,1,0,0:0:0:0:
212,200,169934,1,0,0:0:0:0:
212,200,170017,1,0,0:0:0:0:
452,100,170511,5,0,0:0:0:0:
452,100,170594,1,0,0:0:0:0:
452,100,170676,1,0,0:0:0:0:
368,200,170841,1,0,0:0:0:0:
368,200,170923,1,0,0:0:0:0:
368,200,171006,1,0,0:0:0:0:
242,61,171170,1,0,0:0:0:0:
224,44,171252,1,0,0:0:0:0:
202,30,171334,5,0,0:0:0:0:
178,22,171417,1,0,0:0:0:0:
152,19,171499,1,0,0:0:0:0:
127,22,171581,1,0,0:0:0:0:
103,30,171664,1,0,0:0:0:0:
81,42,171746,1,0,0:0:0:0:
62,60,171829,1,0,0:0:0:0:
48,81,171911,1,0,0:0:0:0:
38,104,171993,5,0,0:0:0:0:
34,129,172076,1,0,0:0:0:0:
35,155,172158,1,0,0:0:0:0:
41,179,172241,1,0,0:0:0:0:
53,202,172323,1,0,0:0:0:0:
69,222,172405,1,0,0:0:0:0:
89,237,172488,1,0,0:0:0:0:
112,249,172570,1,0,0:0:0:0:
136,254,172653,5,0,0:0:0:0:
162,255,172735,1,0,0:0:0:0:
186,253,172817,1,0,0:0:0:0:
210,245,172900,1,0,0:0:0:0:
235,240,172982,1,0,0:0:0:0:
260,240,173064,1,0,0:0:0:0:
285,246,173147,1,0,0:0:0:0:
308,257,173229,1,0,0:0:0:0:
328,273,173312,5,0,0:0:0:0:
344,293,173394,1,0,0:0:0:0:
350,317,173477,1,0,0:0:0:0:
350,341,173560,1,0,0:0:0:0:
340,364,173642,2,0,L|168:352,2,170.000000596046,0|0|0,0:0|0:0|0:0,0:0:0:0:
480,276,174301,5,0,0:0:0:0:
172,224,174631,1,0,0:0:0:0:
312,84,174795,5,0,0:0:0:0:
312,84,174878,1,0,0:0:0:0:
312,84,174960,1,0,0:0:0:0:
428,164,175125,1,0,0:0:0:0:
428,164,175207,1,0,0:0:0:0:
428,164,175290,1,0,0:0:0:0:
256,360,175455,5,0,0:0:0:0:
256,28,175619,1,0,0:0:0:0:
104,152,175784,5,0,0:0:0:0:
104,152,175867,1,0,0:0:0:0:
104,152,175949,1,0,0:0:0:0:
104,152,176031,1,0,0:0:0:0:
44,336,176196,1,0,0:0:0:0:
44,336,176279,1,0,0:0:0:0:
44,336,176361,1,0,0:0:0:0:
44,336,176443,1,0,0:0:0:0:
44,336,176526,1,0,0:0:0:0:
44,336,176608,1,0,0:0:0:0:
224,256,176938,5,0,0:0:0:0:
24,192,177267,1,0,0:0:0:0:
236,112,177597,1,0,0:0:0:0:
392,236,177762,5,0,0:0:0:0:
392,236,177844,1,0,0:0:0:0:
392,236,177926,1,0,0:0:0:0:
488,192,178091,5,0,0:0:0:0:
24,192,178256,1,0,0:0:0:0:
92,280,178421,5,0,0:0:0:0:
92,280,178503,1,0,0:0:0:0:
92,280,178586,2,0,B|260:252|260:252|200:320,2,255.000000894069,0|0|0,0:0|0:0|0:0,0:0:0:0:
92,280,179245,5,0,0:0:0:0:
204,96,179574,1,0,0:0:0:0:
48,56,179904,1,0,0:0:0:0:
120,176,180069,5,0,0:0:0:0:
120,176,180151,1,0,0:0:0:0:
120,176,180234,1,0,0:0:0:0:
332,56,180398,1,0,0:0:0:0:
332,56,180481,1,0,0:0:0:0:
332,56,180563,1,0,0:0:0:0:
260,280,180893,5,0,0:0:0:0:
404,200,181222,1,0,0:0:0:0:
216,60,181387,5,0,0:0:0:0:
220,84,181469,1,0,0:0:0:0:
224,108,181552,1,0,0:0:0:0:
228,132,181634,1,0,0:0:0:0:
232,156,181717,1,0,0:0:0:0:
236,180,181799,1,0,0:0:0:0:
232,204,181881,6,0,L|160:256,3,85.000000298023,0|0|0|0,0:0|0:0|0:0|0:0,0:0:0:0:
64,336,182211,2,0,L|12:264,3,85.000000298023,0|0|0|0,0:0|0:0|0:0|0:0,0:0:0:0:
44,164,182541,2,0,L|116:112,3,85.000000298023,0|0|0|0,0:0|0:0|0:0|0:0,0:0:0:0:
212,32,182871,2,0,L|264:104,3,85.000000298023,0|0|0|0,0:0|0:0|0:0|0:0,0:0:0:0:
352,184,183200,6,0,L|440:172,1,85.000000298023
336,312,183365,2,0,L|232:328,1,85.000000298023
152,200,183529,2,0,L|72:248,1,85.000000298023
268,204,183694,2,0,L|296:112,1,85.000000298023
140,72,183859,2,0,L|48:72,1,85.000000298023
176,360,184024,2,0,L|196:264,1,85.000000298023
328,92,184188,5,0,0:0:0:0:
52,300,184353,1,0,0:0:0:0:
28,168,184518,5,0,0:0:0:0:
196,132,184683,1,0,0:0:0:0:
28,168,184848,1,0,0:0:0:0:
196,132,185012,1,0,0:0:0:0:
132,244,185177,5,0,0:0:0:0:
300,280,185342,1,0,0:0:0:0:
132,244,185507,1,0,0:0:0:0:
300,280,185671,1,0,0:0:0:0:
484,168,185836,5,0,0:0:0:0:
316,132,186001,1,0,0:0:0:0:
484,168,186166,1,0,0:0:0:0:
316,132,186330,1,0,0:0:0:0:
380,244,186495,5,0,0:0:0:0:
212,280,186660,1,0,0:0:0:0:
380,244,186825,1,0,0:0:0:0:
212,280,186989,1,0,0:0:0:0:
228,32,187155,5,0,0:0:0:0:
264,200,187320,1,0,0:0:0:0:
228,32,187485,1,0,0:0:0:0:
264,200,187649,1,0,0:0:0:0:
152,136,187814,5,0,0:0:0:0:
116,304,187979,1,0,0:0:0:0:
152,136,188144,1,0,0:0:0:0:
256,364,188308,1,0,0:0:0:0:
256,364,188638,5,0,0:0:0:0:
408,288,188803,1,0,0:0:0:0:
412,120,188967,1,0,0:0:0:0:
272,24,189132,1,0,0:0:0:0:
108,76,189297,1,0,0:0:0:0:
60,240,189462,1,0,0:0:0:0:
180,360,189627,1,0,0:0:0:0:
398,285,189791,5,0,0:0:0:0:
398,62,189956,1,0,0:0:0:0:
175,62,190121,1,0,0:0:0:0:
175,284,190286,1,0,0:0:0:0:
416,268,190451,5,0,0:0:0:0:
373,49,190616,1,0,0:0:0:0:
154,91,190781,1,0,0:0:0:0:
197,309,190946,1,0,0:0:0:0:
430,245,191110,5,0,0:0:0:0:
343,40,191275,1,0,0:0:0:0:
138,127,191440,1,0,0:0:0:0:
225,331,191605,1,0,0:0:0:0:
439,222,191770,5,0,0:0:0:0:
315,37,191935,1,0,0:0:0:0:
130,162,192100,1,0,0:0:0:0:
254,345,192265,1,0,0:0:0:0:
336,176,192428,5,0,0:0:0:0:
52,284,192593,1,0,0:0:0:0:
256,112,192758,1,0,0:0:0:0:
128,344,192922,1,0,0:0:0:0:
56,108,193087,5,0,0:0:0:0:
336,272,193252,1,0,0:0:0:0:
56,108,193417,1,0,0:0:0:0:
254,345,193582,1,0,0:0:0:0:
254,345,193911,5,0,0:0:0:0:
400,332,194076,1,0,0:0:0:0:
20,192,194405,5,0,0:0:0:0:
488,184,194735,1,0,0:0:0:0:
20,192,195065,5,0,0:0:0:0:
488,184,195229,1,0,0:0:0:0:
368,128,195394,1,0,0:0:0:0:
368,128,195559,1,0,0:0:0:0:
144,256,195724,5,0,0:0:0:0:
144,256,195889,1,0,0:0:0:0:
368,128,196053,1,0,0:0:0:0:
144,256,196218,1,0,0:0:0:0:
168,36,196383,6,0,B|80:36|80:36|0:4,1,170.000000596046
344,348,196713,6,0,B|432:348|432:348|508:378,1,170.000000596046
168,348,197042,6,0,B|80:348|80:348|3:378,1,170.000000596046
508,5,197372,6,0,B|432:36|432:36|344:36,1,170.000000596046
32,268,197701,5,0,0:0:0:0:
480,116,197866,1,0,0:0:0:0:
136,128,198031,1,0,0:0:0:0:
376,256,198196,1,0,0:0:0:0:
16,100,198360,5,0,0:0:0:0:
496,284,198525,1,0,0:0:0:0:
100,344,198690,1,0,0:0:0:0:
412,40,198855,1,0,0:0:0:0:
412,40,199184,6,0,P|320:48|244:32,1,170.000000596046
48,168,199514,1,0,0:0:0:0:
264,316,199679,2,0,P|288:228|276:152,1,170.000000596046
275,151,200008,2,0,P|287:235|264:316,1,170.000000596046
8,364,200338,5,0,0:0:0:0:
504,20,200503,1,0,0:0:0:0:
8,192,200667,1,0,0:0:0:0:
504,192,200832,1,0,0:0:0:0:
8,280,200997,5,0,0:0:0:0:
504,104,201162,1,0,0:0:0:0:
0,104,201327,1,0,0:0:0:0:
512,280,201492,1,0,0:0:0:0:
256,192,201656,12,0,212038,0:0:0:0:
