osu file format v13

[General]
AudioFilename: mp2 - touhou cut5.mp3
AudioLeadIn: 0
PreviewTime: -1
Countdown: 0
SampleSet: Soft
StackLeniency: 0.7
Mode: 0
LetterboxInBreaks: 0
WidescreenStoryboard: 0

[Editor]
DistanceSpacing: 0.8
BeatDivisor: 4
GridSize: 4
TimelineZoom: 1

[Metadata]
Title:Uzuki no Shougatsu
TitleUnicode:卯月の正月
Artist:S.S.H
ArtistUnicode:S.S.H
Creator:terametis
Version:Gay
Source:Touhou
Tags:Guy alacat NewRulerNA Satellite litoluna wring laurier
BeatmapID:577829
BeatmapSetID:0

[Difficulty]
HPDrainRate:0
CircleSize:2
OverallDifficulty:0
ApproachRate:9.5
SliderMultiplier:2
SliderTickRate:2

[Events]
//Background and Video events
0,0,"2015年BG.png",0,0
//Break Periods
//Storyboard Layer 0 (Background)
//Storyboard Layer 1 (Fail)
//Storyboard Layer 2 (Pass)
//Storyboard Layer 3 (Foreground)
//Storyboard Sound Samples

[TimingPoints]
21048,329.579785773139,4,2,0,80,1,0
57960,-100,4,1,0,80,0,0

[Colours]
Combo1 : 255,0,204
Combo2 : 39,231,124
Combo3 : 232,139,0
Combo4 : 1,197,254
Combo5 : 170,201,48

[HitObjects]
132,156,47084,6,0,L|136:216,1,50
232,208,47249,2,0,L|228:268,1,50,0|0,0:0|0:0,0:0:0:0:
176,336,47414,2,0,P|272:340|321:250,1,200,4|8,0:0|0:0,0:0:0:0:
448,115,47908,2,0,P|386:104|344:104,1,100,0|2,0:0|0:0,0:0:0:0:
92,240,48238,2,0,P|141:238|190:228,1,100,0|8,0:0|0:0,0:0:0:0:
387,201,48567,1,0,0:0:0:0:
179,80,48732,6,0,L|192:251,1,150,2|0,0:0|0:0,0:0:0:0:
274,245,49062,2,0,P|262:299|260:345,1,100,8|0,0:0|0:0,0:0:0:0:
292,159,49391,1,2,0:0:0:0:
179,273,49556,1,0,0:0:0:0:
361,225,49721,1,8,0:0:0:0:
197,182,49886,1,0,0:0:0:0:
335,311,50051,6,0,P|420:305|447:204,1,200,2|8,0:0|0:0,0:0:0:0:
259,52,50545,1,0,0:0:0:0:
254,74,50627,1,0,0:0:0:0:
249,92,50710,2,0,L|266:200,1,100,2|0,0:0|0:0,0:0:0:0:
168,279,51039,1,8,0:0:0:0:
361,146,51204,1,0,0:0:0:0:
230,352,51369,6,0,P|158:365|109:365,1,100,2|0,0:0|0:0,0:0:0:0:
203,188,51698,2,0,P|250:243|274:286,1,100,8|0,0:0|0:0,0:0:0:0:
74,293,52028,2,0,P|98:224|123:181,1,100,2|4,0:0|0:0,0:0:0:0:
317,37,52358,2,0,L|256:46,1,50,2|2,0:0|0:0,0:0:0:0:
148,100,52522,2,0,L|209:109,1,50,2|2,0:0|0:0,0:0:0:0:
324,201,52687,6,0,P|424:169|375:79,1,200,4|8,0:0|0:0,0:0:0:0:
87,198,53182,1,0,0:0:0:0:
87,198,53346,2,0,P|166:206|209:202,1,100,2|0,0:0|0:0,0:0:0:0:
180,309,53676,2,0,P|236:290|277:257,1,100,8|0,0:0|0:0,0:0:0:0:
335,61,54005,6,0,P|340:184|353:264,1,200,2|8,0:0|0:0,0:0:0:0:
117,371,54500,2,0,L|95:320,1,50
170,137,54665,2,0,L|150:251,1,100,2|0,0:0|0:0,0:0:0:0:
246,320,54994,1,8,0:0:0:0:
339,177,55159,1,0,0:0:0:0:
357,362,55324,6,0,L|254:344,1,100,4|0,0:0|0:0,0:0:0:0:
56,163,55653,1,8,0:0:0:0:
116,273,55818,1,0,0:0:0:0:
193,135,55983,1,4,0:0:0:0:
282,303,56148,1,0,0:0:0:0:
321,128,56313,1,0,0:0:0:0:
126,147,56477,1,0,0:0:0:0:
188,353,56642,6,0,P|246:347|298:338,1,100,4|0,0:0|0:0,0:0:0:0:
325,327,56889,1,0,0:0:0:0:
354,299,56972,1,8,0:0:0:0:
367,261,57054,1,0,0:0:0:0:
358,222,57136,1,0,0:0:0:0:
330,192,57219,1,0,0:0:0:0:
291,181,57301,1,8,0:0:0:0:
251,190,57384,1,0,0:0:0:0:
212,200,57466,1,0,0:0:0:0:
172,200,57548,1,0,0:0:0:0:
132,192,57631,2,0,P|103:185|78:172,1,50,4|0,0:0|0:0,0:0:0:0:
197,77,57796,1,0,0:0:0:0:
291,181,57960,6,0,L|268:282,1,100,4|0,0:0|0:0,0:0:0:0:
74,338,58290,2,0,L|64:284,1,50,8|0,0:0|0:0,0:0:0:0:
142,285,58455,2,0,L|132:231,1,50
47,209,58620,2,0,L|37:155,1,50,2|0,0:0|0:0,0:0:0:0:
115,156,58785,2,0,L|105:102,1,50
24,82,58949,1,0,0:0:0:0:
44,47,59032,1,0,0:0:0:0:
79,29,59114,1,0,0:0:0:0:
118,26,59196,1,0,0:0:0:0:
157,35,59279,6,0,P|210:35|277:23,1,100
373,113,59525,1,0,0:0:0:0:
373,113,59608,2,0,P|320:113|253:101,1,100
141,200,59938,1,0,0:0:0:0:
266,259,60103,1,0,0:0:0:0:
221,134,60267,1,0,0:0:0:0:
194,339,60432,1,0,0:0:0:0:
373,313,60597,6,0,L|367:208,1,100,2|0,0:0|0:0,0:0:0:0:
252,98,60844,1,0,0:0:0:0:
253,129,60927,2,0,L|259:234,1,100,8|0,0:0|0:0,0:0:0:0:
128,362,61174,1,0,0:0:0:0:
127,331,61257,2,0,L|121:226,1,100,2|0,0:0|0:0,0:0:0:0:
119,146,61503,2,0,P|89:158|62:166,1,50,0|8,0:0|0:0,0:0:0:0:
199,255,61751,2,0,P|226:267|246:273,1,50
328,340,61915,6,0,L|326:276,1,50
276,151,62080,2,0,L|278:215,1,50,0|0,0:0|0:0,0:0:0:0:
422,317,62245,2,0,L|420:267,1,50,0|0,0:0|0:0,0:0:0:0:
370,128,62410,2,0,L|371:177,1,50
239,322,62575,1,0,0:0:0:0:
166,187,62739,1,0,0:0:0:0:
389,104,62904,5,0,0:0:0:0:
362,134,62987,1,0,0:0:0:0:
322,137,63069,1,0,0:0:0:0:
287,117,63151,1,0,0:0:0:0:
253,95,63234,1,0,0:0:0:0:
213,88,63316,1,0,0:0:0:0:
172,85,63399,1,0,0:0:0:0:
134,99,63481,1,0,0:0:0:0:
108,129,63563,1,0,0:0:0:0:
92,166,63646,1,0,0:0:0:0:
93,205,63728,1,0,0:0:0:0:
107,241,63810,1,0,0:0:0:0:
144,255,63893,1,0,0:0:0:0:
174,229,63975,1,0,0:0:0:0:
174,229,64058,1,0,0:0:0:0:
166,187,64140,1,0,0:0:0:0:
126,179,64222,1,0,0:0:0:0:
93,205,64305,1,0,0:0:0:0:
93,205,64387,1,0,0:0:0:0:
76,241,64470,1,0,0:0:0:0:
80,280,64552,1,0,0:0:0:0:
98,315,64634,1,0,0:0:0:0:
132,336,64717,1,0,0:0:0:0:
171,338,64799,1,0,0:0:0:0:
209,325,64882,1,0,0:0:0:0:
242,302,64964,1,0,0:0:0:0:
281,294,65046,1,0,0:0:0:0:
320,300,65129,1,0,0:0:0:0:
355,318,65211,1,0,0:0:0:0:
393,328,65294,1,0,0:0:0:0:
431,317,65376,1,0,0:0:0:0:
459,288,65458,1,0,0:0:0:0:
457,247,65541,1,0,0:0:0:0:
424,224,65623,1,0,0:0:0:0:
383,220,65706,1,0,0:0:0:0:
344,228,65788,1,0,0:0:0:0:
304,228,65870,1,0,0:0:0:0:
265,216,65953,1,0,0:0:0:0:
240,184,66035,1,0,0:0:0:0:
240,143,66118,1,0,0:0:0:0:
228,104,66200,1,0,0:0:0:0:
189,94,66282,1,0,0:0:0:0:
150,106,66365,1,0,0:0:0:0:
136,143,66447,1,0,0:0:0:0:
141,182,66530,1,0,0:0:0:0:
168,210,66612,1,0,0:0:0:0:
207,206,66694,1,0,0:0:0:0:
240,184,66777,1,0,0:0:0:0:
273,162,66859,1,0,0:0:0:0:
307,142,66941,1,0,0:0:0:0:
347,138,67024,1,0,0:0:0:0:
386,142,67106,1,0,0:0:0:0:
425,152,67189,1,0,0:0:0:0:
460,170,67271,1,0,0:0:0:0:
479,204,67353,1,0,0:0:0:0:
474,244,67436,1,0,0:0:0:0:
451,277,67518,1,0,0:0:0:0:
410,273,67601,1,0,0:0:0:0:
371,261,67683,1,0,0:0:0:0:
340,234,67765,1,0,0:0:0:0:
330,194,67848,2,0,P|78:125|179:354,1,600,0|0,0:0|0:0,0:0:0:0:
303,327,69001,2,0,P|248:175|183:311,1,350
252,258,69661,2,0,P|136:161|44:223,1,250
103,257,70155,2,0,P|128:185|30:133,1,200
103,257,70649,2,0,L|222:257,1,100
402,326,70979,2,0,L|385:193,1,100
345,26,71308,2,0,L|199:53,1,100
204,184,71638,2,0,P|317:189|161:71,1,500
59,202,72627,1,0,0:0:0:0:
83,233,72709,1,0,0:0:0:0:
122,242,72792,1,0,0:0:0:0:
161,239,72874,1,0,0:0:0:0:
189,210,72956,1,0,0:0:0:0:
222,188,73039,1,0,0:0:0:0:
261,181,73121,1,0,0:0:0:0:
300,187,73204,1,0,0:0:0:0:
335,204,73286,1,0,0:0:0:0:
362,232,73368,1,0,0:0:0:0:
402,232,73451,1,0,0:0:0:0:
432,206,73533,1,0,0:0:0:0:
430,166,73615,1,0,0:0:0:0:
402,136,73698,1,0,0:0:0:0:
368,114,73780,1,0,0:0:0:0:
327,115,73863,1,0,0:0:0:0:
289,127,73945,1,0,0:0:0:0:
262,156,74027,1,0,0:0:0:0:
227,135,74110,2,0,L|132:118,1,50
271,293,74275,2,0,L|207:304,1,50
429,311,74439,2,0,L|369:313,1,50
450,94,74604,2,0,L|352:101,1,50
130,153,74769,2,0,L|70:152,1,50
146,249,74934,2,0,L|92:274,1,50
219,204,75099,2,0,L|245:132,1,50
346,175,75263,2,0,L|355:227,1,50
265,333,75428,2,0,L|208:335,1,50
185,46,75593,2,0,L|256:46,1,50
365,71,75758,2,0,L|346:118,1,50
236,188,75923,2,0,L|138:199,1,50
328,271,76087,2,0,L|390:290,1,50
459,229,76252,2,0,L|395:219,1,50
198,291,76417,2,0,L|145:305,1,50
66,204,76582,2,0,L|92:138,1,50
280,96,76746,2,0,L|280:156,1,50
151,264,76911,2,0,L|123:317,1,50
276,351,77076,2,0,L|345:350,1,50
468,348,77241,6,0,L|468:292,1,50
468,216,77406,2,0,L|468:160,1,50
468,92,77570,2,0,L|468:36,1,50
396,44,77735,6,0,L|396:100,1,50
396,176,77900,2,0,L|396:232,1,50
396,300,78064,2,0,L|396:356,1,50
324,348,78230,6,0,L|324:292,1,50
324,216,78395,2,0,L|324:160,1,50
324,92,78559,2,0,L|324:36,1,50
252,44,78724,6,0,L|252:100,1,50
252,176,78889,2,0,L|252:232,1,50
252,300,79053,2,0,L|252:356,1,50
216,352,79218,6,0,L|216:296,1,50
216,220,79383,2,0,L|216:164,1,50
216,96,79547,2,0,L|216:40,1,50
144,48,79712,6,0,L|144:104,1,50
144,180,79877,2,0,L|144:236,1,50
144,304,80041,2,0,L|144:360,1,50
72,352,80207,6,0,L|72:296,1,50
72,220,80372,2,0,L|72:164,1,50
72,96,80536,2,0,L|72:40,1,50
0,48,80701,6,0,L|0:104,1,50
0,180,80866,2,0,L|0:236,1,50
0,304,81030,2,0,L|0:360,1,50
252,356,81196,6,0,L|312:356,1,50
252,280,81361,2,0,L|312:280,1,50,0|0,0:0|0:0,0:0:0:0:
252,200,81525,6,0,L|312:200,1,50
252,124,81690,2,0,L|312:124,1,50,0|0,0:0|0:0,0:0:0:0:
436,356,81855,6,0,L|376:356,1,50
436,280,82020,2,0,L|376:280,1,50,0|0,0:0|0:0,0:0:0:0:
436,200,82184,6,0,L|376:200,1,50
436,124,82349,2,0,L|376:124,1,50,0|0,0:0|0:0,0:0:0:0:
172,356,82514,6,0,L|112:356,1,50
172,280,82679,2,0,L|112:280,1,50,0|0,0:0|0:0,0:0:0:0:
172,200,82843,6,0,L|112:200,1,50
172,124,83008,2,0,L|112:124,1,50,0|0,0:0|0:0,0:0:0:0:
256,280,83173,6,0,L|316:280,1,50
256,204,83338,2,0,L|316:204,1,50,0|0,0:0|0:0,0:0:0:0:
256,124,83502,6,0,L|316:124,1,50
256,48,83667,2,0,L|316:48,1,50,0|0,0:0|0:0,0:0:0:0:
416,48,83832,1,0,0:0:0:0:
416,88,83915,1,0,0:0:0:0:
416,128,83997,1,0,0:0:0:0:
416,168,84080,1,0,0:0:0:0:
416,208,84162,1,0,0:0:0:0:
416,248,84244,1,0,0:0:0:0:
416,288,84327,1,0,0:0:0:0:
416,328,84409,1,0,0:0:0:0:
376,332,84492,1,0,0:0:0:0:
336,332,84574,1,0,0:0:0:0:
296,332,84656,1,0,0:0:0:0:
256,332,84739,1,0,0:0:0:0:
216,332,84821,1,0,0:0:0:0:
176,332,84904,1,0,0:0:0:0:
136,332,84986,1,0,0:0:0:0:
96,332,85068,1,0,0:0:0:0:
56,332,85151,2,0,L|56:264,1,50
96,284,85316,2,0,L|96:216,1,50
136,236,85480,2,0,L|136:168,1,50
184,116,85645,6,0,L|260:116,1,50
308,80,85810,6,0,L|384:80,1,50,0|0,0:0|0:0,0:0:0:0:
392,196,85975,2,0,L|332:200,1,50
276,328,86140,2,0,L|208:320,1,50
84,212,86304,2,0,L|68:144,1,50
232,184,86469,2,0,L|204:256,1,50
352,288,86634,2,0,L|448:292,1,50
480,128,86799,2,0,L|400:132,1,50
252,40,86963,2,0,L|224:96,1,50
84,80,87128,2,0,L|104:148,1,50
80,328,87293,2,0,L|136:332,1,50
232,248,87458,2,0,L|152:248,1,50
60,164,87623,2,0,L|140:164,1,50
224,80,87787,2,0,L|152:80,1,50
108,240,87952,2,0,L|152:268,1,50
260,328,88117,2,0,L|320:324,1,50
432,296,88282,2,0,L|480:272,1,50
416,24,88447,2,0,L|400:80,1,50
368,168,88611,1,0,0:0:0:0:
328,168,88694,1,0,0:0:0:0:
288,168,88776,1,0,0:0:0:0:
284,208,88859,1,0,0:0:0:0:
324,208,88941,1,0,0:0:0:0:
364,212,89023,1,0,0:0:0:0:
352,252,89106,1,0,0:0:0:0:
312,256,89188,1,0,0:0:0:0:
272,256,89271,1,0,0:0:0:0:
240,232,89353,1,0,0:0:0:0:
232,192,89435,1,0,0:0:0:0:
244,152,89518,1,0,0:0:0:0:
272,124,89600,1,0,0:0:0:0:
308,112,89682,1,0,0:0:0:0:
348,112,89765,1,0,0:0:0:0:
384,128,89847,1,0,0:0:0:0:
404,164,89930,1,0,0:0:0:0:
416,204,90012,1,0,0:0:0:0:
416,244,90094,1,0,0:0:0:0:
396,280,90177,1,0,0:0:0:0:
364,304,90259,1,0,0:0:0:0:
324,312,90342,1,0,0:0:0:0:
284,308,90424,1,0,0:0:0:0:
248,288,90506,1,0,0:0:0:0:
224,256,90589,1,0,0:0:0:0:
208,220,90671,1,0,0:0:0:0:
204,180,90754,1,0,0:0:0:0:
212,140,90836,1,0,0:0:0:0:
228,104,90918,1,0,0:0:0:0:
256,76,91001,1,0,0:0:0:0:
292,60,91083,1,0,0:0:0:0:
332,52,91166,1,0,0:0:0:0:
372,48,91248,2,0,L|464:52,1,50
140,48,91413,2,0,L|48:52,1,50
368,128,91578,2,0,L|460:132,1,50
136,128,91743,2,0,L|44:132,1,50
384,208,91907,2,0,L|476:212,1,50
152,208,92072,2,0,L|60:212,1,50
132,288,92237,2,0,L|40:292,1,50
364,288,92402,2,0,L|456:292,1,50
376,368,92566,2,0,L|468:372,1,50
144,368,92731,2,0,L|52:372,1,50
260,360,92896,6,0,L|260:304,1,50
192,276,93061,2,0,L|192:200,1,50
324,248,93225,2,0,L|316:172,1,50
152,152,93390,2,0,L|152:96,1,50
344,128,93555,2,0,L|332:68,1,50
228,28,93720,2,0,L|240:112,1,50
76,48,93885,2,0,L|88:128,1,50
56,236,94049,2,0,L|120:240,1,50
100,328,94214,2,0,L|176:324,1,50
264,336,94379,2,0,L|332:336,1,50
448,292,94544,2,0,L|384:288,1,50
236,208,94709,2,0,L|304:204,1,50
484,160,94873,2,0,L|396:168,1,50
336,80,95038,2,0,L|264:80,1,50
128,112,95203,2,0,L|132:180,1,50
224,264,95368,2,0,L|216:208,1,50
356,180,95533,2,0,L|344:232,1,50
208,352,95697,2,0,L|120:352,1,50
16,212,95862,2,0,P|36:100|384:192,1,600
60,224,97016,2,0,P|92:104|352:224,1,500
100,236,98004,2,0,P|128:136|328:232,1,400
156,248,98828,2,0,P|172:156|280:248,1,300
184,248,99487,2,0,P|208:172|244:264,1,200
248,336,99982,2,0,L|324:324,1,50
432,284,100147,2,0,B|428:184|360:64|188:64|76:140|64:256|136:328|268:352|384:272|376:132|296:40|136:20|40:56|20:120|16:200,1,900
140,336,101795,2,0,B|292:328|392:208|368:40|160:32|88:152|88:152|248:248|440:176|480:52,1,1000
480,264,103607,1,0,0:0:0:0:
376,64,103772,1,0,0:0:0:0:
80,288,103937,1,0,0:0:0:0:
248,316,104102,2,0,L|244:232,1,50
152,96,104266,2,0,L|152:156,1,50
364,192,104431,6,0,L|304:192,1,50
156,264,104596,2,0,L|168:316,1,50
260,72,104761,2,0,L|236:132,1,50
56,136,104926,2,0,L|60:192,1,50
236,208,105090,2,0,L|248:268,1,50
376,272,105255,2,0,L|352:316,1,50
456,144,105420,2,0,L|468:80,1,50
348,72,105585,1,0,0:0:0:0:
308,76,105667,1,0,0:0:0:0:
268,76,105750,1,0,0:0:0:0:
232,64,105832,1,0,0:0:0:0:
200,40,105914,1,0,0:0:0:0:
168,64,105997,1,0,0:0:0:0:
148,100,106079,1,0,0:0:0:0:
140,140,106161,1,0,0:0:0:0:
140,180,106244,1,0,0:0:0:0:
160,212,106326,1,0,0:0:0:0:
200,220,106409,1,0,0:0:0:0:
236,200,106491,1,0,0:0:0:0:
248,160,106573,1,0,0:0:0:0:
224,128,106656,1,0,0:0:0:0:
188,112,106738,1,0,0:0:0:0:
148,116,106821,1,0,0:0:0:0:
112,132,106903,1,0,0:0:0:0:
88,164,106985,1,0,0:0:0:0:
76,204,107068,1,0,0:0:0:0:
76,244,107150,1,0,0:0:0:0:
84,284,107233,1,0,0:0:0:0:
108,316,107315,1,0,0:0:0:0:
144,328,107397,1,0,0:0:0:0:
184,328,107480,1,0,0:0:0:0:
224,320,107562,1,0,0:0:0:0:
264,316,107645,1,0,0:0:0:0:
304,316,107727,1,0,0:0:0:0:
344,320,107809,1,0,0:0:0:0:
384,312,107892,1,0,0:0:0:0:
416,288,107974,1,0,0:0:0:0:
432,252,108057,1,0,0:0:0:0:
424,212,108139,1,0,0:0:0:0:
396,184,108221,1,0,0:0:0:0:
356,172,108304,1,0,0:0:0:0:
320,184,108386,1,0,0:0:0:0:
296,216,108469,1,0,0:0:0:0:
264,240,108551,1,0,0:0:0:0:
224,244,108633,1,0,0:0:0:0:
184,232,108716,1,0,0:0:0:0:
164,200,108798,1,0,0:0:0:0:
164,160,108881,1,0,0:0:0:0:
188,128,108963,1,0,0:0:0:0:
224,112,109045,1,0,0:0:0:0:
248,80,109128,1,0,0:0:0:0:
216,56,109210,1,0,0:0:0:0:
176,52,109292,1,0,0:0:0:0:
136,64,109375,1,0,0:0:0:0:
108,92,109457,1,0,0:0:0:0:
92,128,109540,1,0,0:0:0:0:
88,168,109622,1,0,0:0:0:0:
92,208,109704,1,0,0:0:0:0:
100,248,109787,1,0,0:0:0:0:
124,280,109869,1,0,0:0:0:0:
160,300,109952,1,0,0:0:0:0:
200,308,110034,1,0,0:0:0:0:
240,304,110116,1,0,0:0:0:0:
280,292,110199,1,0,0:0:0:0:
312,268,110281,1,0,0:0:0:0:
332,232,110364,1,0,0:0:0:0:
336,192,110446,1,0,0:0:0:0:
316,156,110528,1,0,0:0:0:0:
288,128,110611,1,0,0:0:0:0:
256,104,110693,1,0,0:0:0:0:
224,112,110776,1,0,0:0:0:0:
204,144,110858,1,0,0:0:0:0:
224,180,110940,1,0,0:0:0:0:
264,188,111023,1,0,0:0:0:0:
304,180,111105,1,0,0:0:0:0:
344,172,111188,1,0,0:0:0:0:
384,168,111270,1,0,0:0:0:0:
424,164,111352,1,0,0:0:0:0:
464,172,111435,1,0,0:0:0:0:
500,188,111517,2,0,L|484:240,1,50
408,320,111682,2,0,L|352:336,1,50
172,328,111847,2,0,L|108:328,1,50
56,184,112012,2,0,L|136:172,1,50
368,52,112176,2,0,L|352:124,1,50
320,236,112341,2,0,B|216:172|292:20|296:20|216:120|136:68|136:68|204:160|204:160|208:268|160:288|88:208|96:168|104:128|80:40|24:72|0:152|20:228|32:288|56:328|92:352|172:356|228:348|228:348|340:328|424:288|424:224|392:192|392:192|356:148|352:24|352:24|448:60|520:12|520:12|500:88|444:112|500:184|484:272|496:340|352:388,1,2100
248,272,115966,6,0,B|248:24|248:24|184:28|184:28|192:280|192:280|128:260|128:12|28:96|28:96|24:288|112:352|192:356|452:356,1,1400
472,248,118438,2,0,L|408:256,1,50
416,88,118603,2,0,L|368:120,1,50
256,112,118768,2,0,L|248:188,1,50
248,264,118933,2,0,L|188:268,1,50
72,144,119097,2,0,L|12:148,1,50
56,320,119262,2,0,L|48:264,1,50
136,68,119427,2,0,L|136:140,1,50
352,200,119592,2,0,L|344:256,1,50,0|0,0:0|0:0,0:0:0:0:
256,336,119757,5,0,0:0:0:0:
252,176,119921,1,0,0:0:0:0:
256,336,120086,1,0,0:0:0:0:
252,176,120251,1,0,0:0:0:0:
256,336,120416,1,0,0:0:0:0:
252,176,120581,1,0,0:0:0:0:
120,192,120745,1,0,0:0:0:0:
256,264,120910,1,0,0:0:0:0:
328,152,121075,1,0,0:0:0:0:
204,84,121240,1,0,0:0:0:0:
176,256,121405,1,0,0:0:0:0:
72,144,121569,1,0,0:0:0:0:
96,304,121734,1,0,0:0:0:0:
304,292,121899,1,0,0:0:0:0:
428,196,122064,1,0,0:0:0:0:
236,176,122228,1,0,0:0:0:0:
204,336,122393,1,0,0:0:0:0:
368,332,122558,1,0,0:0:0:0:
320,72,122723,1,0,0:0:0:0:
228,144,122888,1,0,0:0:0:0:
332,200,123052,1,0,0:0:0:0:
200,244,123217,1,0,0:0:0:0:
156,104,123382,1,0,0:0:0:0:
108,224,123547,1,0,0:0:0:0:
280,280,123712,1,0,0:0:0:0:
260,68,123876,2,0,L|260:16,1,50
336,88,124041,2,0,L|336:36,1,50
412,108,124206,2,0,L|412:56,1,50
260,200,124371,2,0,L|260:148,1,50
336,220,124536,2,0,L|336:168,1,50
412,240,124701,2,0,L|412:188,1,50
260,328,124865,2,0,L|260:276,1,50
336,348,125030,2,0,L|336:296,1,50
412,368,125195,2,0,L|412:316,1,50
180,308,125360,2,0,L|180:360,1,50
104,288,125525,2,0,L|104:340,1,50
28,268,125690,2,0,L|28:320,1,50
180,176,125855,2,0,L|180:228,1,50
104,156,126020,2,0,L|104:208,1,50
28,136,126185,2,0,L|28:188,1,50
180,48,126349,2,0,L|180:100,1,50
104,28,126514,2,0,L|104:80,1,50
28,8,126679,2,0,L|28:60,1,50
256,192,126843,6,0,B|284:200|284:200|300:168|240:140|220:152|200:184|196:220|208:248|240:264|280:264|332:248|352:204|360:144|324:92|260:76|188:88|156:140|148:196|164:268|232:308|300:308|368:280|408:212|404:136|368:72|280:40|192:36|136:80|116:144|108:212|124:264|176:328|268:344|368:328|436:256|456:164|420:76|344:24|232:4|136:24|84:88|68:176|84:252|128:328|208:368|352:368|452:328|504:248|492:144|436:52|352:4|220:-8|96:0|32:96|32:208|44:304|92:364|132:360,1,1400
472,324,129314,6,0,B|464:20|464:20|448:348|448:348|424:4|424:4|408:364|408:364|384:8|384:8|372:364|372:364|332:12|332:12|308:376|308:376|276:8|276:8|244:376|244:376|224:4|224:4|184:384|184:384|168:0|168:0|144:384|144:384|120:12|120:12|4:28|4:28|96:48|100:48|-8:84|-8:84|88:92|88:92|-12:128|-12:128|80:144|80:144|-20:176|-20:176|72:192|72:192|-12:224|-12:224|76:236|76:236|-12:280|-12:280|72:280|72:280|-20:336|-20:336|68:356|68:356|92:356,1,6750
120,356,140520,1,0,0:0:0:0:
160,352,140603,1,0,0:0:0:0:
200,348,140685,1,0,0:0:0:0:
240,344,140767,1,0,0:0:0:0:
280,340,140850,1,0,0:0:0:0:
320,336,140932,1,0,0:0:0:0:
360,332,141015,1,0,0:0:0:0:
324,312,141097,1,0,0:0:0:0:
288,300,141179,1,0,0:0:0:0:
248,292,141262,1,0,0:0:0:0:
208,280,141344,1,0,0:0:0:0:
168,272,141427,1,0,0:0:0:0:
132,260,141509,1,0,0:0:0:0:
132,260,141591,1,0,0:0:0:0:
92,248,141674,2,0,P|24:208|232:136,1,500
392,184,142662,2,0,B|292:192|292:192|392:224|392:224|492:184|492:184|376:136|376:136|248:160|248:160|220:236|220:236|380:280|380:284|260:320|260:320|116:264|148:176|148:176|276:68|444:52,1,1400
40,40,145299,6,0,B|56:68|40:168|0:188,1,150
48,120,145629,2,0,P|96:120|132:144,1,87.5
168,72,145958,2,0,P|132:120|116:220,1,150
264,148,146288,6,0,P|196:176|264:208,1,150
288,160,146617,2,0,P|272:216|280:240,1,75
380,168,146947,2,0,L|348:324,1,150
400,168,147277,2,0,P|468:184|396:240,1,200
64,208,147771,2,0,L|32:364,1,150
84,208,148101,2,0,P|152:224|80:280,1,200
256,212,148595,2,0,B|260:276|336:216|336:216|268:360|208:352,1,300
36,188,149254,2,0,B|76:28|76:28|136:200|136:200|188:32,1,500
244,172,150243,2,0,B|328:188|328:188|300:128|216:148|200:196|204:216|208:232|232:248|252:260|284:264|312:260|316:256,1,350
416,204,150902,2,0,B|420:280|424:276|456:216|456:216|460:280|460:280|504:220,1,250
72,40,151561,2,0,B|48:76|56:136|56:136|108:128|156:56|160:56|120:188|88:244|56:264|40:248|8:208|8:204,1,400
184,216,152385,2,0,B|256:228|256:228|256:176|160:172|148:196|140:224|144:260|164:280|188:292|228:296|256:292,1,350
384,216,153044,2,0,B|364:208|332:232|316:256|312:280|328:296|368:304|392:292|408:260|420:208|420:208|408:276|404:304|404:324|408:328,1,350
284,72,153703,2,0,B|264:216|264:216|296:96|296:96|360:80|380:112,1,350
48,344,154363,6,0,L|40:256,1,50
56,340,154527,6,0,L|48:252,1,50
64,336,154692,6,0,L|56:248,1,50
72,332,154857,6,0,L|64:244,1,50
80,328,155022,6,0,L|72:240,1,50
88,324,155186,6,0,L|80:236,1,50
96,320,155351,6,0,L|88:232,1,50
104,316,155516,6,0,L|96:228,1,50
112,312,155682,6,0,L|104:224,1,50
120,308,155846,6,0,L|112:220,1,50
128,304,156011,6,0,L|120:216,1,50
136,300,156176,6,0,L|128:212,1,50
144,296,156341,6,0,L|136:208,1,50
152,292,156505,6,0,L|144:204,1,50
160,288,156670,6,0,L|152:200,1,50
168,284,156835,6,0,L|160:196,1,50
176,280,156999,6,0,L|168:192,1,50
184,276,157163,6,0,L|176:188,1,50
192,272,157328,6,0,L|184:184,1,50
200,268,157493,6,0,L|192:180,1,50
208,264,157658,6,0,L|200:176,1,50
216,260,157822,6,0,L|208:172,1,50
224,256,157987,6,0,L|216:168,1,50
232,252,158152,6,0,L|224:164,1,50
240,248,158317,6,0,L|232:160,1,50
248,244,158482,6,0,L|240:156,1,50
256,240,158647,6,0,L|248:152,1,50
264,236,158812,6,0,L|256:148,1,50
272,232,158976,6,0,L|264:144,1,50
280,228,159141,6,0,L|272:140,1,50
288,224,159306,6,0,L|280:136,1,50
296,220,159471,6,0,L|288:132,1,50
304,216,159636,6,0,L|296:128,1,50
312,212,159801,6,0,L|304:124,1,50
320,208,159966,6,0,L|312:120,1,50
328,204,160130,6,0,L|320:116,1,50
336,200,160295,6,0,L|328:112,1,50
344,196,160460,6,0,L|336:108,1,50
348,192,160625,6,0,L|340:104,1,50
356,188,160790,6,0,L|348:100,1,50
364,184,160955,6,0,L|356:96,1,50
372,180,161120,6,0,L|364:92,1,50
380,176,161284,6,0,L|372:88,1,50
388,172,161449,6,0,L|380:84,1,50
396,168,161614,6,0,L|388:80,1,50
332,52,161778,1,0,0:0:0:0:
296,64,161860,1,0,0:0:0:0:
256,64,161943,1,0,0:0:0:0:
216,60,162025,1,0,0:0:0:0:
176,68,162108,1,0,0:0:0:0:
144,92,162190,1,0,0:0:0:0:
124,124,162272,1,0,0:0:0:0:
116,164,162355,1,0,0:0:0:0:
112,204,162437,1,0,0:0:0:0:
112,244,162520,1,0,0:0:0:0:
116,284,162602,1,0,0:0:0:0:
148,308,162684,1,0,0:0:0:0:
180,284,162767,1,0,0:0:0:0:
216,268,162849,1,0,0:0:0:0:
252,280,162932,1,0,0:0:0:0:
292,292,163014,1,0,0:0:0:0:
328,276,163096,1,0,0:0:0:0:
368,280,163179,1,0,0:0:0:0:
408,284,163261,1,0,0:0:0:0:
428,252,163344,1,0,0:0:0:0:
416,212,163426,1,0,0:0:0:0:
388,184,163508,1,0,0:0:0:0:
348,176,163591,1,0,0:0:0:0:
308,176,163673,1,0,0:0:0:0:
272,196,163756,1,0,0:0:0:0:
232,204,163838,1,0,0:0:0:0:
196,188,163920,1,0,0:0:0:0:
180,152,164003,1,0,0:0:0:0:
204,120,164085,1,0,0:0:0:0:
244,108,164168,1,0,0:0:0:0:
284,104,164250,1,0,0:0:0:0:
324,104,164332,1,0,0:0:0:0:
364,96,164415,1,0,0:0:0:0:
396,76,164497,1,0,0:0:0:0:
368,48,164579,1,0,0:0:0:0:
328,36,164662,1,0,0:0:0:0:
288,32,164744,1,0,0:0:0:0:
248,32,164827,1,0,0:0:0:0:
208,40,164909,1,0,0:0:0:0:
172,52,164991,1,0,0:0:0:0:
136,72,165074,1,0,0:0:0:0:
116,108,165156,1,0,0:0:0:0:
108,148,165239,1,0,0:0:0:0:
108,188,165321,1,0,0:0:0:0:
120,224,165403,1,0,0:0:0:0:
148,252,165486,1,0,0:0:0:0:
180,276,165568,1,0,0:0:0:0:
216,296,165651,1,0,0:0:0:0:
220,336,165733,1,0,0:0:0:0:
188,356,165815,1,0,0:0:0:0:
148,360,165898,1,0,0:0:0:0:
108,352,165980,1,0,0:0:0:0:
76,328,166063,1,0,0:0:0:0:
52,296,166145,1,0,0:0:0:0:
40,256,166227,1,0,0:0:0:0:
32,216,166310,1,0,0:0:0:0:
28,176,166392,1,0,0:0:0:0:
24,136,166475,1,0,0:0:0:0:
28,96,166557,1,0,0:0:0:0:
44,60,166639,1,0,0:0:0:0:
68,28,166722,1,0,0:0:0:0:
108,16,166804,1,0,0:0:0:0:
148,16,166887,1,0,0:0:0:0:
188,20,166969,1,0,0:0:0:0:
228,24,167051,1,0,0:0:0:0:
268,36,167134,1,0,0:0:0:0:
308,40,167216,1,0,0:0:0:0:
308,40,167299,1,0,0:0:0:0:
348,48,167381,2,0,L|328:112,1,50
424,160,167546,2,0,L|356:176,1,50
180,172,167711,6,0,L|240:180,1,50
404,268,167875,2,0,L|348:272,1,50
244,328,168040,2,0,L|192:280,1,50
96,300,168205,2,0,L|100:240,1,50
224,132,168370,2,0,L|212:200,1,50
320,276,168534,2,0,L|312:220,1,50
124,144,168699,2,0,L|136:208,1,50
220,324,168864,2,0,L|212:264,1,50
332,144,169029,2,0,L|324:204,1,50
412,316,169194,2,0,L|412:252,1,50
440,84,169358,2,0,L|372:84,1,50
200,72,169523,2,0,L|272:88,1,50
324,184,169688,2,0,L|244:200,1,50
108,228,169853,2,0,L|160:236,1,50
256,312,170018,2,0,L|196:320,1,50
56,336,170182,6,0,B|48:16|48:16|240:220|240:220|456:4|456:4|456:348,1,1250
112,40,172489,2,0,B|116:296|116:296|128:328|152:336|184:336|184:336|348:336|348:336|376:324|388:304|384:264|384:264|384:24,1,800
160,28,173973,2,0,L|140:328,1,300
184,36,174549,2,0,B|324:24|376:80|364:136|264:172|200:172|168:160|168:160|340:336,1,600
184,328,175785,2,0,B|264:108|264:108|264:156|184:288|272:372,1,500
280,24,176774,1,0,0:0:0:0:
180,128,176939,1,0,0:0:0:0:
384,132,177104,1,0,0:0:0:0:
164,188,177268,1,0,0:0:0:0:
372,224,177433,1,0,0:0:0:0:
160,240,177598,1,0,0:0:0:0:
364,272,177763,1,0,0:0:0:0:
296,120,177927,1,0,0:0:0:0:
224,288,178092,1,0,0:0:0:0:
72,176,178257,1,0,0:0:0:0:
264,200,178422,1,0,0:0:0:0:
288,324,178587,1,0,0:0:0:0:
152,336,178751,1,0,0:0:0:0:
188,112,178916,1,0,0:0:0:0:
380,156,179081,1,0,0:0:0:0:
384,296,179246,1,0,0:0:0:0:
228,248,179411,1,0,0:0:0:0:
304,76,179575,1,0,0:0:0:0:
128,56,179740,1,0,0:0:0:0:
156,256,179905,1,0,0:0:0:0:
316,212,180070,1,0,0:0:0:0:
44,152,180235,2,0,L|56:48,1,100
224,128,180564,2,0,L|216:232,1,100
448,296,180894,2,0,L|344:256,1,100
440,40,181223,2,0,L|336:60,1,100
64,300,181553,2,0,L|192:296,1,100
196,68,181882,2,0,L|224:192,1,100
336,352,182212,2,0,L|264:232,1,100
168,160,182542,5,0,0:0:0:0:
340,160,182706,1,0,0:0:0:0:
168,176,182871,1,0,0:0:0:0:
328,184,183036,1,0,0:0:0:0:
212,272,183201,1,0,0:0:0:0:
252,100,183366,1,0,0:0:0:0:
320,272,183530,1,0,0:0:0:0:
112,168,183695,1,0,0:0:0:0:
396,160,183860,1,0,0:0:0:0:
144,236,184025,1,0,0:0:0:0:
248,56,184189,1,0,0:0:0:0:
380,236,184354,1,0,0:0:0:0:
