osu file format v12

[General]
AudioFilename: Ys 2 - To Make The End Of Battle-S.S.H.mp3
AudioLeadIn: 0
PreviewTime: -1
Countdown: 1
SampleSet: None
StackLeniency: 0.7
Mode: 3
LetterboxInBreaks: 1
SpecialStyle: 0
WidescreenStoryboard: 0

[Editor]
DistanceSpacing: 0.8
BeatDivisor: 4
GridSize: 16

[Metadata]
Title:To Make The End Of Battle
TitleUnicode:To Make The End Of Battle
Artist:S.S.H
ArtistUnicode:S.S.H
Creator:Luyuja
Version:Fever
Source:YS2
Tags:
BeatmapID:361931
BeatmapSetID:146019

[Difficulty]
HPDrainRate:5
CircleSize:8
OverallDifficulty:5
ApproachRate:5
SliderMultiplier:1.4
SliderTickRate:1

[Events]
//Background and Video events
0,0,"1024X768.jpg",0,0
//Break Periods
2,74965,80270
2,194460,200598
//Storyboard Layer 0 (Background)
//Storyboard Layer 1 (Fail)
//Storyboard Layer 2 (Pass)
//Storyboard Layer 3 (Foreground)
//Storyboard Sound Samples
//Background Colour Transformations
3,100,163,162,255

[TimingPoints]
-100,279.459711224965,4,1,0,5,1,0
32299,279.381635313839,4,1,0,100,1,0
81470,278.810408921933,4,1,0,100,1,0
99313,279.589934762349,4,1,0,100,1,0
113851,279.19962773383,4,1,0,100,1,0

[HitObjects]
160,192,2135,1,0,0:0:0:0:
416,192,2275,1,0,0:0:0:0:
160,192,2345,1,0,0:0:0:0:
416,192,2415,1,0,0:0:0:0:
160,192,2554,1,0,0:0:0:0:
416,192,2624,1,0,0:0:0:0:
160,192,2694,1,0,0:0:0:0:
416,192,2834,1,0,0:0:0:0:
160,192,2904,1,0,0:0:0:0:
416,192,2974,1,0,0:0:0:0:
160,192,3113,1,0,0:0:0:0:
416,192,3183,1,0,0:0:0:0:
160,192,3253,1,0,0:0:0:0:
288,192,3393,1,0,0:0:0:0:
288,192,3532,1,0,0:0:0:0:
288,192,3672,1,0,0:0:0:0:
288,192,3812,1,0,0:0:0:0:
288,192,3952,1,0,0:0:0:0:
288,192,4091,1,0,0:0:0:0:
160,192,4231,1,0,0:0:0:0:
288,192,4231,1,0,0:0:0:0:
416,192,4231,1,0,0:0:0:0:
32,192,4231,1,0,0:0:0:0:
96,192,4511,1,0,0:0:0:0:
224,192,4580,1,0,0:0:0:0:
352,192,4650,1,0,0:0:0:0:
480,192,4650,1,0,0:0:0:0:
416,192,4790,1,0,0:0:0:0:
160,192,4790,1,0,0:0:0:0:
288,192,4790,1,0,0:0:0:0:
352,192,4930,1,0,0:0:0:0:
480,192,4930,1,0,0:0:0:0:
352,192,5070,1,0,0:0:0:0:
480,192,5070,1,0,0:0:0:0:
160,192,5209,1,0,0:0:0:0:
288,192,5209,1,0,0:0:0:0:
416,192,5209,1,0,0:0:0:0:
32,192,5209,1,0,0:0:0:0:
224,192,5349,1,0,0:0:0:0:
352,192,5349,1,0,0:0:0:0:
224,192,5489,1,0,0:0:0:0:
352,192,5489,1,0,0:0:0:0:
288,192,5628,1,0,0:0:0:0:
416,192,5628,1,0,0:0:0:0:
224,192,5768,1,0,0:0:0:0:
352,192,5768,1,0,0:0:0:0:
288,192,5908,1,0,0:0:0:0:
416,192,5908,1,0,0:0:0:0:
224,192,6048,1,0,0:0:0:0:
352,192,6048,1,0,0:0:0:0:
224,192,6187,1,0,0:0:0:0:
352,192,6187,1,0,0:0:0:0:
160,192,6327,1,0,0:0:0:0:
288,192,6327,1,0,0:0:0:0:
32,192,6327,1,0,0:0:0:0:
480,192,6327,1,0,0:0:0:0:
160,192,6467,1,0,0:0:0:0:
288,192,6467,1,0,0:0:0:0:
32,192,6467,1,0,0:0:0:0:
480,192,6467,1,0,0:0:0:0:
96,192,6607,1,0,0:0:0:0:
224,192,6607,1,0,0:0:0:0:
96,192,6746,1,0,0:0:0:0:
224,192,6746,1,0,0:0:0:0:
160,192,6886,1,0,0:0:0:0:
32,192,6886,1,0,0:0:0:0:
288,192,6886,1,0,0:0:0:0:
416,192,6886,1,0,0:0:0:0:
224,192,7026,1,0,0:0:0:0:
96,192,7026,1,0,0:0:0:0:
96,192,7165,1,0,0:0:0:0:
224,192,7165,1,0,0:0:0:0:
352,192,7305,1,0,0:0:0:0:
480,192,7305,1,0,0:0:0:0:
224,192,7445,1,0,0:0:0:0:
416,192,7445,1,0,0:0:0:0:
96,192,7445,1,0,0:0:0:0:
32,192,7445,1,0,0:0:0:0:
96,192,7585,1,0,0:0:0:0:
224,192,7585,1,0,0:0:0:0:
416,192,7724,1,0,0:0:0:0:
160,192,7724,1,0,0:0:0:0:
288,192,7724,1,0,0:0:0:0:
224,192,7864,1,0,0:0:0:0:
352,192,7864,1,0,0:0:0:0:
160,192,8004,1,0,0:0:0:0:
288,192,8004,1,0,0:0:0:0:
32,192,8004,1,0,0:0:0:0:
480,192,8004,1,0,0:0:0:0:
416,192,8144,1,0,0:0:0:0:
160,192,8144,1,0,0:0:0:0:
288,192,8423,1,0,0:0:0:0:
288,192,8563,1,0,0:0:0:0:
288,192,8702,1,0,0:0:0:0:
96,192,8842,1,0,0:0:0:0:
224,192,8842,1,0,0:0:0:0:
96,192,8982,1,0,0:0:0:0:
224,192,8982,1,0,0:0:0:0:
32,192,9122,1,0,0:0:0:0:
160,192,9122,1,0,0:0:0:0:
288,192,9122,1,0,0:0:0:0:
416,192,9122,1,0,0:0:0:0:
96,192,9261,1,0,0:0:0:0:
224,192,9261,1,0,0:0:0:0:
96,192,9401,1,0,0:0:0:0:
224,192,9401,1,0,0:0:0:0:
352,192,9541,1,0,0:0:0:0:
480,192,9541,1,0,0:0:0:0:
160,192,9681,1,0,0:0:0:0:
288,192,9681,1,0,0:0:0:0:
32,192,9681,1,0,0:0:0:0:
416,192,9681,1,0,0:0:0:0:
96,192,9820,1,0,0:0:0:0:
224,192,9820,1,0,0:0:0:0:
352,192,9960,1,0,0:0:0:0:
480,192,9960,1,0,0:0:0:0:
96,192,10100,1,0,0:0:0:0:
224,192,10100,1,0,0:0:0:0:
288,192,10240,1,0,0:0:0:0:
416,192,10240,1,0,0:0:0:0:
32,192,10240,1,0,0:0:0:0:
160,192,10240,1,0,0:0:0:0:
96,192,10379,1,0,0:0:0:0:
224,192,10379,1,0,0:0:0:0:
416,192,10519,1,0,0:0:0:0:
288,192,10519,1,0,0:0:0:0:
96,192,10659,1,0,0:0:0:0:
224,192,10659,1,0,0:0:0:0:
160,192,10798,1,0,0:0:0:0:
416,192,10798,1,0,0:0:0:0:
288,192,10798,1,0,0:0:0:0:
480,192,10938,1,0,0:0:0:0:
352,192,10938,1,0,0:0:0:0:
416,192,10938,1,0,0:0:0:0:
416,192,11218,1,0,0:0:0:0:
288,192,11218,1,0,0:0:0:0:
352,192,11218,1,0,0:0:0:0:
160,192,11357,1,0,0:0:0:0:
96,192,11357,1,0,0:0:0:0:
224,192,11357,1,0,0:0:0:0:
480,192,11497,1,0,0:0:0:0:
416,192,11497,1,0,0:0:0:0:
352,192,11497,1,0,0:0:0:0:
160,192,11637,1,0,0:0:0:0:
224,192,11637,1,0,0:0:0:0:
288,192,11637,1,0,0:0:0:0:
416,192,11777,1,0,0:0:0:0:
352,192,11777,1,0,0:0:0:0:
288,192,11777,1,0,0:0:0:0:
352,192,11916,1,0,0:0:0:0:
288,192,11916,1,0,0:0:0:0:
224,192,11916,1,0,0:0:0:0:
288,192,12056,1,0,0:0:0:0:
224,192,12056,1,0,0:0:0:0:
160,192,12056,1,0,0:0:0:0:
224,192,12196,1,0,0:0:0:0:
160,192,12196,1,0,0:0:0:0:
96,192,12196,1,0,0:0:0:0:
416,192,12196,1,0,0:0:0:0:
416,192,12335,1,0,0:0:0:0:
288,192,12405,1,0,0:0:0:0:
416,192,12475,1,0,0:0:0:0:
160,192,12615,1,0,0:0:0:0:
288,192,12685,1,0,0:0:0:0:
160,192,12755,1,0,0:0:0:0:
480,192,12755,1,0,0:0:0:0:
352,192,12825,1,0,0:0:0:0:
224,192,12894,1,0,0:0:0:0:
96,192,12964,1,0,0:0:0:0:
288,192,13034,1,0,0:0:0:0:
288,192,13174,1,0,0:0:0:0:
288,192,13314,1,0,0:0:0:0:
416,192,13453,1,0,0:0:0:0:
352,192,13523,1,0,0:0:0:0:
160,192,13593,1,0,0:0:0:0:
96,192,13663,1,0,0:0:0:0:
288,192,13733,1,0,0:0:0:0:
288,192,13872,1,0,0:0:0:0:
288,192,14012,1,0,0:0:0:0:
288,192,14152,1,0,0:0:0:0:
352,192,14292,1,0,0:0:0:0:
160,192,14292,128,0,14571:0:0:0:0:
416,192,14292,128,0,14571:0:0:0:0:
32,192,14292,1,0,0:0:0:0:
352,192,14571,1,0,0:0:0:0:
416,192,14711,1,0,0:0:0:0:
288,192,14711,1,0,0:0:0:0:
480,192,14711,1,0,0:0:0:0:
160,192,14851,1,0,0:0:0:0:
416,192,14990,1,0,0:0:0:0:
288,192,14990,1,0,0:0:0:0:
96,192,15130,1,0,0:0:0:0:
224,192,15130,1,0,0:0:0:0:
416,192,15270,1,0,0:0:0:0:
224,192,15270,1,0,0:0:0:0:
480,192,16667,1,0,0:0:0:0:
416,192,17505,1,0,0:0:0:0:
480,192,17785,5,0,0:0:0:0:
480,192,18064,1,0,0:0:0:0:
480,192,18344,1,0,0:0:0:0:
480,192,18623,1,0,0:0:0:0:
416,192,18903,5,0,0:0:0:0:
480,192,18903,1,0,0:0:0:0:
480,192,19182,1,0,0:0:0:0:
480,192,19462,1,0,0:0:0:0:
288,192,19741,1,0,0:0:0:0:
416,192,20021,1,0,0:0:0:0:
416,192,20300,1,0,0:0:0:0:
416,192,20580,1,0,0:0:0:0:
416,192,20859,1,0,0:0:0:0:
416,192,21138,1,0,0:0:0:0:
416,192,21418,1,0,0:0:0:0:
416,192,21697,1,0,0:0:0:0:
416,192,21977,1,0,0:0:0:0:
416,192,22256,1,0,0:0:0:0:
416,192,22536,1,0,0:0:0:0:
416,192,22815,1,0,0:0:0:0:
416,192,23095,1,0,0:0:0:0:
416,192,23374,1,0,0:0:0:0:
416,192,24212,1,0,0:0:0:0:
416,192,25330,1,0,0:0:0:0:
416,192,26448,1,0,0:0:0:0:
416,192,27845,1,0,0:0:0:0:
352,192,28824,1,0,0:0:0:0:
416,192,28893,1,0,0:0:0:0:
352,192,28963,1,0,0:0:0:0:
416,192,29941,1,0,0:0:0:0:
352,192,30011,1,0,0:0:0:0:
480,192,30081,1,0,0:0:0:0:
416,192,31199,1,0,0:0:0:0:
416,192,32299,1,0,0:0:0:0:
352,192,32438,1,0,0:0:0:0:
288,192,32578,1,0,0:0:0:0:
224,192,32718,1,0,0:0:0:0:
416,192,33416,1,0,0:0:0:0:
352,192,34534,1,0,0:0:0:0:
416,192,35651,1,0,0:0:0:0:
416,192,36769,1,0,0:0:0:0:
416,192,37886,1,0,0:0:0:0:
416,192,39004,1,0,0:0:0:0:
416,192,40121,1,0,0:0:0:0:
416,192,40959,1,0,0:0:0:0:
416,192,42356,1,0,0:0:0:0:
416,192,43474,1,0,0:0:0:0:
416,192,44591,5,0,0:0:0:0:
416,192,45709,5,0,0:0:0:0:
416,192,47944,1,0,0:0:0:0:
416,192,49061,1,0,0:0:0:0:
416,192,50179,1,0,0:0:0:0:
416,192,51296,1,0,0:0:0:0:
416,192,52414,1,0,0:0:0:0:
416,192,53532,1,0,0:0:0:0:
416,192,54649,1,0,0:0:0:0:
416,192,58002,1,0,0:0:0:0:
416,192,59119,1,0,0:0:0:0:
416,192,60237,1,0,0:0:0:0:
416,192,61354,1,0,0:0:0:0:
416,192,62472,1,0,0:0:0:0:
416,192,63589,1,0,0:0:0:0:
416,192,64707,1,0,0:0:0:0:
416,192,65824,1,0,0:0:0:0:
416,192,69177,1,0,0:0:0:0:
416,192,70294,1,0,0:0:0:0:
416,192,71412,1,0,0:0:0:0:
416,192,72529,1,0,0:0:0:0:
416,192,73647,1,0,0:0:0:0:
416,192,74765,1,0,0:0:0:0:
416,192,81470,5,0,0:0:0:0:
288,192,82585,1,0,0:0:0:0:
352,192,83421,1,0,0:0:0:0:
352,192,84536,1,0,0:0:0:0:
352,192,85652,1,0,0:0:0:0:
224,192,86488,1,0,0:0:0:0:
352,192,86767,1,0,0:0:0:0:
416,192,90391,1,0,0:0:0:0:
288,192,94852,1,0,0:0:0:0:
288,192,95689,1,0,0:0:0:0:
416,192,96943,1,0,0:0:0:0:
416,192,98198,1,0,0:0:0:0:
288,192,98616,1,0,0:0:0:0:
352,192,98686,1,0,0:0:0:0:
416,192,98756,1,0,0:0:0:0:
352,192,99313,1,0,0:0:0:0:
416,192,101549,1,0,0:0:0:0:
352,192,101969,1,0,0:0:0:0:
352,192,102108,1,0,0:0:0:0:
352,192,102388,1,0,0:0:0:0:
352,192,102528,1,0,0:0:0:0:
352,192,102807,1,0,0:0:0:0:
352,192,102947,1,0,0:0:0:0:
352,192,103227,1,0,0:0:0:0:
352,192,103367,1,0,0:0:0:0:
352,192,103786,1,0,0:0:0:0:
352,192,106023,1,0,0:0:0:0:
352,192,108259,1,0,0:0:0:0:
416,192,109378,1,0,0:0:0:0:
352,192,110356,1,0,0:0:0:0:
416,192,110426,1,0,0:0:0:0:
480,192,110496,1,0,0:0:0:0:
288,192,112453,1,0,0:0:0:0:
352,192,112523,1,0,0:0:0:0:
416,192,112593,1,0,0:0:0:0:
288,192,112663,1,0,0:0:0:0:
480,192,112733,1,0,0:0:0:0:
480,192,113851,1,0,0:0:0:0:
480,192,117201,1,0,0:0:0:0:
480,192,118318,1,0,0:0:0:0:
480,192,119434,1,0,0:0:0:0:
416,192,120551,1,0,0:0:0:0:
416,192,121668,1,0,0:0:0:0:
416,192,122506,1,0,0:0:0:0:
416,192,123902,1,0,0:0:0:0:
416,192,125018,1,0,0:0:0:0:
416,192,127252,1,0,0:0:0:0:
416,192,131719,1,0,0:0:0:0:
224,192,133674,1,0,0:0:0:0:
288,192,133743,1,0,0:0:0:0:
352,192,133813,1,0,0:0:0:0:
352,192,133883,5,0,0:0:0:0:
416,192,133953,5,0,0:0:0:0:
416,192,135070,5,0,0:0:0:0:
416,192,136186,1,0,0:0:0:0:
416,192,137303,1,0,0:0:0:0:
416,192,140654,1,0,0:0:0:0:
416,192,141770,1,0,0:0:0:0:
416,192,142887,1,0,0:0:0:0:
416,192,145121,1,0,0:0:0:0:
416,192,146238,1,0,0:0:0:0:
416,192,147354,1,0,0:0:0:0:
416,192,148471,1,0,0:0:0:0:
416,192,149588,1,0,0:0:0:0:
416,192,150705,1,0,0:0:0:0:
416,192,151822,1,0,0:0:0:0:
416,192,152938,1,0,0:0:0:0:
416,192,154055,1,0,0:0:0:0:
416,192,155032,1,0,0:0:0:0:
416,192,155312,1,0,0:0:0:0:
416,192,156010,1,0,0:0:0:0:
416,192,156289,1,0,0:0:0:0:
352,192,158522,1,0,0:0:0:0:
352,192,158662,1,0,0:0:0:0:
416,192,162990,1,0,0:0:0:0:
352,192,167457,1,0,0:0:0:0:
480,192,169690,1,0,0:0:0:0:
480,192,170807,1,0,0:0:0:0:
480,192,171924,1,0,0:0:0:0:
480,192,173041,1,0,0:0:0:0:
480,192,174158,1,0,0:0:0:0:
480,192,174995,1,0,0:0:0:0:
480,192,176112,1,0,0:0:0:0:
480,192,177508,1,0,0:0:0:0:
480,192,178485,1,0,0:0:0:0:
480,192,179602,1,0,0:0:0:0:
480,192,180858,1,0,0:0:0:0:
352,192,180998,1,0,0:0:0:0:
416,192,181138,1,0,0:0:0:0:
352,192,181277,1,0,0:0:0:0:
416,192,181417,1,0,0:0:0:0:
352,192,181556,1,0,0:0:0:0:
416,192,181696,1,0,0:0:0:0:
224,192,181836,1,0,0:0:0:0:
416,192,181975,1,0,0:0:0:0:
224,192,185326,1,0,0:0:0:0:
480,192,189793,1,0,0:0:0:0:
480,192,194260,1,0,0:0:0:0:
480,192,201798,5,0,0:0:0:0:
480,192,205428,1,0,0:0:0:0:
480,192,205847,1,0,0:0:0:0:
