osu file format v12

[General]
AudioFilename: Ys 2 - To Make The End Of Battle-S.S.H.mp3
AudioLeadIn: 0
PreviewTime: -1
Countdown: 1
SampleSet: Normal
StackLeniency: 0.7
Mode: 3
LetterboxInBreaks: 1
SpecialStyle: 0
WidescreenStoryboard: 1

[Editor]
DistanceSpacing: 0.8
BeatDivisor: 4
GridSize: 16

[Metadata]
Title:To Make The End Of Battle
TitleUnicode:To Make The End Of Battle
Artist:S.S.H
ArtistUnicode:S.S.H
Creator:Luyuja
Version:F
Source:YS2
Tags:
BeatmapID:361930
BeatmapSetID:146019

[Difficulty]
HPDrainRate:5
CircleSize:4
OverallDifficulty:5
ApproachRate:5
SliderMultiplier:1.4
SliderTickRate:1

[Events]
//Background and Video events
0,0,"1024X768.jpg",0,0
//Break Periods
//Storyboard Layer 0 (Background)
//Storyboard Layer 1 (Fail)
//Storyboard Layer 2 (Pass)
//Storyboard Layer 3 (Foreground)
//Storyboard Sound Samples
//Background Colour Transformations
3,100,163,162,255

[TimingPoints]
-100,279.459711224965,4,1,0,5,1,0
32299,279.381635313839,4,1,0,5,1,0
81470,278.810408921933,4,1,0,5,1,0
99313,279.589934762349,4,1,0,5,1,0
113851,279.19962773383,4,1,0,5,1,0

[HitObjects]
64,192,2135,1,0,0:0:0:0:
448,192,2275,1,0,0:0:0:0:
64,192,2345,1,0,0:0:0:0:
448,192,2415,1,0,0:0:0:0:
64,192,2554,1,0,0:0:0:0:
448,192,2624,1,0,0:0:0:0:
64,192,2694,1,0,0:0:0:0:
448,192,2834,1,0,0:0:0:0:
64,192,2904,1,0,0:0:0:0:
448,192,2974,1,0,0:0:0:0:
64,192,3113,1,0,0:0:0:0:
448,192,3183,1,0,0:0:0:0:
64,192,3253,1,0,0:0:0:0:
448,192,3393,1,0,0:0:0:0:
448,192,3532,1,0,0:0:0:0:
448,192,3672,1,0,0:0:0:0:
448,192,3812,1,0,0:0:0:0:
448,192,3952,1,0,0:0:0:0:
448,192,4091,1,0,0:0:0:0:
64,192,4231,1,0,0:0:0:0:
320,192,4231,1,0,0:0:0:0:
448,192,4511,1,0,0:0:0:0:
192,192,4511,1,0,0:0:0:0:
320,192,4650,1,0,0:0:0:0:
192,192,4790,1,0,0:0:0:0:
64,192,4930,1,0,0:0:0:0:
448,192,5070,1,0,0:0:0:0:
64,192,5209,1,0,0:0:0:0:
320,192,5209,1,0,0:0:0:0:
448,192,5209,1,0,0:0:0:0:
64,192,5349,1,0,0:0:0:0:
320,192,5489,1,0,0:0:0:0:
64,192,5628,1,0,0:0:0:0:
320,192,5768,1,0,0:0:0:0:
448,192,5768,1,0,0:0:0:0:
192,192,5768,1,0,0:0:0:0:
64,192,5908,1,0,0:0:0:0:
320,192,6048,1,0,0:0:0:0:
448,192,6187,128,0,6467:0:0:0:0:
192,192,6327,1,0,0:0:0:0:
320,192,6327,1,0,0:0:0:0:
192,192,6467,1,0,0:0:0:0:
320,192,6467,1,0,0:0:0:0:
64,192,6607,1,0,0:0:0:0:
64,192,6746,1,0,0:0:0:0:
448,192,6886,1,0,0:0:0:0:
320,192,6886,1,0,0:0:0:0:
192,192,6886,1,0,0:0:0:0:
64,192,7026,1,0,0:0:0:0:
64,192,7165,1,0,0:0:0:0:
320,192,7305,1,0,0:0:0:0:
64,192,7445,1,0,0:0:0:0:
448,192,7445,1,0,0:0:0:0:
320,192,7445,1,0,0:0:0:0:
64,192,7585,1,0,0:0:0:0:
320,192,7724,1,0,0:0:0:0:
64,192,7864,1,0,0:0:0:0:
448,192,8004,1,0,0:0:0:0:
320,192,8004,1,0,0:0:0:0:
192,192,8004,1,0,0:0:0:0:
64,192,8144,128,0,8702:0:0:0:0:
448,192,8423,1,0,0:0:0:0:
448,192,8563,1,0,0:0:0:0:
448,192,8702,1,0,0:0:0:0:
64,192,8842,1,0,0:0:0:0:
64,192,8982,1,0,0:0:0:0:
192,192,9122,1,0,0:0:0:0:
448,192,9122,1,0,0:0:0:0:
320,192,9122,1,0,0:0:0:0:
64,192,9261,1,0,0:0:0:0:
64,192,9401,1,0,0:0:0:0:
320,192,9541,1,0,0:0:0:0:
64,192,9681,1,0,0:0:0:0:
448,192,9681,1,0,0:0:0:0:
192,192,9681,1,0,0:0:0:0:
320,192,9820,1,0,0:0:0:0:
64,192,9960,1,0,0:0:0:0:
64,192,10100,1,0,0:0:0:0:
320,192,10240,1,0,0:0:0:0:
448,192,10240,1,0,0:0:0:0:
192,192,10240,1,0,0:0:0:0:
64,192,10379,1,0,0:0:0:0:
192,192,10519,1,0,0:0:0:0:
320,192,10659,128,0,10938:0:0:0:0:
192,192,10798,1,0,0:0:0:0:
64,192,10938,128,0,11218:0:0:0:0:
448,192,10938,1,0,0:0:0:0:
320,192,11218,128,0,11357:0:0:0:0:
448,192,11218,1,0,0:0:0:0:
192,192,11357,128,0,11497:0:0:0:0:
448,192,11357,1,0,0:0:0:0:
64,192,11497,128,0,11637:0:0:0:0:
320,192,11497,1,0,0:0:0:0:
448,192,11637,128,0,11777:0:0:0:0:
192,192,11637,1,0,0:0:0:0:
320,192,11777,128,0,11916:0:0:0:0:
64,192,11777,1,0,0:0:0:0:
192,192,11916,128,0,12056:0:0:0:0:
448,192,11916,1,0,0:0:0:0:
320,192,12056,1,0,0:0:0:0:
64,192,12056,128,0,14152:0:0:0:0:
448,192,12056,128,0,14152:0:0:0:0:
320,192,12335,1,0,0:0:0:0:
192,192,12405,1,0,0:0:0:0:
320,192,12475,1,0,0:0:0:0:
192,192,12615,1,0,0:0:0:0:
320,192,12685,1,0,0:0:0:0:
192,192,12755,1,0,0:0:0:0:
320,192,12825,1,0,0:0:0:0:
192,192,12894,1,0,0:0:0:0:
320,192,12964,1,0,0:0:0:0:
192,192,13034,1,0,0:0:0:0:
320,192,13174,1,0,0:0:0:0:
192,192,13314,1,0,0:0:0:0:
320,192,13453,1,0,0:0:0:0:
192,192,13523,1,0,0:0:0:0:
320,192,13593,1,0,0:0:0:0:
192,192,13663,1,0,0:0:0:0:
320,192,13733,1,0,0:0:0:0:
192,192,13872,1,0,0:0:0:0:
320,192,14012,1,0,0:0:0:0:
192,192,14152,1,0,0:0:0:0:
320,192,14292,1,0,0:0:0:0:
448,192,14292,128,0,14711:0:0:0:0:
64,192,14571,1,0,0:0:0:0:
320,192,14711,1,0,0:0:0:0:
192,192,14851,1,0,0:0:0:0:
448,192,14990,1,0,0:0:0:0:
320,192,14990,1,0,0:0:0:0:
192,192,15130,1,0,0:0:0:0:
320,192,15130,1,0,0:0:0:0:
64,192,15270,1,0,0:0:0:0:
320,192,15410,128,0,15689:0:0:0:0:
192,192,15410,1,0,0:0:0:0:
448,192,15689,1,0,0:0:0:0:
192,192,15689,1,0,0:0:0:0:
64,192,15829,1,0,0:0:0:0:
320,192,15829,1,0,0:0:0:0:
448,192,15968,128,0,16248:0:0:0:0:
192,192,16108,1,0,0:0:0:0:
192,192,16248,1,0,0:0:0:0:
64,192,16388,1,0,0:0:0:0:
320,192,16388,1,0,0:0:0:0:
192,192,16527,1,0,0:0:0:0:
64,192,16667,1,0,0:0:0:0:
192,192,16737,1,0,0:0:0:0:
320,192,16807,1,0,0:0:0:0:
192,192,16877,1,0,0:0:0:0:
320,192,16947,1,0,0:0:0:0:
64,192,16947,1,0,0:0:0:0:
448,192,17016,1,0,0:0:0:0:
64,192,17086,1,0,0:0:0:0:
192,192,17156,1,0,0:0:0:0:
448,192,17226,1,0,0:0:0:0:
64,192,17296,1,0,0:0:0:0:
320,192,17366,1,0,0:0:0:0:
448,192,17436,1,0,0:0:0:0:
320,192,17505,1,0,0:0:0:0:
64,192,17505,1,0,0:0:0:0:
192,192,17575,1,0,0:0:0:0:
448,192,17645,1,0,0:0:0:0:
192,192,17715,1,0,0:0:0:0:
320,192,17785,1,0,0:0:0:0:
448,192,17855,1,0,0:0:0:0:
64,192,17925,1,0,0:0:0:0:
320,192,17995,1,0,0:0:0:0:
64,192,18064,1,0,0:0:0:0:
448,192,18064,1,0,0:0:0:0:
192,192,18134,1,0,0:0:0:0:
320,192,18204,1,0,0:0:0:0:
448,192,18274,1,0,0:0:0:0:
64,192,18344,1,0,0:0:0:0:
192,192,18414,1,0,0:0:0:0:
320,192,18484,1,0,0:0:0:0:
192,192,18553,1,0,0:0:0:0:
320,192,18623,1,0,0:0:0:0:
448,192,18693,1,0,0:0:0:0:
192,192,18763,1,0,0:0:0:0:
320,192,18833,1,0,0:0:0:0:
448,192,18903,1,0,0:0:0:0:
320,192,19042,1,0,0:0:0:0:
192,192,19112,1,0,0:0:0:0:
64,192,19182,1,0,0:0:0:0:
448,192,19182,1,0,0:0:0:0:
192,192,19322,1,0,0:0:0:0:
448,192,19462,1,0,0:0:0:0:
320,192,19532,1,0,0:0:0:0:
192,192,19601,1,0,0:0:0:0:
448,192,19741,1,0,0:0:0:0:
64,192,19741,1,0,0:0:0:0:
320,192,19834,1,0,0:0:0:0:
192,192,19927,1,0,0:0:0:0:
448,192,20021,1,0,0:0:0:0:
192,192,20114,1,0,0:0:0:0:
64,192,20207,1,0,0:0:0:0:
320,192,20300,1,0,0:0:0:0:
448,192,20300,1,0,0:0:0:0:
192,192,20393,1,0,0:0:0:0:
64,192,20486,1,0,0:0:0:0:
448,192,20580,1,0,0:0:0:0:
192,192,20789,1,0,0:0:0:0:
64,192,20859,1,0,0:0:0:0:
320,192,20999,1,0,0:0:0:0:
192,192,21138,1,0,0:0:0:0:
448,192,21138,1,0,0:0:0:0:
64,192,21208,1,0,0:0:0:0:
192,192,21278,1,0,0:0:0:0:
320,192,21348,1,0,0:0:0:0:
192,192,21418,1,0,0:0:0:0:
448,192,21418,1,0,0:0:0:0:
320,192,21488,1,0,0:0:0:0:
64,192,21558,1,0,0:0:0:0:
192,192,21627,1,0,0:0:0:0:
320,192,21697,1,0,0:0:0:0:
448,192,21767,1,0,0:0:0:0:
64,192,21837,1,0,0:0:0:0:
192,192,21907,1,0,0:0:0:0:
448,192,21977,1,0,0:0:0:0:
64,192,21977,1,0,0:0:0:0:
320,192,22047,1,0,0:0:0:0:
192,192,22117,1,0,0:0:0:0:
320,192,22186,1,0,0:0:0:0:
64,192,22256,1,0,0:0:0:0:
448,192,22256,1,0,0:0:0:0:
192,192,22326,1,0,0:0:0:0:
320,192,22396,1,0,0:0:0:0:
192,192,22466,1,0,0:0:0:0:
448,192,22536,1,0,0:0:0:0:
64,192,22536,1,0,0:0:0:0:
320,192,22629,1,0,0:0:0:0:
192,192,22722,1,0,0:0:0:0:
448,192,22815,1,0,0:0:0:0:
320,192,22908,1,0,0:0:0:0:
192,192,23002,1,0,0:0:0:0:
64,192,23095,1,0,0:0:0:0:
448,192,23095,1,0,0:0:0:0:
192,192,23188,1,0,0:0:0:0:
64,192,23281,1,0,0:0:0:0:
448,192,23374,1,0,0:0:0:0:
320,192,23374,1,0,0:0:0:0:
192,192,23514,1,0,0:0:0:0:
320,192,23514,1,0,0:0:0:0:
64,192,23654,1,0,0:0:0:0:
192,192,23793,1,0,0:0:0:0:
320,192,23793,1,0,0:0:0:0:
192,192,24073,1,0,0:0:0:0:
448,192,24073,1,0,0:0:0:0:
64,192,24212,1,0,0:0:0:0:
192,192,24352,1,0,0:0:0:0:
320,192,24352,1,0,0:0:0:0:
448,192,24632,1,0,0:0:0:0:
320,192,24632,1,0,0:0:0:0:
64,192,24771,1,0,0:0:0:0:
192,192,24771,1,0,0:0:0:0:
320,192,24771,1,0,0:0:0:0:
192,192,24911,1,0,0:0:0:0:
64,192,24911,1,0,0:0:0:0:
192,192,25191,1,0,0:0:0:0:
320,192,25191,1,0,0:0:0:0:
64,192,25330,1,0,0:0:0:0:
320,192,25330,1,0,0:0:0:0:
448,192,25330,1,0,0:0:0:0:
448,192,25610,1,0,0:0:0:0:
320,192,25680,1,0,0:0:0:0:
192,192,25750,1,0,0:0:0:0:
320,192,25819,1,0,0:0:0:0:
192,192,25889,1,0,0:0:0:0:
448,192,25889,1,0,0:0:0:0:
64,192,25959,1,0,0:0:0:0:
448,192,26029,1,0,0:0:0:0:
320,192,26099,1,0,0:0:0:0:
192,192,26169,1,0,0:0:0:0:
320,192,26239,1,0,0:0:0:0:
192,192,26308,1,0,0:0:0:0:
64,192,26378,1,0,0:0:0:0:
320,192,26448,1,0,0:0:0:0:
192,192,26518,1,0,0:0:0:0:
64,192,26588,1,0,0:0:0:0:
448,192,26588,1,0,0:0:0:0:
320,192,26658,1,0,0:0:0:0:
64,192,26728,1,0,0:0:0:0:
192,192,26797,1,0,0:0:0:0:
448,192,26867,1,0,0:0:0:0:
320,192,26937,1,0,0:0:0:0:
192,192,27007,1,0,0:0:0:0:
448,192,27007,1,0,0:0:0:0:
320,192,27077,1,0,0:0:0:0:
192,192,27147,1,0,0:0:0:0:
64,192,27217,1,0,0:0:0:0:
448,192,27287,1,0,0:0:0:0:
320,192,27356,1,0,0:0:0:0:
192,192,27426,1,0,0:0:0:0:
64,192,27496,1,0,0:0:0:0:
320,192,27566,1,0,0:0:0:0:
448,192,27566,1,0,0:0:0:0:
64,192,27636,1,0,0:0:0:0:
192,192,27706,1,0,0:0:0:0:
320,192,27776,1,0,0:0:0:0:
448,192,27845,128,0,28265:0:0:0:0:
64,192,28125,1,0,0:0:0:0:
320,192,28265,1,0,0:0:0:0:
448,192,28335,1,0,0:0:0:0:
320,192,28404,128,0,28824:0:0:0:0:
64,192,28684,1,0,0:0:0:0:
192,192,28824,1,0,0:0:0:0:
320,192,28893,1,0,0:0:0:0:
192,192,28963,128,0,29382:0:0:0:0:
448,192,29243,1,0,0:0:0:0:
64,192,29382,1,0,0:0:0:0:
192,192,29452,1,0,0:0:0:0:
64,192,29522,128,0,29941:0:0:0:0:
448,192,29802,1,0,0:0:0:0:
320,192,29941,1,0,0:0:0:0:
192,192,30011,1,0,0:0:0:0:
320,192,30081,128,0,31199:0:0:0:0:
64,192,30361,1,0,0:0:0:0:
64,192,30920,1,0,0:0:0:0:
64,192,31199,1,0,0:0:0:0:
64,192,31339,1,0,0:0:0:0:
64,192,31478,1,0,0:0:0:0:
64,192,31618,1,0,0:0:0:0:
64,192,31758,1,0,0:0:0:0:
64,192,31898,1,0,0:0:0:0:
64,192,32037,1,0,0:0:0:0:
64,192,32177,1,0,0:0:0:0:
64,192,32299,1,0,0:0:0:0:
192,192,32299,1,0,0:0:0:0:
192,192,32438,1,0,0:0:0:0:
320,192,32438,1,0,0:0:0:0:
64,192,32578,1,0,0:0:0:0:
320,192,32578,1,0,0:0:0:0:
320,192,32718,1,0,0:0:0:0:
448,192,32718,128,0,34534:0:0:0:0:
64,192,33416,1,0,0:0:0:0:
192,192,33556,1,0,0:0:0:0:
320,192,33695,1,0,0:0:0:0:
192,192,34534,1,0,0:0:0:0:
448,192,34603,1,0,0:0:0:0:
192,192,34673,1,0,0:0:0:0:
64,192,34743,1,0,0:0:0:0:
448,192,34813,1,0,0:0:0:0:
320,192,34883,1,0,0:0:0:0:
192,192,34953,1,0,0:0:0:0:
320,192,35022,1,0,0:0:0:0:
64,192,35092,1,0,0:0:0:0:
448,192,35162,1,0,0:0:0:0:
192,192,35232,1,0,0:0:0:0:
320,192,35302,1,0,0:0:0:0:
64,192,35372,1,0,0:0:0:0:
320,192,35442,1,0,0:0:0:0:
192,192,35511,1,0,0:0:0:0:
64,192,35581,1,0,0:0:0:0:
192,192,35651,1,0,0:0:0:0:
448,192,35721,1,0,0:0:0:0:
192,192,35791,1,0,0:0:0:0:
320,192,35861,1,0,0:0:0:0:
448,192,35930,1,0,0:0:0:0:
320,192,36000,1,0,0:0:0:0:
192,192,36070,1,0,0:0:0:0:
64,192,36140,1,0,0:0:0:0:
192,192,36210,1,0,0:0:0:0:
320,192,36280,1,0,0:0:0:0:
448,192,36350,1,0,0:0:0:0:
64,192,36419,1,0,0:0:0:0:
192,192,36489,128,0,39004:0:0:0:0:
448,192,36769,128,0,36908:0:0:0:0:
320,192,36908,128,0,37048:0:0:0:0:
448,192,37048,128,0,37188:0:0:0:0:
64,192,37188,128,0,37327:0:0:0:0:
320,192,37327,128,0,37467:0:0:0:0:
64,192,37467,128,0,37607:0:0:0:0:
448,192,37607,128,0,37746:0:0:0:0:
320,192,37746,128,0,37886:0:0:0:0:
448,192,37886,128,0,38026:0:0:0:0:
64,192,38026,128,0,38166:0:0:0:0:
448,192,38166,128,0,38305:0:0:0:0:
320,192,38305,128,0,38445:0:0:0:0:
448,192,38445,128,0,38585:0:0:0:0:
64,192,38585,128,0,38724:0:0:0:0:
320,192,38724,128,0,38864:0:0:0:0:
64,192,38864,128,0,39004:0:0:0:0:
320,192,39004,1,0,0:0:0:0:
448,192,39074,1,0,0:0:0:0:
64,192,39143,1,0,0:0:0:0:
192,192,39213,1,0,0:0:0:0:
64,192,39283,1,0,0:0:0:0:
192,192,39353,1,0,0:0:0:0:
320,192,39423,1,0,0:0:0:0:
64,192,39423,1,0,0:0:0:0:
448,192,39493,1,0,0:0:0:0:
320,192,39562,1,0,0:0:0:0:
448,192,39632,1,0,0:0:0:0:
192,192,39702,1,0,0:0:0:0:
64,192,39702,1,0,0:0:0:0:
320,192,39772,1,0,0:0:0:0:
192,192,39842,1,0,0:0:0:0:
320,192,39912,1,0,0:0:0:0:
448,192,39981,1,0,0:0:0:0:
320,192,40121,1,0,0:0:0:0:
64,192,40121,1,0,0:0:0:0:
192,192,40214,1,0,0:0:0:0:
320,192,40261,1,0,0:0:0:0:
448,192,40261,1,0,0:0:0:0:
64,192,40307,1,0,0:0:0:0:
448,192,40401,1,0,0:0:0:0:
192,192,40494,1,0,0:0:0:0:
320,192,40540,1,0,0:0:0:0:
448,192,40540,1,0,0:0:0:0:
64,192,40587,1,0,0:0:0:0:
448,192,40680,1,0,0:0:0:0:
320,192,40773,1,0,0:0:0:0:
448,192,40820,1,0,0:0:0:0:
192,192,40820,1,0,0:0:0:0:
64,192,40866,1,0,0:0:0:0:
320,192,40959,1,0,0:0:0:0:
192,192,41052,1,0,0:0:0:0:
320,192,41099,1,0,0:0:0:0:
448,192,41099,1,0,0:0:0:0:
64,192,41146,1,0,0:0:0:0:
64,192,41239,128,0,42077:0:0:0:0:
192,192,42077,128,0,42217:0:0:0:0:
320,192,42217,128,0,42356:0:0:0:0:
448,192,42356,128,0,43194:0:0:0:0:
64,192,43194,128,0,43334:0:0:0:0:
192,192,43334,128,0,43474:0:0:0:0:
320,192,43474,128,0,43613:0:0:0:0:
192,192,43613,128,0,43753:0:0:0:0:
64,192,43753,128,0,43893:0:0:0:0:
192,192,43893,128,0,44033:0:0:0:0:
320,192,44033,128,0,44172:0:0:0:0:
448,192,44172,128,0,44312:0:0:0:0:
192,192,44312,128,0,44452:0:0:0:0:
320,192,44452,128,0,44591:0:0:0:0:
448,192,44591,128,0,45150:0:0:0:0:
64,192,44591,1,0,0:0:0:0:
192,192,44591,1,0,0:0:0:0:
64,192,44731,1,0,0:0:0:0:
192,192,44731,1,0,0:0:0:0:
64,192,44871,1,0,0:0:0:0:
192,192,44871,1,0,0:0:0:0:
192,192,45150,1,0,0:0:0:0:
320,192,45150,1,0,0:0:0:0:
64,192,45290,1,0,0:0:0:0:
320,192,45429,1,0,0:0:0:0:
448,192,45429,1,0,0:0:0:0:
64,192,45569,1,0,0:0:0:0:
448,192,45709,1,0,0:0:0:0:
320,192,45709,1,0,0:0:0:0:
64,192,45709,1,0,0:0:0:0:
320,192,45849,1,0,0:0:0:0:
192,192,45849,1,0,0:0:0:0:
64,192,45988,1,0,0:0:0:0:
192,192,45988,1,0,0:0:0:0:
448,192,45988,1,0,0:0:0:0:
320,192,46128,1,0,0:0:0:0:
64,192,46128,1,0,0:0:0:0:
448,192,46268,1,0,0:0:0:0:
448,192,46407,1,0,0:0:0:0:
192,192,46547,1,0,0:0:0:0:
320,192,46547,1,0,0:0:0:0:
448,192,46687,1,0,0:0:0:0:
64,192,46826,1,0,0:0:0:0:
192,192,46826,128,0,46896:0:0:0:0:
320,192,46826,1,0,0:0:0:0:
448,192,46966,1,0,0:0:0:0:
192,192,47106,1,0,0:0:0:0:
320,192,47106,1,0,0:0:0:0:
64,192,47106,128,0,47176:0:0:0:0:
448,192,47245,1,0,0:0:0:0:
192,192,47385,128,0,47455:0:0:0:0:
320,192,47385,1,0,0:0:0:0:
64,192,47385,1,0,0:0:0:0:
448,192,47525,1,0,0:0:0:0:
64,192,47664,128,0,47734:0:0:0:0:
192,192,47664,1,0,0:0:0:0:
320,192,47664,1,0,0:0:0:0:
448,192,47804,1,0,0:0:0:0:
192,192,47944,1,0,0:0:0:0:
448,192,47944,1,0,0:0:0:0:
320,192,47944,1,0,0:0:0:0:
64,192,48014,1,0,0:0:0:0:
192,192,48084,1,0,0:0:0:0:
320,192,48084,1,0,0:0:0:0:
64,192,48223,1,0,0:0:0:0:
192,192,48223,1,0,0:0:0:0:
448,192,48223,1,0,0:0:0:0:
192,192,48363,1,0,0:0:0:0:
320,192,48363,1,0,0:0:0:0:
64,192,48503,1,0,0:0:0:0:
64,192,48642,1,0,0:0:0:0:
192,192,48782,1,0,0:0:0:0:
320,192,48782,1,0,0:0:0:0:
64,192,48922,1,0,0:0:0:0:
448,192,49061,128,0,49131:0:0:0:0:
192,192,49061,1,0,0:0:0:0:
320,192,49061,1,0,0:0:0:0:
64,192,49201,1,0,0:0:0:0:
320,192,49341,128,0,49411:0:0:0:0:
192,192,49341,1,0,0:0:0:0:
448,192,49341,1,0,0:0:0:0:
64,192,49480,1,0,0:0:0:0:
448,192,49620,128,0,49690:0:0:0:0:
192,192,49620,1,0,0:0:0:0:
320,192,49620,1,0,0:0:0:0:
64,192,49760,1,0,0:0:0:0:
320,192,49760,1,0,0:0:0:0:
320,192,49900,128,0,49969:0:0:0:0:
192,192,49900,1,0,0:0:0:0:
448,192,49900,1,0,0:0:0:0:
64,192,50039,1,0,0:0:0:0:
192,192,50039,1,0,0:0:0:0:
192,192,50179,1,0,0:0:0:0:
448,192,50179,1,0,0:0:0:0:
320,192,50179,1,0,0:0:0:0:
64,192,50458,1,0,0:0:0:0:
192,192,50598,1,0,0:0:0:0:
448,192,50598,1,0,0:0:0:0:
320,192,50598,1,0,0:0:0:0:
192,192,50877,1,0,0:0:0:0:
64,192,51017,1,0,0:0:0:0:
320,192,51017,1,0,0:0:0:0:
448,192,51017,1,0,0:0:0:0:
192,192,51296,1,0,0:0:0:0:
64,192,51296,1,0,0:0:0:0:
448,192,51296,1,0,0:0:0:0:
320,192,51576,1,0,0:0:0:0:
64,192,51716,1,0,0:0:0:0:
192,192,51716,1,0,0:0:0:0:
448,192,51716,1,0,0:0:0:0:
192,192,51995,1,0,0:0:0:0:
64,192,52135,1,0,0:0:0:0:
320,192,52135,1,0,0:0:0:0:
448,192,52135,1,0,0:0:0:0:
64,192,52414,1,0,0:0:0:0:
320,192,52414,1,0,0:0:0:0:
192,192,52414,1,0,0:0:0:0:
448,192,52693,1,0,0:0:0:0:
64,192,52833,1,0,0:0:0:0:
192,192,52833,1,0,0:0:0:0:
320,192,52833,1,0,0:0:0:0:
320,192,53112,1,0,0:0:0:0:
448,192,53252,1,0,0:0:0:0:
192,192,53252,1,0,0:0:0:0:
64,192,53252,1,0,0:0:0:0:
64,192,53532,1,0,0:0:0:0:
192,192,53532,1,0,0:0:0:0:
64,192,53671,1,0,0:0:0:0:
192,192,53671,1,0,0:0:0:0:
64,192,53811,1,0,0:0:0:0:
192,192,53811,1,0,0:0:0:0:
64,192,53951,1,0,0:0:0:0:
192,192,53951,1,0,0:0:0:0:
320,192,54020,1,0,0:0:0:0:
448,192,54090,1,0,0:0:0:0:
64,192,54090,1,0,0:0:0:0:
320,192,54160,1,0,0:0:0:0:
64,192,54230,1,0,0:0:0:0:
448,192,54230,1,0,0:0:0:0:
320,192,54300,1,0,0:0:0:0:
192,192,54370,1,0,0:0:0:0:
448,192,54370,1,0,0:0:0:0:
64,192,54439,1,0,0:0:0:0:
192,192,54509,1,0,0:0:0:0:
448,192,54509,1,0,0:0:0:0:
64,192,54579,1,0,0:0:0:0:
448,192,54649,1,0,0:0:0:0:
320,192,54649,1,0,0:0:0:0:
320,192,54789,1,0,0:0:0:0:
448,192,54789,1,0,0:0:0:0:
64,192,54928,1,0,0:0:0:0:
192,192,54928,1,0,0:0:0:0:
320,192,55068,1,0,0:0:0:0:
448,192,55068,1,0,0:0:0:0:
320,192,55208,1,0,0:0:0:0:
448,192,55208,1,0,0:0:0:0:
320,192,55347,1,0,0:0:0:0:
448,192,55347,1,0,0:0:0:0:
64,192,55487,1,0,0:0:0:0:
192,192,55487,1,0,0:0:0:0:
320,192,55627,1,0,0:0:0:0:
448,192,55627,1,0,0:0:0:0:
320,192,55767,1,0,0:0:0:0:
448,192,55767,1,0,0:0:0:0:
64,192,55767,1,0,0:0:0:0:
192,192,55906,1,0,0:0:0:0:
320,192,55906,1,0,0:0:0:0:
448,192,55906,1,0,0:0:0:0:
64,192,56046,1,0,0:0:0:0:
320,192,56046,1,0,0:0:0:0:
192,192,56046,1,0,0:0:0:0:
320,192,56186,1,0,0:0:0:0:
448,192,56186,1,0,0:0:0:0:
64,192,56186,1,0,0:0:0:0:
320,192,56325,1,0,0:0:0:0:
448,192,56325,1,0,0:0:0:0:
192,192,56325,1,0,0:0:0:0:
320,192,56465,1,0,0:0:0:0:
448,192,56465,1,0,0:0:0:0:
64,192,56465,1,0,0:0:0:0:
64,192,56605,1,0,0:0:0:0:
192,192,56605,1,0,0:0:0:0:
320,192,56605,1,0,0:0:0:0:
320,192,56744,1,0,0:0:0:0:
448,192,56744,1,0,0:0:0:0:
192,192,56744,1,0,0:0:0:0:
64,192,56884,1,0,0:0:0:0:
192,192,56884,1,0,0:0:0:0:
320,192,56884,1,0,0:0:0:0:
64,192,57024,1,0,0:0:0:0:
192,192,57024,1,0,0:0:0:0:
320,192,57163,1,0,0:0:0:0:
64,192,57303,1,0,0:0:0:0:
192,192,57303,1,0,0:0:0:0:
320,192,57303,1,0,0:0:0:0:
192,192,57443,1,0,0:0:0:0:
448,192,57443,1,0,0:0:0:0:
448,192,57583,1,0,0:0:0:0:
320,192,57583,1,0,0:0:0:0:
192,192,57722,1,0,0:0:0:0:
64,192,57722,1,0,0:0:0:0:
192,192,57862,1,0,0:0:0:0:
448,192,57862,1,0,0:0:0:0:
320,192,58002,1,0,0:0:0:0:
448,192,58002,1,0,0:0:0:0:
64,192,58002,1,0,0:0:0:0:
64,192,58141,1,0,0:0:0:0:
320,192,58281,1,0,0:0:0:0:
448,192,58281,1,0,0:0:0:0:
192,192,58281,1,0,0:0:0:0:
320,192,58421,1,0,0:0:0:0:
64,192,58421,1,0,0:0:0:0:
448,192,58421,1,0,0:0:0:0:
192,192,58560,1,0,0:0:0:0:
320,192,58700,1,0,0:0:0:0:
64,192,58840,1,0,0:0:0:0:
192,192,58840,1,0,0:0:0:0:
64,192,58979,1,0,0:0:0:0:
192,192,59119,128,0,59259:0:0:0:0:
320,192,59119,1,0,0:0:0:0:
64,192,59259,128,0,59399:0:0:0:0:
320,192,59259,1,0,0:0:0:0:
448,192,59399,128,0,59538:0:0:0:0:
320,192,59399,1,0,0:0:0:0:
192,192,59538,128,0,59678:0:0:0:0:
320,192,59538,1,0,0:0:0:0:
64,192,59678,128,0,59818:0:0:0:0:
320,192,59678,1,0,0:0:0:0:
192,192,59818,128,0,59957:0:0:0:0:
448,192,59818,1,0,0:0:0:0:
320,192,59957,128,0,60097:0:0:0:0:
64,192,59957,1,0,0:0:0:0:
448,192,60097,128,0,60237:0:0:0:0:
192,192,60097,1,0,0:0:0:0:
320,192,60237,128,0,60376:0:0:0:0:
64,192,60237,1,0,0:0:0:0:
192,192,60376,128,0,60516:0:0:0:0:
64,192,60376,1,0,0:0:0:0:
448,192,60516,128,0,60656:0:0:0:0:
64,192,60516,1,0,0:0:0:0:
320,192,60656,128,0,60795:0:0:0:0:
64,192,60656,1,0,0:0:0:0:
64,192,60795,128,0,60935:0:0:0:0:
448,192,60795,1,0,0:0:0:0:
192,192,60935,128,0,61075:0:0:0:0:
448,192,60935,1,0,0:0:0:0:
320,192,61075,128,0,61214:0:0:0:0:
64,192,61075,1,0,0:0:0:0:
448,192,61214,128,0,61354:0:0:0:0:
64,192,61214,1,0,0:0:0:0:
192,192,61354,1,0,0:0:0:0:
64,192,61354,128,0,61494:0:0:0:0:
192,192,61494,128,0,61634:0:0:0:0:
320,192,61494,1,0,0:0:0:0:
320,192,61634,128,0,61773:0:0:0:0:
448,192,61634,1,0,0:0:0:0:
448,192,61773,128,0,61913:0:0:0:0:
192,192,61773,1,0,0:0:0:0:
64,192,61913,128,0,62053:0:0:0:0:
320,192,61913,1,0,0:0:0:0:
320,192,62053,128,0,62192:0:0:0:0:
448,192,62053,1,0,0:0:0:0:
448,192,62192,128,0,62332:0:0:0:0:
192,192,62192,1,0,0:0:0:0:
64,192,62332,128,0,62472:0:0:0:0:
320,192,62332,1,0,0:0:0:0:
448,192,62472,128,0,63310:0:0:0:0:
320,192,62472,1,0,0:0:0:0:
192,192,62611,1,0,0:0:0:0:
192,192,62681,1,0,0:0:0:0:
64,192,62751,1,0,0:0:0:0:
320,192,62751,1,0,0:0:0:0:
192,192,62891,1,0,0:0:0:0:
192,192,62961,1,0,0:0:0:0:
64,192,63030,1,0,0:0:0:0:
320,192,63030,1,0,0:0:0:0:
192,192,63170,1,0,0:0:0:0:
192,192,63240,1,0,0:0:0:0:
64,192,63310,1,0,0:0:0:0:
320,192,63310,1,0,0:0:0:0:
192,192,63380,1,0,0:0:0:0:
448,192,63450,1,0,0:0:0:0:
320,192,63519,1,0,0:0:0:0:
192,192,63589,1,0,0:0:0:0:
448,192,63589,1,0,0:0:0:0:
64,192,63589,1,0,0:0:0:0:
64,192,63729,1,0,0:0:0:0:
320,192,63729,1,0,0:0:0:0:
448,192,63729,1,0,0:0:0:0:
64,192,63869,1,0,0:0:0:0:
320,192,63869,1,0,0:0:0:0:
192,192,63869,1,0,0:0:0:0:
448,192,64008,1,0,0:0:0:0:
192,192,64008,1,0,0:0:0:0:
320,192,64008,1,0,0:0:0:0:
64,192,64148,1,0,0:0:0:0:
320,192,64148,1,0,0:0:0:0:
448,192,64288,1,0,0:0:0:0:
192,192,64288,1,0,0:0:0:0:
192,192,64427,1,0,0:0:0:0:
64,192,64567,1,0,0:0:0:0:
320,192,64567,1,0,0:0:0:0:
192,192,64707,1,0,0:0:0:0:
448,192,64707,1,0,0:0:0:0:
320,192,64707,128,0,64777:0:0:0:0:
448,192,64846,1,0,0:0:0:0:
64,192,64986,128,0,65056:0:0:0:0:
192,192,64986,1,0,0:0:0:0:
320,192,64986,1,0,0:0:0:0:
192,192,65126,1,0,0:0:0:0:
320,192,65266,128,0,65335:0:0:0:0:
64,192,65266,1,0,0:0:0:0:
448,192,65266,1,0,0:0:0:0:
448,192,65405,1,0,0:0:0:0:
64,192,65545,128,0,65615:0:0:0:0:
192,192,65545,1,0,0:0:0:0:
320,192,65545,1,0,0:0:0:0:
192,192,65685,1,0,0:0:0:0:
64,192,65824,1,0,0:0:0:0:
448,192,65824,1,0,0:0:0:0:
320,192,65824,1,0,0:0:0:0:
192,192,65894,1,0,0:0:0:0:
320,192,65964,1,0,0:0:0:0:
64,192,65964,1,0,0:0:0:0:
192,192,66104,1,0,0:0:0:0:
448,192,66104,1,0,0:0:0:0:
64,192,66243,1,0,0:0:0:0:
320,192,66243,1,0,0:0:0:0:
64,192,66383,1,0,0:0:0:0:
320,192,66383,1,0,0:0:0:0:
192,192,66523,1,0,0:0:0:0:
448,192,66523,1,0,0:0:0:0:
320,192,66662,1,0,0:0:0:0:
64,192,66802,1,0,0:0:0:0:
192,192,66802,1,0,0:0:0:0:
64,192,66942,1,0,0:0:0:0:
192,192,66942,1,0,0:0:0:0:
448,192,66942,128,0,67012:0:0:0:0:
320,192,67082,1,0,0:0:0:0:
320,192,67221,128,0,67291:0:0:0:0:
64,192,67221,1,0,0:0:0:0:
192,192,67221,1,0,0:0:0:0:
448,192,67361,1,0,0:0:0:0:
448,192,67501,128,0,67570:0:0:0:0:
64,192,67501,1,0,0:0:0:0:
192,192,67501,1,0,0:0:0:0:
320,192,67640,1,0,0:0:0:0:
320,192,67780,128,0,67850:0:0:0:0:
64,192,67780,1,0,0:0:0:0:
192,192,67780,1,0,0:0:0:0:
448,192,67920,1,0,0:0:0:0:
320,192,68059,1,0,0:0:0:0:
192,192,68059,1,0,0:0:0:0:
448,192,68059,1,0,0:0:0:0:
64,192,68338,1,0,0:0:0:0:
192,192,68478,1,0,0:0:0:0:
448,192,68478,1,0,0:0:0:0:
320,192,68478,1,0,0:0:0:0:
192,192,68757,1,0,0:0:0:0:
64,192,68897,1,0,0:0:0:0:
320,192,68897,1,0,0:0:0:0:
448,192,68897,1,0,0:0:0:0:
64,192,69176,1,0,0:0:0:0:
192,192,69176,1,0,0:0:0:0:
448,192,69176,1,0,0:0:0:0:
320,192,69456,1,0,0:0:0:0:
448,192,69596,1,0,0:0:0:0:
192,192,69596,1,0,0:0:0:0:
64,192,69596,1,0,0:0:0:0:
192,192,69875,1,0,0:0:0:0:
64,192,70015,1,0,0:0:0:0:
448,192,70015,1,0,0:0:0:0:
320,192,70015,1,0,0:0:0:0:
64,192,70294,1,0,0:0:0:0:
320,192,70294,1,0,0:0:0:0:
192,192,70294,1,0,0:0:0:0:
448,192,70573,1,0,0:0:0:0:
192,192,70713,1,0,0:0:0:0:
320,192,70713,1,0,0:0:0:0:
64,192,70713,1,0,0:0:0:0:
320,192,70992,1,0,0:0:0:0:
192,192,71132,1,0,0:0:0:0:
448,192,71132,1,0,0:0:0:0:
64,192,71132,1,0,0:0:0:0:
64,192,71412,1,0,0:0:0:0:
320,192,71412,1,0,0:0:0:0:
192,192,71412,1,0,0:0:0:0:
64,192,71552,1,0,0:0:0:0:
192,192,71552,1,0,0:0:0:0:
320,192,71552,1,0,0:0:0:0:
64,192,71691,1,0,0:0:0:0:
192,192,71691,1,0,0:0:0:0:
320,192,71691,1,0,0:0:0:0:
64,192,71831,1,0,0:0:0:0:
192,192,71831,1,0,0:0:0:0:
320,192,71831,1,0,0:0:0:0:
64,192,71971,1,0,0:0:0:0:
448,192,71971,1,0,0:0:0:0:
192,192,71971,1,0,0:0:0:0:
192,192,72110,1,0,0:0:0:0:
320,192,72110,1,0,0:0:0:0:
64,192,72110,1,0,0:0:0:0:
64,192,72250,1,0,0:0:0:0:
448,192,72250,1,0,0:0:0:0:
320,192,72250,1,0,0:0:0:0:
192,192,72390,1,0,0:0:0:0:
320,192,72390,1,0,0:0:0:0:
448,192,72390,1,0,0:0:0:0:
64,192,72529,1,0,0:0:0:0:
448,192,72529,1,0,0:0:0:0:
192,192,72599,1,0,0:0:0:0:
64,192,72669,1,0,0:0:0:0:
448,192,72669,1,0,0:0:0:0:
192,192,72739,1,0,0:0:0:0:
64,192,72809,1,0,0:0:0:0:
320,192,72809,1,0,0:0:0:0:
192,192,72879,1,0,0:0:0:0:
64,192,72949,1,0,0:0:0:0:
448,192,72949,1,0,0:0:0:0:
192,192,73018,1,0,0:0:0:0:
64,192,73088,1,0,0:0:0:0:
448,192,73088,1,0,0:0:0:0:
448,192,73228,1,0,0:0:0:0:
320,192,73368,1,0,0:0:0:0:
448,192,73507,1,0,0:0:0:0:
64,192,73647,1,0,0:0:0:0:
320,192,73647,1,0,0:0:0:0:
192,192,73647,1,0,0:0:0:0:
192,192,73787,1,0,0:0:0:0:
64,192,73787,1,0,0:0:0:0:
448,192,73926,1,0,0:0:0:0:
192,192,73926,1,0,0:0:0:0:
64,192,74066,1,0,0:0:0:0:
320,192,74066,1,0,0:0:0:0:
448,192,74206,1,0,0:0:0:0:
192,192,74206,1,0,0:0:0:0:
320,192,74206,1,0,0:0:0:0:
64,192,74345,1,0,0:0:0:0:
320,192,74345,1,0,0:0:0:0:
192,192,74485,1,0,0:0:0:0:
448,192,74485,1,0,0:0:0:0:
64,192,74625,1,0,0:0:0:0:
320,192,74625,1,0,0:0:0:0:
192,192,74765,1,0,0:0:0:0:
320,192,74765,1,0,0:0:0:0:
448,192,74765,1,0,0:0:0:0:
64,192,74904,1,0,0:0:0:0:
192,192,74904,1,0,0:0:0:0:
64,192,75044,1,0,0:0:0:0:
192,192,75044,1,0,0:0:0:0:
448,192,75044,1,0,0:0:0:0:
320,192,75184,1,0,0:0:0:0:
448,192,75184,1,0,0:0:0:0:
64,192,75323,1,0,0:0:0:0:
192,192,75323,1,0,0:0:0:0:
64,192,75463,1,0,0:0:0:0:
192,192,75463,1,0,0:0:0:0:
320,192,75603,1,0,0:0:0:0:
448,192,75603,1,0,0:0:0:0:
64,192,75742,1,0,0:0:0:0:
192,192,75742,1,0,0:0:0:0:
320,192,75882,128,0,76301:0:0:0:0:
192,192,76022,128,0,76161:0:0:0:0:
64,192,76161,128,0,76301:0:0:0:0:
448,192,76301,128,0,76720:0:0:0:0:
320,192,76441,128,0,76580:0:0:0:0:
192,192,76580,128,0,76720:0:0:0:0:
64,192,76720,128,0,77000:0:0:0:0:
320,192,76720,128,0,77000:0:0:0:0:
448,192,77000,128,0,77139:0:0:0:0:
192,192,77000,1,0,0:0:0:0:
320,192,77139,128,0,77279:0:0:0:0:
64,192,77139,1,0,0:0:0:0:
192,192,77279,128,0,77419:0:0:0:0:
448,192,77279,1,0,0:0:0:0:
64,192,77419,128,0,77558:0:0:0:0:
320,192,77419,1,0,0:0:0:0:
320,192,77558,128,0,77698:0:0:0:0:
448,192,77558,1,0,0:0:0:0:
192,192,77698,128,0,77838:0:0:0:0:
64,192,77698,1,0,0:0:0:0:
448,192,77838,128,0,77977:0:0:0:0:
320,192,77838,1,0,0:0:0:0:
320,192,77977,128,0,78117:0:0:0:0:
64,192,77977,1,0,0:0:0:0:
448,192,78117,128,0,78257:0:0:0:0:
192,192,78117,1,0,0:0:0:0:
64,192,78257,128,0,78396:0:0:0:0:
192,192,78257,1,0,0:0:0:0:
320,192,78396,128,0,78536:0:0:0:0:
448,192,78396,1,0,0:0:0:0:
192,192,78536,128,0,78676:0:0:0:0:
64,192,78536,1,0,0:0:0:0:
64,192,78676,128,0,78816:0:0:0:0:
320,192,78676,1,0,0:0:0:0:
192,192,78816,128,0,78955:0:0:0:0:
448,192,78816,1,0,0:0:0:0:
320,192,78955,128,0,79095:0:0:0:0:
64,192,78955,1,0,0:0:0:0:
448,192,79095,128,0,79235:0:0:0:0:
192,192,79095,1,0,0:0:0:0:
64,192,79235,128,0,81470:0:0:0:0:
320,192,79235,1,0,0:0:0:0:
192,192,79304,1,0,0:0:0:0:
320,192,79374,1,0,0:0:0:0:
448,192,79444,1,0,0:0:0:0:
192,192,79514,1,0,0:0:0:0:
320,192,79584,1,0,0:0:0:0:
448,192,79654,1,0,0:0:0:0:
320,192,79724,1,0,0:0:0:0:
448,192,79793,1,0,0:0:0:0:
320,192,79863,1,0,0:0:0:0:
192,192,79933,1,0,0:0:0:0:
320,192,80003,1,0,0:0:0:0:
448,192,80073,1,0,0:0:0:0:
192,192,80143,1,0,0:0:0:0:
448,192,80212,1,0,0:0:0:0:
320,192,80282,1,0,0:0:0:0:
192,192,80352,1,0,0:0:0:0:
448,192,80422,1,0,0:0:0:0:
320,192,80492,1,0,0:0:0:0:
192,192,80562,1,0,0:0:0:0:
320,192,80632,1,0,0:0:0:0:
448,192,80701,1,0,0:0:0:0:
320,192,80771,1,0,0:0:0:0:
192,192,80841,1,0,0:0:0:0:
320,192,80911,128,0,81470:0:0:0:0:
192,192,81470,1,0,0:0:0:0:
448,192,81470,1,0,0:0:0:0:
64,192,81748,1,0,0:0:0:0:
448,192,82027,1,0,0:0:0:0:
192,192,82027,1,0,0:0:0:0:
320,192,82027,1,0,0:0:0:0:
448,192,82167,1,0,0:0:0:0:
192,192,82167,1,0,0:0:0:0:
320,192,82167,1,0,0:0:0:0:
64,192,82306,1,0,0:0:0:0:
448,192,82445,1,0,0:0:0:0:
320,192,82445,1,0,0:0:0:0:
192,192,82445,1,0,0:0:0:0:
192,192,82724,1,0,0:0:0:0:
64,192,82864,1,0,0:0:0:0:
320,192,82864,1,0,0:0:0:0:
448,192,82864,1,0,0:0:0:0:
192,192,83142,1,0,0:0:0:0:
320,192,83142,1,0,0:0:0:0:
64,192,83142,1,0,0:0:0:0:
192,192,83282,1,0,0:0:0:0:
320,192,83282,1,0,0:0:0:0:
448,192,83282,1,0,0:0:0:0:
64,192,83421,1,0,0:0:0:0:
192,192,83561,1,0,0:0:0:0:
320,192,83561,1,0,0:0:0:0:
448,192,83561,1,0,0:0:0:0:
192,192,83839,1,0,0:0:0:0:
64,192,83979,1,0,0:0:0:0:
320,192,83979,1,0,0:0:0:0:
448,192,83979,1,0,0:0:0:0:
192,192,84258,1,0,0:0:0:0:
448,192,84258,1,0,0:0:0:0:
64,192,84258,1,0,0:0:0:0:
192,192,84397,1,0,0:0:0:0:
448,192,84397,1,0,0:0:0:0:
320,192,84397,1,0,0:0:0:0:
64,192,84536,1,0,0:0:0:0:
192,192,84676,1,0,0:0:0:0:
320,192,84676,1,0,0:0:0:0:
448,192,84676,1,0,0:0:0:0:
192,192,84955,1,0,0:0:0:0:
64,192,85094,1,0,0:0:0:0:
320,192,85094,1,0,0:0:0:0:
448,192,85094,1,0,0:0:0:0:
192,192,85373,1,0,0:0:0:0:
192,192,85512,1,0,0:0:0:0:
320,192,85512,1,0,0:0:0:0:
448,192,85512,1,0,0:0:0:0:
64,192,85652,1,0,0:0:0:0:
64,192,85791,1,0,0:0:0:0:
192,192,85930,1,0,0:0:0:0:
320,192,85930,1,0,0:0:0:0:
448,192,85930,1,0,0:0:0:0:
64,192,86209,1,0,0:0:0:0:
192,192,86488,1,0,0:0:0:0:
320,192,86488,1,0,0:0:0:0:
64,192,86488,1,0,0:0:0:0:
192,192,86627,1,0,0:0:0:0:
448,192,86627,1,0,0:0:0:0:
320,192,86627,1,0,0:0:0:0:
64,192,86767,1,0,0:0:0:0:
192,192,86906,1,0,0:0:0:0:
448,192,86906,1,0,0:0:0:0:
320,192,86906,1,0,0:0:0:0:
192,192,87185,1,0,0:0:0:0:
64,192,87325,1,0,0:0:0:0:
320,192,87325,1,0,0:0:0:0:
448,192,87325,1,0,0:0:0:0:
192,192,87603,1,0,0:0:0:0:
448,192,87603,1,0,0:0:0:0:
64,192,87603,1,0,0:0:0:0:
192,192,87743,1,0,0:0:0:0:
320,192,87743,1,0,0:0:0:0:
448,192,87743,1,0,0:0:0:0:
64,192,87882,1,0,0:0:0:0:
192,192,88022,1,0,0:0:0:0:
320,192,88022,1,0,0:0:0:0:
448,192,88022,1,0,0:0:0:0:
192,192,88300,1,0,0:0:0:0:
448,192,88440,1,0,0:0:0:0:
320,192,88440,1,0,0:0:0:0:
64,192,88440,1,0,0:0:0:0:
192,192,88719,1,0,0:0:0:0:
64,192,88719,1,0,0:0:0:0:
448,192,88719,1,0,0:0:0:0:
192,192,88858,1,0,0:0:0:0:
64,192,88997,1,0,0:0:0:0:
320,192,88997,1,0,0:0:0:0:
448,192,88997,1,0,0:0:0:0:
64,192,89276,1,0,0:0:0:0:
320,192,89276,1,0,0:0:0:0:
448,192,89276,1,0,0:0:0:0:
192,192,89416,1,0,0:0:0:0:
192,192,89555,1,0,0:0:0:0:
64,192,89694,1,0,0:0:0:0:
320,192,89694,1,0,0:0:0:0:
448,192,89694,1,0,0:0:0:0:
192,192,89834,1,0,0:0:0:0:
64,192,89834,1,0,0:0:0:0:
192,192,89973,1,0,0:0:0:0:
64,192,90113,1,0,0:0:0:0:
64,192,90252,1,0,0:0:0:0:
192,192,90391,1,0,0:0:0:0:
64,192,90670,1,0,0:0:0:0:
