osu file format v9

[General]
AudioFilename: Thunderforce 5 - Legendary Wings.MP3
AudioLeadIn: 0
PreviewTime: -1
Countdown: 1
SampleSet: Soft
StackLeniency: 0.7
Mode: 0
LetterboxInBreaks: 1
StoryFireInFront: 0

[Editor]
DistanceSpacing: 1
BeatDivisor: 4
GridSize: 8

[Metadata]
Title:Legendary Wings
Artist:S.S.H
Creator:Akcel
Version:Legendary
Source:
Tags:S.S.H. SSH S H Thunder Force Legendary Wings Metal Arrange Akcel Insane Guitar solo

[Difficulty]
HPDrainRate:8
CircleSize:4
OverallDifficulty:7
ApproachRate:8
SliderMultiplier:1.5
SliderTickRate:2

[Events]
//Background and Video events
0,0,"bg.png"
//Break Periods
2,61421,73081
2,91405,99932
2,153005,164691
//Storyboard Layer 0 (Background)
//Storyboard Layer 1 (Fail)
//Storyboard Layer 2 (Pass)
//Storyboard Layer 3 (Foreground)
//Storyboard Sound Samples
//Background Colour Transformations
3,100,0,0,0

[TimingPoints]
1175,394.87070633928,4,2,0,75,1,0
20102,-50,4,2,0,70,0,0
23192,-100,4,2,0,70,0,0
24081,-100,4,2,0,70,0,0
25463,-66.6666666666667,4,2,0,70,0,0
26451,-66.6666666666667,4,2,0,70,0,0
27926,-66.6666666666667,4,2,0,70,0,0
38079,-50,4,2,0,70,0,0
39363,-66.6666666666667,4,2,0,70,0,0
42226,-66.6666666666667,4,2,0,70,0,0
43016,-100,4,2,0,70,0,0
47262,-50,4,2,0,70,0,0
47362,-66.6666666666667,4,2,0,70,0,0
47462,-50,4,2,0,70,0,0
53680,-50,4,2,0,70,0,0
61103,-66.6666666666667,4,2,0,70,0,0
79721,-66.6666666666667,4,2,0,70,0,0
100606,-50,4,2,0,70,0,0
100664,-50,4,2,0,70,0,0
100705,-50,4,2,0,70,0,0
100705,-66.6666666666667,4,2,0,70,0,0
100705,-50,4,2,0,70,0,0
107222,-66.6666666666667,4,2,0,70,0,0
128027,-50,4,2,0,70,0,0
128915,-66.6666666666667,4,2,0,70,0,0
129902,-100,4,2,0,70,0,0
129902,-100,4,2,0,70,0,0
130001,-100,4,2,0,70,0,0
132272,-66.6666666666667,4,2,0,70,0,0
133160,-100,4,2,0,70,0,0
138293,-50,4,2,0,70,0,0

[Colours]
Combo1 : 62,37,0
Combo2 : 0,61,64
Combo3 : 92,122,116
Combo4 : 255,231,204

[HitObjects]
56,248,1175,1,0
88,272,1273,1,0
120,296,1372,1,0
160,296,1471,1,0
200,296,1569,1,0
240,296,1668,1,0
280,296,1767,1,0
456,136,2754,5,0
424,112,2853,1,0
392,88,2951,1,0
352,88,3050,1,0
312,88,3149,1,0
272,88,3248,1,0
232,88,3346,1,0
40,48,4136,5,0
64,80,4235,1,0
88,112,4333,2,0,B|128:160|128:160|248:160,1,150
256,80,4926,21,0
256,40,5024,1,0
256,0,5123,1,0
296,160,5518,6,0,B|400:160|400:160|440:208,1,150
432,280,6110,1,0
408,304,6209,1,0
384,328,6308,1,0
256,328,6505,1,0
256,192,7098,12,0,9073
48,48,9862,5,0
176,88,10059,1,0
256,192,10257,1,0
336,88,10454,1,0
464,48,10651,1,0
464,184,10849,5,0
448,224,10948,1,0
408,232,11046,1,0
328,232,11244,2,0,B|256:264|256:264|192:232,1,150
328,320,11836,2,0,B|256:352|256:352|192:320,1,150
112,352,12428,1,0
40,280,12626,1,0
112,192,12823,1,0
40,112,13021,1,0
256,32,13317,5,0
472,112,13613,1,0
400,200,13810,2,0,B|448:256|448:256|448:336,1,150
344,352,14403,1,0
256,288,14600,1,0
176,352,14798,1,0
96,288,14995,5,0
72,256,15094,1,0
48,224,15192,1,0
24,192,15291,1,0
48,160,15390,1,0
72,128,15489,1,0
104,96,15587,2,0,B|152:48|152:48|240:48,1,150
344,48,16180,5,0
344,88,16278,1,0
344,128,16377,1,0
440,192,16574,1,0
440,232,16673,1,0
440,272,16772,1,0
408,296,16871,1,0
376,320,16969,2,0,B|72:320,1,300
24,192,17957,5,0
80,120,18154,1,0
144,40,18351,1,0
184,40,18450,1,0
224,40,18549,1,0
264,40,18648,1,0
304,40,18746,1,0
336,64,18845,1,0
368,88,18944,1,0
256,136,19141,1,0
472,192,19339,5,0
256,344,19635,1,0
48,192,19931,1,0
184,72,20128,2,0,B|256:88|256:88|336:72,1,150
328,72,20424,1,0
256,192,20721,12,0,21708
80,192,22103,5,0
256,328,22498,1,0
432,192,22892,1,0
448,56,23287,5,0
400,56,23386,1,0
312,56,23583,1,0
264,56,23682,1,0
176,56,23880,1,0
80,192,24077,6,0,B|120:192,1,37.5
208,192,24373,2,0,B|248:192,1,37.5
336,192,24669,1,0
424,352,24867,5,0
256,192,25163,1,0
88,352,25459,1,0
256,192,25656,1,0
424,352,25953,1,0
256,352,26249,1,0
152,176,26446,2,0,B|256:216|256:216|368:176,1,225
256,128,27236,1,0
160,96,27433,5,0
192,64,27532,1,0
224,32,27631,1,0
272,32,27730,1,0
320,32,27828,1,0
368,32,27927,2,0,B|392:64|392:64|392:136,1,112.5
392,224,28421,5,0
392,224,28618,1,0
392,224,28815,1,0
392,224,29013,1,0
160,192,29210,5,0
208,192,29309,1,0
256,192,29408,1,0
304,192,29506,1,0
352,192,29605,1,0
144,40,29803,6,0,B|224:120,1,112.5
344,120,30197,2,0,B|264:216,1,112.5
144,208,30592,2,0,B|224:288,1,112.5
256,376,30987,5,0
256,336,31086,1,0
256,296,31185,1,0
256,256,31283,1,0
256,216,31382,1,0
256,176,31481,1,0
256,80,31678,5,0
256,80,31777,1,0
256,80,31876,1,0
72,192,32172,1,0
448,192,32468,1,0
256,192,32665,12,0,35528
80,64,35923,5,0
256,192,36219,1,0
256,192,36515,1,0
208,80,36713,1,0
256,64,36812,1,0
304,80,36910,1,0
432,64,37108,5,0
80,320,37503,1,0
440,320,37799,1,0
184,192,38095,2,0,B|256:216|256:216|328:192,1,150
256,40,38588,1,0
256,40,38885,1,0
256,40,39082,1,0
368,40,39378,2,0,B|432:80|432:80|496:40,1,150,0|0
416,192,39872,5,0
384,224,39971,1,0
352,256,40069,1,0
320,288,40168,1,0
288,320,40267,1,0
264,192,40464,1,0
224,192,40563,1,0
184,192,40662,1,0
144,192,40760,1,0
128,72,40958,5,0
256,40,41254,1,0
80,192,41451,1,0
432,192,41747,1,0
432,192,42044,1,0
320,288,42241,2,0,B|256:328|256:328|192:288,1,150
80,192,42833,1,0
72,56,43130,2,0,B|128:80|128:80|176:56,1,112.5
288,48,43623,1,0
432,160,43821,5,0
432,200,43919,1,0
432,312,44117,1,0
408,352,44215,1,0
280,352,44413,1,0
232,352,44512,1,0
96,352,44709,1,0
64,320,44808,1,0
64,168,45005,1,0
256,48,45203,5,0
400,192,45400,5,0
368,224,45499,1,0
336,248,45597,1,0
296,248,45696,1,0
256,248,45795,1,0
216,248,45894,1,0
176,248,45992,1,0
144,224,46091,1,0
112,192,46190,1,0
144,88,46387,5,0
176,112,46486,1,0
216,112,46585,1,0
256,112,46683,1,0
296,112,46782,1,0
336,112,46881,1,0
360,88,46980,1,0
448,64,47177,5,0
448,104,47276,1,0
448,144,47374,1,0
448,184,47473,1,0
448,224,47572,1,0
448,264,47671,1,0
448,304,47769,1,0
448,344,47868,1,0
320,344,48164,1,0
200,344,48362,2,0,B|128:296|128:296|128:208,1,168.749994970858
128,64,48855,5,0
256,192,49151,12,0,50139
256,192,50533,1,0
112,88,50928,1,0
408,88,51323,1,0
256,336,51718,1,0
256,192,51915,1,0
256,192,52014,1,0
256,192,52113,1,0
256,192,52212,1,0
256,192,52310,1,0
392,264,52508,5,0
352,248,52606,1,0
312,248,52705,1,0
296,296,52804,1,0
256,328,52903,1,0
216,296,53001,1,0
200,248,53100,1,0
160,248,53199,1,0
120,264,53297,1,0
256,160,53495,1,0
104,128,53692,6,0,B|136:64|136:64|216:64,1,150
256,64,53988,1,0
296,64,54087,2,0,B|376:64|376:64|408:-16,1,150
464,136,54482,1,0
448,176,54581,1,0
432,208,54679,1,0
304,208,54877,5,0
192,208,55074,1,0
248,296,55272,1,0
304,208,55469,1,0
192,208,55667,1,0
88,208,55864,1,0
136,120,56062,1,0
192,208,56259,1,0
88,208,56456,5,0
64,176,56555,1,0
40,144,56654,1,0
40,104,56753,1,0
256,152,57049,1,0
144,64,57246,1,0
368,64,57542,1,0
256,272,57838,1,0
256,192,58135,12,0,59221
144,312,59615,6,0,B|56:192|56:192|144:64|144:64,1,300
368,312,60405,6,0,B|456:192|456:192|368:64|368:64,1,300
256,192,61195,5,0
112,56,73831,5,0
112,56,74028,1,0
216,56,74226,1,0
216,56,74423,1,0
384,56,74620,1,0
392,168,74818,6,0,B|344:200|344:200|264:200,1,112.499996647239
256,200,75114,1,0
216,200,75213,2,0,B|160:200|160:200|112:232,1,112.499996647239
256,320,75608,1,0
256,320,75805,1,0
256,320,76002,1,0
256,320,76200,1,0
456,192,76397,5,0
456,192,76496,1,0
456,192,76595,1,0
256,192,76792,1,0
56,192,76990,1,0
152,40,77187,1,0
152,40,77286,1,0
152,40,77385,1,0
256,40,77582,5,0
360,40,77779,1,0
456,104,77977,2,0,B|496:144|496:144|456:192,2,112.499996647239
360,40,78569,1,0
264,40,78767,1,0
216,40,78865,1,0
168,40,78964,1,0
48,40,79161,1,0
48,40,79359,1,0
256,144,79556,5,0
256,144,79655,1,0
256,144,79754,2,0,B|256:368,1,225
120,240,80346,5,0
120,288,80445,1,0
120,336,80544,1,0
120,144,80741,1,0
120,144,80938,1,0
120,40,81136,2,0,B|168:72|168:72|216:40,1,112.499996647239
296,40,81531,1,0
384,112,81728,2,0,B|440:208|440:208|384:312,1,224.999993294478
120,192,82518,5,0
120,192,82617,1,0
120,192,82715,1,0
120,192,82814,1,0
120,192,82913,1,0
184,72,83110,1,0
392,72,83308,1,0
288,296,83702,1,0
184,72,84097,5,0
392,72,84295,1,0
392,72,84492,1,0
288,216,84690,1,0
184,72,84887,1,0
184,72,84986,1,0
184,72,85085,1,0
256,192,85183,12,0,91205
144,72,100682,6,0,B|384:72,2,224.999993294478
64,152,101472,6,0,B|304:152,2,224.999993294478
368,232,102261,6,0,B|144:232,2,225
296,312,103051,6,0,B|72:312,2,225
296,112,103841,5,0
400,112,104038,1,0
344,24,104236,1,0
296,112,104433,1,0
400,112,104631,1,0
296,112,104828,1,0
448,208,105025,5,0
400,232,105124,1,0
352,256,105223,1,0
304,232,105322,1,0
256,200,105420,1,0
152,72,105618,5,0
152,72,105815,1,0
32,72,106013,1,0
32,72,106210,1,0
96,168,106408,1,0
104,280,106605,5,0
152,304,106704,1,0
200,328,106803,1,0
248,304,106902,1,0
296,280,107000,1,0
200,192,107197,5,0
200,192,107296,1,0
200,192,107395,1,0
320,192,107592,1,0
320,192,107691,1,0
320,192,107790,1,0
440,192,107987,1,0
440,192,108086,1,0
440,192,108184,1,0
464,80,108382,5,0
440,48,108481,1,0
416,80,108579,1,0
392,48,108678,1,0
368,80,108777,1,0
344,48,108875,1,0
320,80,108974,1,0
296,48,109073,1,0
272,80,109172,1,0
248,48,109270,1,0
224,80,109369,1,0
144,208,109665,5,0
256,352,109961,1,0
360,200,110159,1,0
256,120,110356,1,0
256,120,110455,1,0
256,192,110554,12,0,112133
256,192,112528,5,0
256,192,112725,1,0
256,192,112923,1,0
352,48,113318,6,0,B|392:96,3,56.2499983236194
388,91,113713,2,0,B|352:136,3,56.2499983236194
352,135,114108,2,0,B|392:176,3,56.2499983236194
391,175,114502,2,0,B|352:216,3,56.2499983236194
352,215,114897,2,0,B|392:256,3,56.2499983236194
320,312,115490,5,0
256,344,115588,1,0
192,312,115687,1,0
128,192,115884,5,0
192,160,115983,1,0
256,192,116082,1,0
384,40,116279,5,0
320,72,116378,1,0
256,40,116477,1,0
192,160,116674,5,0
192,160,116773,1,0
192,160,116872,1,0
256,344,117069,5,0
256,344,117168,1,0
256,344,117266,1,0
336,288,117464,5,0
336,240,117563,1,0
296,216,117661,1,0
256,192,117760,1,0
216,160,117859,1,0
176,128,117958,1,0
176,80,118056,1,0
320,80,118254,5,0
320,80,118352,1,0
320,80,118451,1,0
176,288,118649,5,0
176,288,118747,1,0
176,288,118846,1,0
256,192,119043,5,0
256,192,119142,1,0
256,192,119241,1,0
256,192,119340,1,0
256,192,119438,1,0
256,192,119537,1,0
256,192,119636,12,0,120821
80,56,121116,5,0
136,104,121215,1,0
256,184,121610,5,0
432,56,121906,5,0
376,104,122005,1,0
256,184,122301,5,0
256,296,122597,5,0
256,192,122696,12,0,125559
80,64,125954,5,0
256,192,126250,1,0
256,192,126546,1,0
208,80,126744,1,0
256,64,126843,1,0
304,80,126941,1,0
432,64,127139,5,0
80,320,127534,1,0
440,320,127830,1,0
184,192,128126,2,0,B|256:216|256:216|328:192,1,150
256,40,128619,1,0
256,40,128916,1,0
256,40,129113,1,0
368,40,129409,2,0,B|432:80|432:80|496:40,1,150,0|0
416,192,129903,5,0
384,224,130002,1,0
352,256,130100,1,0
320,288,130199,1,0
288,320,130298,1,0
264,192,130495,1,0
224,192,130594,1,0
184,192,130693,1,0
144,192,130791,1,0
128,72,130989,5,0
256,40,131285,1,0
80,192,131482,1,0
432,192,131778,1,0
432,192,132075,1,0
320,288,132272,2,0,B|256:328|256:328|192:288,1,150
80,192,132864,1,0
72,56,133161,2,0,B|128:72|128:72|184:56,1,112.5
288,48,133654,1,0
432,160,133852,5,0
432,200,133950,1,0
432,312,134148,1,0
408,352,134246,1,0
280,352,134444,1,0
232,352,134543,1,0
96,352,134740,1,0
64,320,134839,1,0
64,168,135036,1,0
256,48,135234,5,0
400,192,135431,5,0
368,224,135530,1,0
336,248,135628,1,0
296,248,135727,1,0
256,248,135826,1,0
216,248,135925,1,0
176,248,136023,1,0
144,224,136122,1,0
112,192,136221,1,0
144,88,136418,5,0
176,112,136517,1,0
216,112,136616,1,0
256,112,136714,1,0
296,112,136813,1,0
336,112,136912,1,0
360,88,137011,1,0
448,64,137208,5,0
448,104,137307,1,0
448,144,137405,1,0
448,184,137504,1,0
448,224,137603,1,0
448,264,137702,1,0
448,304,137800,1,0
448,344,137899,1,0
320,344,138195,1,0
200,344,138393,2,0,B|128:296|128:296|128:208,1,168.749994970858
128,64,138886,5,0
256,192,139182,12,0,140170
256,192,140564,1,0
112,88,140959,1,0
408,88,141354,1,0
256,336,141749,1,0
256,192,141946,1,0
256,192,142045,1,0
256,192,142144,1,0
256,192,142243,1,0
256,192,142341,1,0
392,264,142539,5,0
352,248,142637,1,0
312,248,142736,1,0
296,296,142835,1,0
256,328,142934,1,0
216,296,143032,1,0
200,248,143131,1,0
160,248,143230,1,0
120,264,143328,1,0
256,160,143526,1,0
104,128,143723,6,0,B|136:64|136:64|216:64,1,150
256,64,144019,1,0
296,64,144118,2,0,B|376:64|376:64|408:-16,1,150
464,136,144513,1,0
448,176,144612,1,0
432,208,144710,1,0
304,208,144908,5,0
192,208,145105,1,0
248,296,145303,1,0
304,208,145500,1,0
192,208,145698,1,0
88,208,145895,1,0
136,120,146093,1,0
192,208,146290,1,0
88,208,146487,5,0
64,176,146586,1,0
40,144,146685,1,0
40,104,146784,1,0
256,152,147080,1,0
144,64,147277,1,0
368,64,147573,1,0
256,272,147869,1,0
256,192,148166,12,0,149252
144,312,149646,6,0,B|56:192|56:192|144:64|144:64,1,300
368,312,150436,6,0,B|456:192|456:192|368:64|368:64,1,300
256,192,151226,5,0
256,192,151620,1,0
256,192,152015,1,0
256,192,152410,1,0
256,192,152805,1,0
64,56,165441,5,0
184,56,165638,1,0
216,56,165737,1,0
248,56,165836,1,0
