osu file format v14

[General]
AudioFilename: audio.mp3
AudioLeadIn: 0
PreviewTime: 28006
Countdown: 0
SampleSet: None
StackLeniency: 0.7
Mode: 3
LetterboxInBreaks: 0
SpecialStyle: 0
WidescreenStoryboard: 1

[Editor]
DistanceSpacing: 1
BeatDivisor: 4
GridSize: 16
TimelineZoom: 2.1

[Metadata]
Title:Legend Of Heroes 3 - Demonish Animal Appearance
TitleUnicode:Legend Of Heroes 3 - Demonish Animal Appearance
Artist:S.S.H
ArtistUnicode:S.S.H
Creator:bLooD raYNe
Version:Catastrophe
Source:Legend of Heroes 3
Tags:
BeatmapID:1086275
BeatmapSetID:510975

[Difficulty]
HPDrainRate:7
CircleSize:4
OverallDifficulty:7
ApproachRate:5
SliderMultiplier:1.4
SliderTickRate:1

[Events]
//Background and Video events
0,0,"attack_on_titan_reproduction__by_sugisaki_key-d63y087.jpg",0,0
//Break Periods
2,69250,78001
2,86462,120369
//Storyboard Layer 0 (Background)
//Storyboard Layer 1 (Fail)
//Storyboard Layer 2 (Pass)
//Storyboard Layer 3 (Foreground)
//Storyboard Sound Samples

[TimingPoints]
643,441.338727473336,4,1,0,10,1,0
28888,-133.333333333333,4,1,0,10,0,0
29330,-80,4,1,0,10,0,0
29661,-133.333333333333,4,1,0,10,0,0
29771,-100,4,1,0,10,0,0
30654,-133.333333333333,4,1,0,10,0,0
31095,-80,4,1,0,10,0,0
31426,-133.333333333333,4,1,0,10,0,0
31536,-100,4,1,0,10,0,0
32419,-133.333333333333,4,1,0,10,0,0
32750,-100,4,1,0,10,0,0
34184,-133.333333333333,4,1,0,10,0,0
34350,-83.3333333333333,4,1,0,10,0,0
34405,-100,4,1,0,10,0,0
34515,-133.333333333333,4,1,0,10,0,0
34681,-83.3333333333333,4,1,0,10,0,0
34736,-100,4,1,0,10,0,0
34846,-133.333333333333,4,1,0,10,0,0
35012,-83.3333333333333,4,1,0,10,0,0
35067,-100,4,1,0,10,0,0
35177,-133.333333333333,4,1,0,10,0,0
35343,-83.3333333333333,4,1,0,10,0,0
35398,-100,4,1,0,10,0,0
35508,-133.333333333333,4,1,0,10,0,0
35674,-83.3333333333333,4,1,0,10,0,0
35729,-133.333333333333,4,1,0,10,0,0
35894,-83.3333333333333,4,1,0,10,0,0
35950,-100,4,1,0,10,0,0

[HitObjects]
192,192,643,5,0,0:0:0:0:
320,192,753,1,0,0:0:0:0:
192,192,863,1,0,0:0:0:0:
448,192,974,1,0,0:0:0:0:
192,192,1194,1,0,0:0:0:0:
320,192,1305,1,0,0:0:0:0:
320,192,1525,1,0,0:0:0:0:
64,192,1746,1,0,0:0:0:0:
448,192,1856,1,0,0:0:0:0:
192,192,2077,1,0,0:0:0:0:
320,192,2187,1,0,0:0:0:0:
320,192,2408,1,0,0:0:0:0:
448,192,2629,1,0,0:0:0:0:
192,192,2739,1,0,0:0:0:0:
64,192,2960,1,0,0:0:0:0:
320,192,3070,1,0,0:0:0:0:
320,192,3291,1,0,0:0:0:0:
192,192,3401,1,0,0:0:0:0:
64,192,3511,1,0,0:0:0:0:
192,192,3622,1,0,0:0:0:0:
320,192,3732,1,0,0:0:0:0:
448,192,3842,1,0,0:0:0:0:
192,192,3953,1,0,0:0:0:0:
320,192,4063,1,0,0:0:0:0:
448,192,4173,128,0,4394:0:0:0:0:
64,192,4394,1,0,0:0:0:0:
320,192,4504,1,0,0:0:0:0:
448,192,4725,1,0,0:0:0:0:
192,192,4835,1,0,0:0:0:0:
192,192,5056,1,0,0:0:0:0:
320,192,5277,1,0,0:0:0:0:
192,192,5387,1,0,0:0:0:0:
64,192,5608,1,0,0:0:0:0:
448,192,5718,1,0,0:0:0:0:
448,192,5939,1,0,0:0:0:0:
320,192,6159,1,0,0:0:0:0:
64,192,6270,1,0,0:0:0:0:
448,192,6490,1,0,0:0:0:0:
192,192,6601,1,0,0:0:0:0:
64,192,6821,1,0,0:0:0:0:
192,192,6876,1,0,0:0:0:0:
320,192,6932,1,0,0:0:0:0:
448,192,7042,1,0,0:0:0:0:
320,192,7152,1,0,0:0:0:0:
192,192,7263,1,0,0:0:0:0:
64,192,7373,1,0,0:0:0:0:
320,192,7483,1,0,0:0:0:0:
192,192,7594,1,0,0:0:0:0:
64,192,7704,1,0,0:0:0:0:
448,192,7704,128,0,10131:0:0:0:0:
320,192,7814,1,0,0:0:0:0:
192,192,7925,1,0,0:0:0:0:
64,192,8035,1,0,0:0:0:0:
320,192,8256,1,0,0:0:0:0:
64,192,8366,1,0,0:0:0:0:
64,192,8587,1,0,0:0:0:0:
320,192,8807,1,0,0:0:0:0:
64,192,8918,1,0,0:0:0:0:
64,192,9138,1,0,0:0:0:0:
320,192,9249,1,0,0:0:0:0:
320,192,9469,1,0,0:0:0:0:
64,192,9690,1,0,0:0:0:0:
320,192,9800,1,0,0:0:0:0:
320,192,10021,1,0,0:0:0:0:
64,192,10131,1,0,0:0:0:0:
64,192,10352,1,0,0:0:0:0:
448,192,10352,1,0,0:0:0:0:
192,192,10352,1,0,0:0:0:0:
320,192,10462,1,0,0:0:0:0:
192,192,10573,1,0,0:0:0:0:
320,192,10683,1,0,0:0:0:0:
64,192,10793,1,0,0:0:0:0:
448,192,10793,1,0,0:0:0:0:
192,192,10793,1,0,0:0:0:0:
320,192,10904,1,0,0:0:0:0:
192,192,11014,1,0,0:0:0:0:
320,192,11124,1,0,0:0:0:0:
192,192,11235,1,0,0:0:0:0:
64,192,11235,1,0,0:0:0:0:
448,192,11235,128,0,11676:0:0:0:0:
192,192,11676,1,0,0:0:0:0:
64,192,11676,128,0,13662:0:0:0:0:
320,192,11786,1,0,0:0:0:0:
448,192,11897,1,0,0:0:0:0:
448,192,12117,1,0,0:0:0:0:
192,192,12338,1,0,0:0:0:0:
448,192,12448,1,0,0:0:0:0:
448,192,12669,1,0,0:0:0:0:
192,192,12779,1,0,0:0:0:0:
192,192,13000,1,0,0:0:0:0:
448,192,13221,1,0,0:0:0:0:
192,192,13331,1,0,0:0:0:0:
192,192,13552,1,0,0:0:0:0:
448,192,13662,1,0,0:0:0:0:
192,192,13883,1,0,0:0:0:0:
64,192,13883,1,0,0:0:0:0:
320,192,13993,1,0,0:0:0:0:
448,192,13993,1,0,0:0:0:0:
192,192,14103,1,0,0:0:0:0:
64,192,14103,1,0,0:0:0:0:
320,192,14214,1,0,0:0:0:0:
448,192,14214,1,0,0:0:0:0:
192,192,14324,1,0,0:0:0:0:
64,192,14324,1,0,0:0:0:0:
320,192,14434,1,0,0:0:0:0:
448,192,14434,1,0,0:0:0:0:
192,192,14545,1,0,0:0:0:0:
64,192,14545,1,0,0:0:0:0:
320,192,14655,1,0,0:0:0:0:
448,192,14655,1,0,0:0:0:0:
192,192,14765,1,0,0:0:0:0:
64,192,14765,1,0,0:0:0:0:
448,192,14765,1,0,0:0:0:0:
320,192,14876,1,0,0:0:0:0:
192,192,14876,1,0,0:0:0:0:
448,192,14986,1,0,0:0:0:0:
64,192,14986,1,0,0:0:0:0:
192,192,15096,1,0,0:0:0:0:
448,192,15207,1,0,0:0:0:0:
320,192,15317,1,0,0:0:0:0:
192,192,15427,1,0,0:0:0:0:
64,192,15427,1,0,0:0:0:0:
320,192,15538,1,0,0:0:0:0:
448,192,15648,1,0,0:0:0:0:
192,192,15758,1,0,0:0:0:0:
64,192,15869,1,0,0:0:0:0:
320,192,15869,1,0,0:0:0:0:
448,192,15979,1,0,0:0:0:0:
192,192,16089,1,0,0:0:0:0:
64,192,16200,1,0,0:0:0:0:
320,192,16310,1,0,0:0:0:0:
448,192,16310,1,0,0:0:0:0:
192,192,16420,1,0,0:0:0:0:
320,192,16531,1,0,0:0:0:0:
192,192,16641,1,0,0:0:0:0:
448,192,16751,1,0,0:0:0:0:
64,192,16751,1,0,0:0:0:0:
320,192,16862,1,0,0:0:0:0:
64,192,16972,1,0,0:0:0:0:
320,192,17082,1,0,0:0:0:0:
192,192,17193,1,0,0:0:0:0:
448,192,17193,1,0,0:0:0:0:
64,192,17303,1,0,0:0:0:0:
320,192,17413,128,0,17524:0:0:0:0:
192,192,17413,128,0,17524:0:0:0:0:
448,192,17524,128,0,17634:0:0:0:0:
192,192,17634,128,0,17744:0:0:0:0:
64,192,17634,128,0,17744:0:0:0:0:
320,192,17744,128,0,17855:0:0:0:0:
192,192,17855,128,0,17965:0:0:0:0:
448,192,17855,128,0,17965:0:0:0:0:
64,192,17965,128,0,18075:0:0:0:0:
192,192,18075,128,0,18186:0:0:0:0:
320,192,18075,128,0,18186:0:0:0:0:
448,192,18186,128,0,18296:0:0:0:0:
64,192,18296,128,0,18517:0:0:0:0:
320,192,18517,1,0,0:0:0:0:
448,192,18517,1,0,0:0:0:0:
64,192,18627,1,0,0:0:0:0:
320,192,18737,1,0,0:0:0:0:
64,192,18848,1,0,0:0:0:0:
192,192,18958,1,0,0:0:0:0:
448,192,18958,1,0,0:0:0:0:
320,192,19068,1,0,0:0:0:0:
448,192,19179,1,0,0:0:0:0:
192,192,19289,1,0,0:0:0:0:
448,192,19399,1,0,0:0:0:0:
320,192,19399,1,0,0:0:0:0:
64,192,19510,1,0,0:0:0:0:
320,192,19620,1,0,0:0:0:0:
192,192,19730,1,0,0:0:0:0:
64,192,19841,1,0,0:0:0:0:
320,192,19841,1,0,0:0:0:0:
448,192,19951,1,0,0:0:0:0:
192,192,20061,1,0,0:0:0:0:
320,192,20172,1,0,0:0:0:0:
192,192,20282,1,0,0:0:0:0:
64,192,20282,1,0,0:0:0:0:
320,192,20392,1,0,0:0:0:0:
192,192,20503,1,0,0:0:0:0:
320,192,20613,1,0,0:0:0:0:
448,192,20723,1,0,0:0:0:0:
64,192,20723,1,0,0:0:0:0:
320,192,20834,1,0,0:0:0:0:
64,192,20944,128,0,21054:0:0:0:0:
448,192,20944,128,0,21054:0:0:0:0:
320,192,21054,128,0,21165:0:0:0:0:
448,192,21165,128,0,21275:0:0:0:0:
192,192,21165,128,0,21275:0:0:0:0:
64,192,21275,128,0,21385:0:0:0:0:
192,192,21385,128,0,21496:0:0:0:0:
320,192,21385,128,0,21496:0:0:0:0:
448,192,21496,128,0,21606:0:0:0:0:
320,192,21606,128,0,21716:0:0:0:0:
192,192,21606,128,0,21716:0:0:0:0:
64,192,21716,128,0,21827:0:0:0:0:
320,192,21827,1,0,0:0:0:0:
448,192,21827,1,0,0:0:0:0:
320,192,21937,1,0,0:0:0:0:
448,192,21937,1,0,0:0:0:0:
64,192,22047,1,0,0:0:0:0:
448,192,22047,1,0,0:0:0:0:
192,192,22158,1,0,0:0:0:0:
448,192,22268,1,0,0:0:0:0:
192,192,22378,1,0,0:0:0:0:
64,192,22489,1,0,0:0:0:0:
320,192,22489,1,0,0:0:0:0:
448,192,22599,1,0,0:0:0:0:
192,192,22709,1,0,0:0:0:0:
320,192,22820,1,0,0:0:0:0:
192,192,22930,1,0,0:0:0:0:
64,192,22930,1,0,0:0:0:0:
448,192,23040,1,0,0:0:0:0:
192,192,23151,1,0,0:0:0:0:
64,192,23261,1,0,0:0:0:0:
320,192,23371,1,0,0:0:0:0:
192,192,23371,1,0,0:0:0:0:
448,192,23482,1,0,0:0:0:0:
64,192,23592,1,0,0:0:0:0:
320,192,23702,1,0,0:0:0:0:
192,192,23813,1,0,0:0:0:0:
448,192,23813,1,0,0:0:0:0:
64,192,23923,1,0,0:0:0:0:
448,192,24033,1,0,0:0:0:0:
192,192,24144,1,0,0:0:0:0:
320,192,24254,1,0,0:0:0:0:
448,192,24254,1,0,0:0:0:0:
192,192,24364,1,0,0:0:0:0:
64,192,24475,128,0,24585:0:0:0:0:
448,192,24475,128,0,24585:0:0:0:0:
320,192,24585,128,0,24695:0:0:0:0:
192,192,24695,128,0,24806:0:0:0:0:
64,192,24695,128,0,24806:0:0:0:0:
320,192,24806,128,0,24916:0:0:0:0:
192,192,24916,128,0,25026:0:0:0:0:
448,192,24916,128,0,25026:0:0:0:0:
64,192,25026,128,0,25137:0:0:0:0:
320,192,25137,128,0,25247:0:0:0:0:
448,192,25137,128,0,25247:0:0:0:0:
192,192,25247,128,0,25357:0:0:0:0:
448,192,25357,128,0,25578:0:0:0:0:
192,192,25578,1,0,0:0:0:0:
64,192,25578,1,0,0:0:0:0:
320,192,25688,1,0,0:0:0:0:
192,192,25799,1,0,0:0:0:0:
448,192,25909,1,0,0:0:0:0:
320,192,26019,1,0,0:0:0:0:
64,192,26019,1,0,0:0:0:0:
192,192,26130,1,0,0:0:0:0:
320,192,26240,1,0,0:0:0:0:
192,192,26350,1,0,0:0:0:0:
64,192,26461,1,0,0:0:0:0:
448,192,26461,1,0,0:0:0:0:
320,192,26571,1,0,0:0:0:0:
64,192,26681,1,0,0:0:0:0:
320,192,26792,1,0,0:0:0:0:
448,192,26902,1,0,0:0:0:0:
192,192,26902,1,0,0:0:0:0:
64,192,27012,1,0,0:0:0:0:
320,192,27123,1,0,0:0:0:0:
64,192,27233,1,0,0:0:0:0:
192,192,27343,1,0,0:0:0:0:
320,192,27343,1,0,0:0:0:0:
448,192,27454,1,0,0:0:0:0:
192,192,27564,1,0,0:0:0:0:
320,192,27674,1,0,0:0:0:0:
64,192,27785,1,0,0:0:0:0:
448,192,27785,1,0,0:0:0:0:
64,192,28006,1,0,0:0:0:0:
192,192,28006,1,0,0:0:0:0:
448,192,28006,1,0,0:0:0:0:
320,192,28116,1,0,0:0:0:0:
192,192,28226,1,0,0:0:0:0:
320,192,28337,1,0,0:0:0:0:
192,192,28447,1,0,0:0:0:0:
448,192,28447,1,0,0:0:0:0:
64,192,28447,1,0,0:0:0:0:
320,192,28557,1,0,0:0:0:0:
192,192,28668,1,0,0:0:0:0:
320,192,28778,1,0,0:0:0:0:
448,192,28888,128,0,29219:0:0:0:0:
64,192,28888,128,0,29219:0:0:0:0:
192,192,28888,128,0,29661:0:0:0:0:
448,192,29330,1,0,0:0:0:0:
64,192,29330,1,0,0:0:0:0:
320,192,29330,128,0,29661:0:0:0:0:
64,192,29771,1,0,0:0:0:0:
448,192,29771,1,0,0:0:0:0:
320,192,29771,1,0,0:0:0:0:
192,192,29881,1,0,0:0:0:0:
320,192,29992,1,0,0:0:0:0:
192,192,30102,1,0,0:0:0:0:
64,192,30212,1,0,0:0:0:0:
320,192,30212,1,0,0:0:0:0:
448,192,30212,1,0,0:0:0:0:
192,192,30323,1,0,0:0:0:0:
64,192,30433,1,0,0:0:0:0:
192,192,30543,1,0,0:0:0:0:
448,192,30654,128,0,30985:0:0:0:0:
64,192,30654,128,0,30985:0:0:0:0:
320,192,30654,128,0,31426:0:0:0:0:
64,192,31095,1,0,0:0:0:0:
448,192,31095,1,0,0:0:0:0:
192,192,31095,128,0,31426:0:0:0:0:
448,192,31536,1,0,0:0:0:0:
64,192,31536,1,0,0:0:0:0:
192,192,31536,1,0,0:0:0:0:
320,192,31647,1,0,0:0:0:0:
192,192,31757,1,0,0:0:0:0:
320,192,31867,1,0,0:0:0:0:
64,192,31978,1,0,0:0:0:0:
192,192,31978,1,0,0:0:0:0:
448,192,31978,1,0,0:0:0:0:
320,192,32088,1,0,0:0:0:0:
448,192,32198,1,0,0:0:0:0:
320,192,32309,1,0,0:0:0:0:
192,192,32419,1,0,0:0:0:0:
448,192,32419,1,0,0:0:0:0:
64,192,32419,128,0,32860:0:0:0:0:
320,192,32750,128,0,32860:0:0:0:0:
448,192,32860,128,0,32971:0:0:0:0:
192,192,32860,1,0,0:0:0:0:
64,192,32971,1,0,0:0:0:0:
320,192,33081,128,0,33191:0:0:0:0:
192,192,33081,1,0,0:0:0:0:
448,192,33191,1,0,0:0:0:0:
192,192,33302,128,0,33412:0:0:0:0:
320,192,33302,1,0,0:0:0:0:
64,192,33412,1,0,0:0:0:0:
64,192,33522,128,0,33633:0:0:0:0:
320,192,33522,1,0,0:0:0:0:
192,192,33633,1,0,0:0:0:0:
448,192,33743,1,0,0:0:0:0:
320,192,33743,1,0,0:0:0:0:
64,192,33853,1,0,0:0:0:0:
192,192,33908,1,0,0:0:0:0:
320,192,33964,1,0,0:0:0:0:
448,192,34019,1,0,0:0:0:0:
64,192,34019,1,0,0:0:0:0:
192,192,34074,1,0,0:0:0:0:
320,192,34129,1,0,0:0:0:0:
448,192,34184,1,0,0:0:0:0:
64,192,34184,1,0,0:0:0:0:
192,192,34184,1,0,0:0:0:0:
320,192,34405,1,0,0:0:0:0:
192,192,34405,1,0,0:0:0:0:
320,192,34515,1,0,0:0:0:0:
64,192,34515,1,0,0:0:0:0:
448,192,34515,1,0,0:0:0:0:
192,192,34736,1,0,0:0:0:0:
320,192,34736,1,0,0:0:0:0:
192,192,34846,1,0,0:0:0:0:
64,192,34846,1,0,0:0:0:0:
448,192,34846,1,0,0:0:0:0:
320,192,35067,1,0,0:0:0:0:
448,192,35067,1,0,0:0:0:0:
192,192,35177,1,0,0:0:0:0:
320,192,35177,1,0,0:0:0:0:
448,192,35177,1,0,0:0:0:0:
192,192,35398,1,0,0:0:0:0:
64,192,35398,1,0,0:0:0:0:
64,192,35508,1,0,0:0:0:0:
192,192,35508,1,0,0:0:0:0:
320,192,35508,1,0,0:0:0:0:
64,192,35729,1,0,0:0:0:0:
320,192,35729,1,0,0:0:0:0:
448,192,35729,1,0,0:0:0:0:
192,192,35729,1,0,0:0:0:0:
320,192,35950,128,0,36281:0:0:0:0:
192,192,35950,128,0,36281:0:0:0:0:
448,192,35950,128,0,36722:0:0:0:0:
64,192,35950,128,0,36722:0:0:0:0:
192,192,36391,1,0,0:0:0:0:
320,192,36391,1,0,0:0:0:0:
192,192,36832,1,0,0:0:0:0:
320,192,36832,1,0,0:0:0:0:
64,192,36832,1,0,0:0:0:0:
448,192,36832,1,0,0:0:0:0:
320,192,37053,1,0,0:0:0:0:
448,192,37053,1,0,0:0:0:0:
320,192,37274,1,0,0:0:0:0:
448,192,37274,1,0,0:0:0:0:
192,192,37384,1,0,0:0:0:0:
64,192,37384,1,0,0:0:0:0:
320,192,37494,1,0,0:0:0:0:
448,192,37494,1,0,0:0:0:0:
192,192,37605,1,0,0:0:0:0:
64,192,37605,1,0,0:0:0:0:
320,192,37715,1,0,0:0:0:0:
448,192,37715,128,0,38487:0:0:0:0:
64,192,37936,1,0,0:0:0:0:
192,192,37936,1,0,0:0:0:0:
320,192,38156,1,0,0:0:0:0:
192,192,38267,1,0,0:0:0:0:
320,192,38377,1,0,0:0:0:0:
64,192,38377,1,0,0:0:0:0:
192,192,38487,128,0,39039:0:0:0:0:
320,192,38598,1,0,0:0:0:0:
64,192,38708,1,0,0:0:0:0:
320,192,38818,1,0,0:0:0:0:
448,192,38818,1,0,0:0:0:0:
320,192,39039,1,0,0:0:0:0:
64,192,39039,1,0,0:0:0:0:
192,192,39149,1,0,0:0:0:0:
448,192,39149,1,0,0:0:0:0:
320,192,39260,1,0,0:0:0:0:
64,192,39260,1,0,0:0:0:0:
192,192,39370,1,0,0:0:0:0:
448,192,39370,1,0,0:0:0:0:
64,192,39480,128,0,39811:0:0:0:0:
320,192,39591,1,0,0:0:0:0:
192,192,39701,1,0,0:0:0:0:
448,192,39701,1,0,0:0:0:0:
320,192,39811,128,0,40142:0:0:0:0:
192,192,39922,1,0,0:0:0:0:
448,192,40032,1,0,0:0:0:0:
64,192,40142,1,0,0:0:0:0:
192,192,40142,128,0,40473:0:0:0:0:
320,192,40473,1,0,0:0:0:0:
64,192,40584,1,0,0:0:0:0:
448,192,40584,1,0,0:0:0:0:
192,192,40694,1,0,0:0:0:0:
320,192,40694,1,0,0:0:0:0:
64,192,40804,1,0,0:0:0:0:
448,192,40804,1,0,0:0:0:0:
320,192,40915,128,0,41246:0:0:0:0:
192,192,40915,1,0,0:0:0:0:
64,192,41246,128,0,42128:0:0:0:0:
192,192,41466,1,0,0:0:0:0:
448,192,41466,1,0,0:0:0:0:
320,192,41687,1,0,0:0:0:0:
192,192,41797,1,0,0:0:0:0:
320,192,41908,1,0,0:0:0:0:
448,192,41908,1,0,0:0:0:0:
192,192,42128,1,0,0:0:0:0:
320,192,42239,1,0,0:0:0:0:
64,192,42349,1,0,0:0:0:0:
448,192,42349,1,0,0:0:0:0:
192,192,42459,1,0,0:0:0:0:
320,192,42459,1,0,0:0:0:0:
192,192,42680,1,0,0:0:0:0:
64,192,42790,1,0,0:0:0:0:
448,192,42790,1,0,0:0:0:0:
192,192,42901,1,0,0:0:0:0:
320,192,42901,1,0,0:0:0:0:
64,192,43011,1,0,0:0:0:0:
320,192,43011,1,0,0:0:0:0:
448,192,43011,1,0,0:0:0:0:
192,192,43232,1,0,0:0:0:0:
320,192,43232,1,0,0:0:0:0:
64,192,43342,1,0,0:0:0:0:
192,192,43342,1,0,0:0:0:0:
448,192,43342,1,0,0:0:0:0:
320,192,43563,1,0,0:0:0:0:
448,192,43563,1,0,0:0:0:0:
192,192,43673,1,0,0:0:0:0:
320,192,43673,1,0,0:0:0:0:
448,192,43673,1,0,0:0:0:0:
192,192,43894,1,0,0:0:0:0:
64,192,43894,1,0,0:0:0:0:
64,192,44004,1,0,0:0:0:0:
192,192,44004,1,0,0:0:0:0:
320,192,44004,1,0,0:0:0:0:
320,192,44225,1,0,0:0:0:0:
448,192,44225,1,0,0:0:0:0:
192,192,44335,1,0,0:0:0:0:
320,192,44335,1,0,0:0:0:0:
448,192,44335,1,0,0:0:0:0:
64,192,44556,1,0,0:0:0:0:
448,192,44556,1,0,0:0:0:0:
192,192,44666,1,0,0:0:0:0:
320,192,44666,1,0,0:0:0:0:
320,192,44776,1,0,0:0:0:0:
448,192,44776,1,0,0:0:0:0:
64,192,44776,128,0,45549:0:0:0:0:
192,192,44997,1,0,0:0:0:0:
448,192,44997,1,0,0:0:0:0:
320,192,45218,1,0,0:0:0:0:
192,192,45328,1,0,0:0:0:0:
448,192,45438,1,0,0:0:0:0:
320,192,45438,1,0,0:0:0:0:
192,192,45549,128,0,46100:0:0:0:0:
320,192,45769,1,0,0:0:0:0:
64,192,45880,1,0,0:0:0:0:
448,192,45880,1,0,0:0:0:0:
64,192,46100,1,0,0:0:0:0:
320,192,46100,1,0,0:0:0:0:
192,192,46211,1,0,0:0:0:0:
448,192,46211,1,0,0:0:0:0:
320,192,46321,1,0,0:0:0:0:
64,192,46321,1,0,0:0:0:0:
192,192,46431,1,0,0:0:0:0:
448,192,46431,1,0,0:0:0:0:
64,192,46542,1,0,0:0:0:0:
320,192,46542,128,0,46873:0:0:0:0:
192,192,46762,1,0,0:0:0:0:
64,192,46762,1,0,0:0:0:0:
448,192,46873,128,0,47204:0:0:0:0:
192,192,46983,1,0,0:0:0:0:
64,192,47093,1,0,0:0:0:0:
192,192,47204,128,0,47866:0:0:0:0:
320,192,47204,1,0,0:0:0:0:
448,192,47535,1,0,0:0:0:0:
64,192,47645,1,0,0:0:0:0:
320,192,47645,1,0,0:0:0:0:
64,192,47866,128,0,48307:0:0:0:0:
320,192,47976,1,0,0:0:0:0:
448,192,48086,128,0,48307:0:0:0:0:
192,192,48086,1,0,0:0:0:0:
320,192,48307,128,0,49190:0:0:0:0:
192,192,48528,1,0,0:0:0:0:
448,192,48528,1,0,0:0:0:0:
64,192,48748,1,0,0:0:0:0:
448,192,48859,1,0,0:0:0:0:
192,192,48969,1,0,0:0:0:0:
64,192,48969,1,0,0:0:0:0:
448,192,49079,1,0,0:0:0:0:
192,192,49190,1,0,0:0:0:0:
64,192,49300,1,0,0:0:0:0:
320,192,49300,1,0,0:0:0:0:
192,192,49410,1,0,0:0:0:0:
448,192,49410,1,0,0:0:0:0:
320,192,49521,1,0,0:0:0:0:
64,192,49631,1,0,0:0:0:0:
192,192,49631,1,0,0:0:0:0:
320,192,49741,1,0,0:0:0:0:
448,192,49741,1,0,0:0:0:0:
64,192,49852,1,0,0:0:0:0:
192,192,49907,1,0,0:0:0:0:
320,192,49962,1,0,0:0:0:0:
448,192,50017,1,0,0:0:0:0:
192,192,50072,1,0,0:0:0:0:
64,192,50072,1,0,0:0:0:0:
64,192,50293,1,0,0:0:0:0:
320,192,50293,1,0,0:0:0:0:
192,192,50403,1,0,0:0:0:0:
320,192,50431,1,0,0:0:0:0:
448,192,50459,1,0,0:0:0:0:
64,192,50624,1,0,0:0:0:0:
320,192,50624,1,0,0:0:0:0:
192,192,50734,1,0,0:0:0:0:
320,192,50762,1,0,0:0:0:0:
448,192,50790,1,0,0:0:0:0:
64,192,50955,1,0,0:0:0:0:
320,192,50955,1,0,0:0:0:0:
192,192,51065,1,0,0:0:0:0:
320,192,51093,1,0,0:0:0:0:
448,192,51121,1,0,0:0:0:0:
192,192,51286,1,0,0:0:0:0:
320,192,51396,1,0,0:0:0:0:
448,192,51396,1,0,0:0:0:0:
192,192,51507,1,0,0:0:0:0:
64,192,51507,1,0,0:0:0:0:
320,192,51617,1,0,0:0:0:0:
448,192,51617,1,0,0:0:0:0:
192,192,51727,1,0,0:0:0:0:
64,192,51727,1,0,0:0:0:0:
64,192,51838,1,0,0:0:0:0:
448,192,51838,1,0,0:0:0:0:
320,192,51838,1,0,0:0:0:0:
192,192,51948,1,0,0:0:0:0:
320,192,52058,1,0,0:0:0:0:
448,192,52058,1,0,0:0:0:0:
64,192,52169,1,0,0:0:0:0:
192,192,52279,1,0,0:0:0:0:
448,192,52279,1,0,0:0:0:0:
320,192,52389,1,0,0:0:0:0:
64,192,52500,1,0,0:0:0:0:
448,192,52500,1,0,0:0:0:0:
192,192,52610,1,0,0:0:0:0:
320,192,52610,1,0,0:0:0:0:
64,192,52720,1,0,0:0:0:0:
448,192,52720,128,0,52941:0:0:0:0:
320,192,52831,1,0,0:0:0:0:
192,192,52941,1,0,0:0:0:0:
64,192,52941,1,0,0:0:0:0:
448,192,53051,1,0,0:0:0:0:
64,192,53162,1,0,0:0:0:0:
320,192,53162,1,0,0:0:0:0:
192,192,53272,1,0,0:0:0:0:
64,192,53382,1,0,0:0:0:0:
320,192,53382,1,0,0:0:0:0:
192,192,53493,1,0,0:0:0:0:
448,192,53493,1,0,0:0:0:0:
320,192,53603,1,0,0:0:0:0:
64,192,53603,128,0,53824:0:0:0:0:
192,192,53713,1,0,0:0:0:0:
320,192,53824,1,0,0:0:0:0:
448,192,53824,1,0,0:0:0:0:
64,192,53934,1,0,0:0:0:0:
192,192,54044,1,0,0:0:0:0:
448,192,54044,1,0,0:0:0:0:
320,192,54155,1,0,0:0:0:0:
192,192,54265,1,0,0:0:0:0:
448,192,54265,1,0,0:0:0:0:
64,192,54375,1,0,0:0:0:0:
320,192,54375,1,0,0:0:0:0:
448,192,54486,1,0,0:0:0:0:
192,192,54486,128,0,54706:0:0:0:0:
64,192,54596,1,0,0:0:0:0:
320,192,54706,1,0,0:0:0:0:
448,192,54706,1,0,0:0:0:0:
64,192,54817,1,0,0:0:0:0:
192,192,54927,1,0,0:0:0:0:
320,192,54927,1,0,0:0:0:0:
448,192,55037,1,0,0:0:0:0:
192,192,55148,1,0,0:0:0:0:
64,192,55148,1,0,0:0:0:0:
448,192,55258,1,0,0:0:0:0:
320,192,55258,1,0,0:0:0:0:
192,192,55369,1,0,0:0:0:0:
64,192,55369,1,0,0:0:0:0:
448,192,55369,128,0,55589:0:0:0:0:
320,192,55589,1,0,0:0:0:0:
192,192,55589,1,0,0:0:0:0:
64,192,55700,1,0,0:0:0:0:
448,192,55810,1,0,0:0:0:0:
320,192,55810,1,0,0:0:0:0:
192,192,55920,1,0,0:0:0:0:
448,192,56031,1,0,0:0:0:0:
64,192,56031,1,0,0:0:0:0:
192,192,56141,1,0,0:0:0:0:
320,192,56141,1,0,0:0:0:0:
448,192,56251,1,0,0:0:0:0:
64,192,56251,128,0,56472:0:0:0:0:
192,192,56362,1,0,0:0:0:0:
320,192,56472,1,0,0:0:0:0:
448,192,56472,1,0,0:0:0:0:
64,192,56582,1,0,0:0:0:0:
192,192,56693,1,0,0:0:0:0:
448,192,56693,1,0,0:0:0:0:
320,192,56803,1,0,0:0:0:0:
64,192,56913,1,0,0:0:0:0:
192,192,56913,1,0,0:0:0:0:
320,192,57024,1,0,0:0:0:0:
448,192,57024,1,0,0:0:0:0:
64,192,57134,1,0,0:0:0:0:
192,192,57134,128,0,57355:0:0:0:0:
320,192,57244,1,0,0:0:0:0:
64,192,57355,1,0,0:0:0:0:
448,192,57355,1,0,0:0:0:0:
320,192,57465,1,0,0:0:0:0:
192,192,57575,1,0,0:0:0:0:
448,192,57575,1,0,0:0:0:0:
320,192,57686,1,0,0:0:0:0:
64,192,57796,1,0,0:0:0:0:
192,192,57796,1,0,0:0:0:0:
448,192,57906,1,0,0:0:0:0:
320,192,57906,1,0,0:0:0:0:
192,192,58017,1,0,0:0:0:0:
64,192,58017,128,0,58237:0:0:0:0:
320,192,58127,128,0,58237:0:0:0:0:
448,192,58127,128,0,58237:0:0:0:0:
192,192,58237,128,0,58458:0:0:0:0:
448,192,58348,128,0,58458:0:0:0:0:
64,192,58348,128,0,58458:0:0:0:0:
320,192,58458,128,0,58679:0:0:0:0:
64,192,58568,128,0,58679:0:0:0:0:
448,192,58568,128,0,58679:0:0:0:0:
192,192,58679,128,0,58899:0:0:0:0:
448,192,58789,128,0,58899:0:0:0:0:
320,192,58789,128,0,58899:0:0:0:0:
64,192,58899,128,0,59120:0:0:0:0:
320,192,59010,128,0,59120:0:0:0:0:
192,192,59010,128,0,59120:0:0:0:0:
448,192,59120,128,0,59341:0:0:0:0:
192,192,59230,128,0,59341:0:0:0:0:
64,192,59230,128,0,59341:0:0:0:0:
320,192,59341,128,0,59561:0:0:0:0:
192,192,59451,128,0,59561:0:0:0:0:
448,192,59451,128,0,59561:0:0:0:0:
64,192,59561,128,0,59782:0:0:0:0:
320,192,59672,128,0,59782:0:0:0:0:
448,192,59672,128,0,59782:0:0:0:0:
192,192,59782,1,0,0:0:0:0:
64,192,59892,128,0,60113:0:0:0:0:
320,192,59892,128,0,60113:0:0:0:0:
192,192,60003,128,0,60113:0:0:0:0:
448,192,60113,1,0,0:0:0:0:
64,192,60223,128,0,60334:0:0:0:0:
448,192,60223,128,0,60334:0:0:0:0:
192,192,60334,128,0,60444:0:0:0:0:
320,192,60444,128,0,60554:0:0:0:0:
448,192,60444,128,0,60554:0:0:0:0:
192,192,60554,1,0,0:0:0:0:
64,192,60665,1,0,0:0:0:0:
448,192,60665,1,0,0:0:0:0:
320,192,60775,1,0,0:0:0:0:
192,192,60885,1,0,0:0:0:0:
64,192,60996,1,0,0:0:0:0:
448,192,60996,1,0,0:0:0:0:
320,192,60996,1,0,0:0:0:0:
192,192,61106,1,0,0:0:0:0:
64,192,61216,1,0,0:0:0:0:
320,192,61327,1,0,0:0:0:0:
448,192,61327,1,0,0:0:0:0:
320,192,61437,1,0,0:0:0:0:
448,192,61437,1,0,0:0:0:0:
448,192,61547,1,0,0:0:0:0:
192,192,61547,1,0,0:0:0:0:
64,192,61547,128,0,63313:0:0:0:0:
192,192,61768,1,0,0:0:0:0:
320,192,61768,1,0,0:0:0:0:
448,192,61989,1,0,0:0:0:0:
320,192,62099,1,0,0:0:0:0:
448,192,62209,1,0,0:0:0:0:
192,192,62209,1,0,0:0:0:0:
192,192,62430,1,0,0:0:0:0:
320,192,62651,1,0,0:0:0:0:
448,192,62651,1,0,0:0:0:0:
192,192,62761,1,0,0:0:0:0:
192,192,62982,1,0,0:0:0:0:
320,192,63092,1,0,0:0:0:0:
448,192,63092,1,0,0:0:0:0:
192,192,63313,1,0,0:0:0:0:
448,192,63313,128,0,63754:0:0:0:0:
64,192,63533,1,0,0:0:0:0:
320,192,63533,1,0,0:0:0:0:
192,192,63754,128,0,64195:0:0:0:0:
64,192,63864,1,0,0:0:0:0:
320,192,63975,1,0,0:0:0:0:
448,192,63975,1,0,0:0:0:0:
320,192,64195,128,0,64637:0:0:0:0:
64,192,64195,1,0,0:0:0:0:
64,192,64416,1,0,0:0:0:0:
192,192,64416,1,0,0:0:0:0:
448,192,64526,1,0,0:0:0:0:
64,192,64637,128,0,65078:0:0:0:0:
192,192,64747,1,0,0:0:0:0:
320,192,64857,1,0,0:0:0:0:
448,192,64857,1,0,0:0:0:0:
448,192,65078,128,0,65961:0:0:0:0:
192,192,65078,1,0,0:0:0:0:
64,192,65299,1,0,0:0:0:0:
320,192,65299,1,0,0:0:0:0:
192,192,65519,1,0,0:0:0:0:
64,192,65630,1,0,0:0:0:0:
192,192,65740,1,0,0:0:0:0:
320,192,65740,1,0,0:0:0:0:
192,192,65961,128,0,66843:0:0:0:0:
64,192,65961,1,0,0:0:0:0:
320,192,66181,1,0,0:0:0:0:
448,192,66181,1,0,0:0:0:0:
64,192,66292,1,0,0:0:0:0:
64,192,66512,1,0,0:0:0:0:
320,192,66623,1,0,0:0:0:0:
448,192,66623,1,0,0:0:0:0:
64,192,66843,128,0,67726:0:0:0:0:
448,192,66843,1,0,0:0:0:0:
192,192,67064,1,0,0:0:0:0:
448,192,67064,1,0,0:0:0:0:
320,192,67285,1,0,0:0:0:0:
192,192,67395,1,0,0:0:0:0:
320,192,67505,1,0,0:0:0:0:
448,192,67505,1,0,0:0:0:0:
192,192,67726,1,0,0:0:0:0:
64,192,67836,1,0,0:0:0:0:
448,192,67836,1,0,0:0:0:0:
320,192,67836,1,0,0:0:0:0:
320,192,68057,1,0,0:0:0:0:
64,192,68167,1,0,0:0:0:0:
448,192,68167,1,0,0:0:0:0:
192,192,68278,1,0,0:0:0:0:
64,192,68388,1,0,0:0:0:0:
320,192,68388,1,0,0:0:0:0:
448,192,68388,1,0,0:0:0:0:
192,192,68609,128,0,69050:0:0:0:0:
64,192,79201,5,0,0:0:0:0:
192,192,79201,1,0,0:0:0:0:
448,192,79201,128,0,80083:0:0:0:0:
320,192,79311,1,0,0:0:0:0:
192,192,79421,1,0,0:0:0:0:
64,192,79532,1,0,0:0:0:0:
320,192,79642,1,0,0:0:0:0:
64,192,79752,1,0,0:0:0:0:
192,192,79863,1,0,0:0:0:0:
320,192,79973,1,0,0:0:0:0:
64,192,80083,1,0,0:0:0:0:
192,192,80083,128,0,80525:0:0:0:0:
320,192,80194,1,0,0:0:0:0:
448,192,80304,1,0,0:0:0:0:
320,192,80414,1,0,0:0:0:0:
64,192,80525,128,0,80966:0:0:0:0:
448,192,80525,1,0,0:0:0:0:
320,192,80635,1,0,0:0:0:0:
192,192,80745,1,0,0:0:0:0:
320,192,80856,1,0,0:0:0:0:
192,192,80966,1,0,0:0:0:0:
448,192,80966,128,0,81407:0:0:0:0:
64,192,81076,1,0,0:0:0:0:
192,192,81187,1,0,0:0:0:0:
64,192,81297,1,0,0:0:0:0:
192,192,81407,1,0,0:0:0:0:
320,192,81407,128,0,82290:0:0:0:0:
448,192,81518,1,0,0:0:0:0:
192,192,81628,1,0,0:0:0:0:
64,192,81738,1,0,0:0:0:0:
192,192,81849,1,0,0:0:0:0:
448,192,81959,1,0,0:0:0:0:
192,192,82069,1,0,0:0:0:0:
448,192,82180,1,0,0:0:0:0:
192,192,82290,128,0,82732:0:0:0:0:
64,192,82290,1,0,0:0:0:0:
320,192,82400,1,0,0:0:0:0:
448,192,82511,1,0,0:0:0:0:
320,192,82621,1,0,0:0:0:0:
448,192,82732,128,0,83173:0:0:0:0:
64,192,82732,1,0,0:0:0:0:
320,192,82842,1,0,0:0:0:0:
192,192,82952,1,0,0:0:0:0:
320,192,83063,1,0,0:0:0:0:
64,192,83173,1,0,0:0:0:0:
192,192,83173,128,0,84056:0:0:0:0:
320,192,83283,1,0,0:0:0:0:
64,192,83394,1,0,0:0:0:0:
320,192,83504,1,0,0:0:0:0:
448,192,83614,1,0,0:0:0:0:
320,192,83725,1,0,0:0:0:0:
64,192,83835,1,0,0:0:0:0:
320,192,83945,1,0,0:0:0:0:
448,192,84056,1,0,0:0:0:0:
64,192,84056,128,0,84497:0:0:0:0:
320,192,84166,1,0,0:0:0:0:
192,192,84276,1,0,0:0:0:0:
448,192,84387,1,0,0:0:0:0:
192,192,84497,1,0,0:0:0:0:
320,192,84497,128,0,84938:0:0:0:0:
64,192,84607,1,0,0:0:0:0:
448,192,84718,1,0,0:0:0:0:
192,192,84828,1,0,0:0:0:0:
448,192,84938,128,0,85380:0:0:0:0:
64,192,84938,1,0,0:0:0:0:
192,192,85049,1,0,0:0:0:0:
320,192,85159,1,0,0:0:0:0:
64,192,85269,1,0,0:0:0:0:
320,192,85380,128,0,85821:0:0:0:0:
192,192,85380,1,0,0:0:0:0:
448,192,85490,1,0,0:0:0:0:
64,192,85600,1,0,0:0:0:0:
192,192,85711,1,0,0:0:0:0:
448,192,85821,128,0,86262:0:0:0:0:
64,192,85821,128,0,86262:0:0:0:0:
192,192,86262,1,0,0:0:0:0:
320,192,86262,1,0,0:0:0:0:
64,192,121569,5,0,0:0:0:0:
448,192,121569,1,0,0:0:0:0:
320,192,121569,128,0,121790:0:0:0:0:
192,192,121790,1,0,0:0:0:0:
64,192,121790,1,0,0:0:0:0:
192,192,122011,1,0,0:0:0:0:
64,192,122011,1,0,0:0:0:0:
448,192,122011,128,0,122231:0:0:0:0:
320,192,122231,1,0,0:0:0:0:
64,192,122231,1,0,0:0:0:0:
192,192,122452,128,0,122673:0:0:0:0:
64,192,122452,1,0,0:0:0:0:
320,192,122452,1,0,0:0:0:0:
64,192,122673,1,0,0:0:0:0:
448,192,122673,1,0,0:0:0:0:
64,192,122893,128,0,123114:0:0:0:0:
320,192,122893,1,0,0:0:0:0:
448,192,122893,1,0,0:0:0:0:
192,192,123114,1,0,0:0:0:0:
320,192,123114,1,0,0:0:0:0:
448,192,123335,128,0,123555:0:0:0:0:
192,192,123335,1,0,0:0:0:0:
320,192,123335,1,0,0:0:0:0:
64,192,123555,1,0,0:0:0:0:
192,192,123555,1,0,0:0:0:0:
192,192,123776,128,0,123997:0:0:0:0:
448,192,123776,1,0,0:0:0:0:
64,192,123776,1,0,0:0:0:0:
320,192,123997,1,0,0:0:0:0:
64,192,123997,1,0,0:0:0:0:
320,192,124217,128,0,124438:0:0:0:0:
64,192,124217,1,0,0:0:0:0:
448,192,124217,1,0,0:0:0:0:
192,192,124438,1,0,0:0:0:0:
448,192,124438,1,0,0:0:0:0:
448,192,124659,128,0,124879:0:0:0:0:
192,192,124659,1,0,0:0:0:0:
320,192,124659,1,0,0:0:0:0:
64,192,124879,1,0,0:0:0:0:
320,192,124879,1,0,0:0:0:0:
192,192,125100,128,0,125321:0:0:0:0:
64,192,125100,1,0,0:0:0:0:
448,192,125100,1,0,0:0:0:0:
64,192,125321,1,0,0:0:0:0:
320,192,125321,1,0,0:0:0:0:
64,192,125541,128,0,125762:0:0:0:0:
448,192,125541,1,0,0:0:0:0:
192,192,125541,1,0,0:0:0:0:
320,192,125762,1,0,0:0:0:0:
448,192,125762,1,0,0:0:0:0:
320,192,125983,128,0,126203:0:0:0:0:
192,192,125983,1,0,0:0:0:0:
448,192,125983,1,0,0:0:0:0:
64,192,126203,1,0,0:0:0:0:
192,192,126203,1,0,0:0:0:0:
448,192,126424,128,0,126645:0:0:0:0:
64,192,126424,1,0,0:0:0:0:
320,192,126424,1,0,0:0:0:0:
64,192,126645,1,0,0:0:0:0:
192,192,126645,1,0,0:0:0:0:
192,192,126865,128,0,127086:0:0:0:0:
64,192,126865,1,0,0:0:0:0:
320,192,126865,1,0,0:0:0:0:
320,192,127086,1,0,0:0:0:0:
448,192,127086,1,0,0:0:0:0:
64,192,127307,1,0,0:0:0:0:
320,192,127307,128,0,127527:0:0:0:0:
448,192,127307,1,0,0:0:0:0:
448,192,127527,1,0,0:0:0:0:
192,192,127527,1,0,0:0:0:0:
64,192,127748,1,0,0:0:0:0:
192,192,127748,128,0,127969:0:0:0:0:
448,192,127748,128,0,128520:0:0:0:0:
320,192,127969,1,0,0:0:0:0:
64,192,127969,1,0,0:0:0:0:
64,192,128189,128,0,128410:0:0:0:0:
192,192,128189,1,0,0:0:0:0:
192,192,128410,1,0,0:0:0:0:
320,192,128410,1,0,0:0:0:0:
448,192,128631,1,0,0:0:0:0:
64,192,128631,1,0,0:0:0:0:
192,192,128686,1,0,0:0:0:0:
448,192,128741,1,0,0:0:0:0:
320,192,128796,1,0,0:0:0:0:
64,192,128851,1,0,0:0:0:0:
192,192,128907,1,0,0:0:0:0:
320,192,128962,1,0,0:0:0:0:
448,192,129017,1,0,0:0:0:0:
320,192,129072,1,0,0:0:0:0:
192,192,129127,1,0,0:0:0:0:
64,192,129182,1,0,0:0:0:0:
320,192,129238,1,0,0:0:0:0:
192,192,129293,1,0,0:0:0:0:
64,192,129348,1,0,0:0:0:0:
448,192,129403,1,0,0:0:0:0:
320,192,129458,1,0,0:0:0:0:
192,192,129513,1,0,0:0:0:0:
448,192,129569,1,0,0:0:0:0:
320,192,129624,1,0,0:0:0:0:
64,192,129679,1,0,0:0:0:0:
192,192,129734,1,0,0:0:0:0:
320,192,129789,1,0,0:0:0:0:
64,192,129844,1,0,0:0:0:0:
192,192,129900,1,0,0:0:0:0:
448,192,129955,1,0,0:0:0:0:
320,192,130010,1,0,0:0:0:0:
192,192,130065,1,0,0:0:0:0:
64,192,130120,1,0,0:0:0:0:
192,192,130175,1,0,0:0:0:0:
320,192,130231,1,0,0:0:0:0:
448,192,130286,1,0,0:0:0:0:
192,192,130341,1,0,0:0:0:0:
320,192,130396,1,0,0:0:0:0:
448,192,130451,1,0,0:0:0:0:
64,192,130506,1,0,0:0:0:0:
192,192,130562,1,0,0:0:0:0:
448,192,130617,1,0,0:0:0:0:
320,192,130672,1,0,0:0:0:0:
192,192,130727,1,0,0:0:0:0:
448,192,130837,1,0,0:0:0:0:
320,192,130893,1,0,0:0:0:0:
64,192,130948,1,0,0:0:0:0:
192,192,131003,1,0,0:0:0:0:
320,192,131058,1,0,0:0:0:0:
448,192,131113,1,0,0:0:0:0:
320,192,131168,1,0,0:0:0:0:
192,192,131224,1,0,0:0:0:0:
64,192,131279,1,0,0:0:0:0:
448,192,131334,1,0,0:0:0:0:
320,192,131389,1,0,0:0:0:0:
192,192,131444,1,0,0:0:0:0:
64,192,131499,1,0,0:0:0:0:
320,192,131555,1,0,0:0:0:0:
192,192,131610,1,0,0:0:0:0:
64,192,131665,1,0,0:0:0:0:
448,192,131720,1,0,0:0:0:0:
320,192,131775,1,0,0:0:0:0:
64,192,131830,1,0,0:0:0:0:
192,192,131886,1,0,0:0:0:0:
448,192,131941,1,0,0:0:0:0:
320,192,131996,1,0,0:0:0:0:
64,192,132051,1,0,0:0:0:0:
192,192,132106,1,0,0:0:0:0:
320,192,132161,1,0,0:0:0:0:
64,192,132217,1,0,0:0:0:0:
192,192,132272,1,0,0:0:0:0:
448,192,132327,1,0,0:0:0:0:
320,192,132382,1,0,0:0:0:0:
192,192,132437,1,0,0:0:0:0:
64,192,132492,1,0,0:0:0:0:
192,192,132548,1,0,0:0:0:0:
320,192,132603,1,0,0:0:0:0:
448,192,132658,1,0,0:0:0:0:
64,192,132713,1,0,0:0:0:0:
192,192,132768,1,0,0:0:0:0:
320,192,132823,1,0,0:0:0:0:
448,192,132879,1,0,0:0:0:0:
64,192,132934,1,0,0:0:0:0:
192,192,132989,1,0,0:0:0:0:
320,192,133044,1,0,0:0:0:0:
448,192,133099,1,0,0:0:0:0:
320,192,133154,1,0,0:0:0:0:
192,192,133210,1,0,0:0:0:0:
448,192,133265,1,0,0:0:0:0:
320,192,133320,1,0,0:0:0:0:
64,192,133375,1,0,0:0:0:0:
192,192,133430,1,0,0:0:0:0:
320,192,133485,1,0,0:0:0:0:
448,192,133541,1,0,0:0:0:0:
64,192,133596,1,0,0:0:0:0:
192,192,133651,1,0,0:0:0:0:
448,192,133706,1,0,0:0:0:0:
320,192,133761,1,0,0:0:0:0:
64,192,133816,1,0,0:0:0:0:
192,192,133872,1,0,0:0:0:0:
448,192,133927,1,0,0:0:0:0:
320,192,133982,1,0,0:0:0:0:
192,192,134037,1,0,0:0:0:0:
64,192,134092,1,0,0:0:0:0:
192,192,134147,1,0,0:0:0:0:
320,192,134203,1,0,0:0:0:0:
64,192,134258,1,0,0:0:0:0:
192,192,134313,1,0,0:0:0:0:
448,192,134368,1,0,0:0:0:0:
320,192,134423,1,0,0:0:0:0:
64,192,134478,1,0,0:0:0:0:
192,192,134534,1,0,0:0:0:0:
448,192,134589,1,0,0:0:0:0:
64,192,134644,1,0,0:0:0:0:
192,192,134699,1,0,0:0:0:0:
320,192,134754,1,0,0:0:0:0:
64,192,134809,1,0,0:0:0:0:
448,192,134809,1,0,0:0:0:0:
