osu file format v14

[General]
AudioFilename: S.O.S -DROP IT LOW.mp3
AudioLeadIn: 0
PreviewTime: 46791
Countdown: 0
SampleSet: None
StackLeniency: 0.2
Mode: 0
LetterboxInBreaks: 1
WidescreenStoryboard: 0

[Editor]
DistanceSpacing: 0.5
BeatDivisor: 4
GridSize: 8
TimelineZoom: 1.8

[Metadata]
Title:DROP IT LOW
TitleUnicode:DROP IT LOW
Artist:S.O.S
ArtistUnicode:S.O.S
Creator:Sadistic Potato
Version:Crushed
Source:
Tags:
BeatmapID:915982
BeatmapSetID:423963

[Difficulty]
HPDrainRate:6
CircleSize:4
OverallDifficulty:7
ApproachRate:9
SliderMultiplier:2.15
SliderTickRate:1

[Events]
//Background and Video events
0,0,"bg.jpg",0,0
//Break Periods
//Storyboard Layer 0 (Background)
//Storyboard Layer 1 (Fail)
//Storyboard Layer 2 (Pass)
//Storyboard Layer 3 (Foreground)
//Storyboard Sound Samples

[TimingPoints]
6245,468.75,4,2,0,50,1,0
6245,-133.333333333333,4,2,0,50,0,0
9995,-100,4,2,0,50,0,0
24995,-133.333333333333,4,2,0,50,0,0
27807,-100,4,2,0,50,0,0
45151,-133.333333333333,4,2,0,50,0,0
47495,-66.6666666666667,4,2,0,50,0,1
62495,-100,4,2,0,50,0,0
93120,-133.333333333333,4,2,0,50,0,0
93901,-100,4,2,0,50,0,0
94526,-133.333333333333,4,2,0,50,0,0
96245,-100,4,2,0,50,0,0
99995,-80,4,2,0,50,0,0
108901,-66.6666666666667,4,2,0,50,0,0
109370,-80,4,2,0,50,0,0
110307,-66.6666666666667,4,2,0,50,0,0
110776,-80,4,2,0,50,0,0
114995,-66.6666666666667,4,2,0,50,0,1
129995,-100,4,2,0,50,0,0
137495,-66.6666666666667,4,2,0,50,0,0
144057,-58.8235294117647,4,2,0,50,0,0
144995,-66.6666666666667,4,2,0,50,0,0
148745,-50,4,2,0,50,0,0
153901,-100,4,2,0,50,0,0
154213,-100,4,2,0,5,0,0
154838,-66.6666666666667,4,2,0,75,0,1
169370,-100,4,2,0,75,0,0
178276,-58.8235294117647,4,2,0,75,0,0
178745,-100,4,2,0,75,0,0
182026,-50,4,2,0,75,0,0
182495,-100,4,2,0,75,0,0

[Colours]
Combo1 : 64,0,128
Combo2 : 128,128,192
Combo3 : 128,0,0
Combo4 : 252,111,63

[HitObjects]
44,116,6245,6,0,L|104:108,2,53.7500020503998
108,12,6713,2,0,P|172:20|200:64,1,107.5000041008
164,172,7182,2,0,L|212:208,2,53.7500020503998
282,143,7650,2,0,P|321:193|310:244,1,107.5000041008
252,304,8120,6,0,L|260:364,2,53.7500020503998
392,244,8588,2,0,L|380:376,1,107.5000041008
488,276,9057,1,0,0:0:0:0:
400,112,9213,1,0,0:0:0:0:
237,290,9370,1,0,0:0:0:0:
416,344,9526,2,0,P|376:288|384:224,1,107.5000041008
468,96,9995,6,0,L|448:252,1,143.333333333333
352,12,10463,1,0,0:0:0:0:
164,88,10776,1,0,0:0:0:0:
220,156,10932,2,0,L|380:144,1,143.333333333333
104,156,11401,2,0,B|68:184|68:184|64:324,1,143.333333333333
44,364,11870,6,0,B|24:344|24:344|16:292,1,71.6666666666667
64,128,12182,1,0,0:0:0:0:
136,288,12338,2,0,B|142:330|142:330|162:350,1,71.6666666666667
292,356,12651,1,0,0:0:0:0:
220,196,12807,2,0,B|213:153|213:153|193:133,1,71.6666666666667
284,40,13120,1,0,0:0:0:0:
356,200,13276,2,0,P|400:220|496:200,1,143.333333333333
472,132,13745,6,0,P|408:80|456:32,1,143.333333333333
472,304,14213,1,0,0:0:0:0:
304,356,14526,1,0,0:0:0:0:
372,280,14682,2,0,P|296:280|240:236,1,143.333333333333
216,328,15151,2,0,P|140:328|84:284,1,143.333333333333
36,208,15620,5,0,0:0:0:0:
39,160,15776,1,0,0:0:0:0:
43,112,15932,1,0,0:0:0:0:
47,65,16088,1,0,0:0:0:0:
256,192,16245,12,0,17026,0:0:0:0:
32,328,17495,6,0,P|108:328|164:372,1,143.333333333333
272,280,17963,1,0,0:0:0:0:
120,152,18276,1,0,0:0:0:0:
296,264,18432,1,0,0:0:0:0:
72,104,18745,1,0,0:0:0:0:
384,176,18901,1,0,0:0:0:0:
24,64,19213,1,0,0:0:0:0:
464,56,19370,6,0,P|388:56|332:100,1,143.333333333333
480,312,19838,2,0,L|464:168,1,143.333333333333
352,296,20307,2,0,B|336:368|336:368|304:344|296:312,1,143.333333333333
392,192,20776,2,0,P|304:224|248:200,1,143.333333333333
368,88,21245,5,0,0:0:0:0:
248,256,21557,1,0,0:0:0:0:
336,56,21713,1,0,0:0:0:0:
192,344,22026,1,0,0:0:0:0:
288,32,22182,1,0,0:0:0:0:
72,368,22495,1,0,0:0:0:0:
216,32,22651,6,0,P|248:24|240:64,1,71.6666666666667
120,104,22963,1,0,0:0:0:0:
168,192,23120,2,0,L|248:176,1,71.6666666666667
224,280,23432,2,0,L|294:265,1,71.6666666666667
424,352,23745,1,0,0:0:0:0:
512,120,23901,1,0,0:0:0:0:
352,16,24057,2,0,P|376:8|496:40,1,143.333333333333
216,32,24526,2,0,P|281:4|351:15,1,143.333333333333
512,120,24995,6,0,P|432:136|312:80,1,215.000008201599
136,216,25776,2,0,P|216:232|304:192,1,161.2500061512
512,320,26401,6,0,P|432:336|320:272,1,215.000008201599
384,112,27182,2,0,P|432:208|424:264,1,161.2500061512
216,384,27807,6,0,P|168:336|160:264,1,143.333333333333
264,187,28276,2,0,P|312:235|312:312,1,143.333333333333
176,80,28745,1,0,0:0:0:0:
400,48,29057,1,0,0:0:0:0:
232,160,29213,1,0,0:0:0:0:
176,80,29526,1,0,0:0:0:0:
472,48,29682,1,0,0:0:0:0:
232,160,29995,1,0,0:0:0:0:
400,48,30151,1,0,0:0:0:0:
480,136,30620,6,0,B|464:176|464:176|464:208|468:246|432:272,1,143.333333333333
496,376,31088,1,0,0:0:0:0:
344,184,31401,1,0,0:0:0:0:
298,370,31557,2,0,P|370:338|498:378,2,215
344,184,32807,5,0,0:0:0:0:
136,352,32963,1,0,0:0:0:0:
40,160,33276,1,0,0:0:0:0:
216,240,33432,1,0,0:0:0:0:
312,0,33745,1,0,0:0:0:0:
211,164,33901,1,0,0:0:0:0:
440,288,34213,1,0,0:0:0:0:
289,167,34370,6,0,P|344:152|376:152,2,71.6666666666667
296,240,34838,2,0,P|368:248|440:208,1,143.333333333333
504,136,35307,1,0,0:0:0:0:
272,320,35620,1,0,0:0:0:0:
408,368,35776,2,0,P|448:336|456:248,1,143.333333333333
296,240,36245,5,0,0:0:0:0:
360,24,36557,1,0,0:0:0:0:
400,232,36713,1,0,0:0:0:0:
136,376,37026,1,0,0:0:0:0:
184,128,37182,1,0,0:0:0:0:
152,24,37495,1,0,0:0:0:0:
112,232,37651,1,0,0:0:0:0:
376,376,37964,1,0,0:0:0:0:
328,128,38120,6,0,L|344:200,2,71.6666666666667
456,152,38588,2,0,L|440:224,1,71.6666666666667
376,376,38901,1,0,0:0:0:0:
208,152,39057,2,0,L|192:82,1,71.6666666666667
216,384,39370,1,0,0:0:0:0:
255,106,39526,2,0,L|293:45,1,71.6666666666667,0|0,0:0|0:0,0:0:0:0:
91,299,39838,1,8,0:0:0:0:
316,130,39995,6,8,P|360:112|336:224,1,215
392,296,40776,2,0,P|464:248|480:128,1,215
240,120,41401,6,0,P|317:50|421:63,1,215
344,168,42182,2,0,P|280:208|144:176,1,215
240,120,42807,6,0,L|280:280,1,143.333333333333
176,248,43276,2,0,L|192:400,1,143.333333333333
336,328,43745,6,0,P|296:328|256:344,1,71.6666666666667
328,240,44057,1,0,0:0:0:0:
480,264,44213,2,0,P|440:272|400:264,1,71.6666666666667
416,192,44526,1,0,0:0:0:0:
248,152,44682,2,0,P|320:160|384:120,1,143.333333333333
483,119,45151,2,0,P|409:114|346:151,1,107.5000041008
432,24,45620,2,0,L|488:48,1,53.7500020503999
280,48,45932,2,0,L|336:72,1,53.7500020503999
256,192,46245,12,0,47026,0:0:0:0:
256,192,47143,12,0,47338,0:0:0:0:
104,16,47495,6,0,P|96:120|0:112,1,215.000008201599
484,148,47963,2,0,P|398:89|453:10,1,215.000008201599
184,344,48432,2,0,P|278:298|319:386,1,215.000008201599
400,128,48901,2,0,P|296:168|176:24,2,322.500012302399
168,272,50151,5,0,0:0:0:0:
360,32,50307,1,0,0:0:0:0:
368,360,50620,1,0,0:0:0:0:
208,16,50776,1,0,0:0:0:0:
64,144,51088,1,0,0:0:0:0:
320,160,51245,2,0,P|336:200|256:344,1,215.000008201599
448,80,51713,1,0,0:0:0:0:
440,336,52026,1,0,0:0:0:0:
64,144,52182,6,0,B|96:96|72:48|72:48|24:88|16:152,1,215.000008201599
64,312,52651,1,0,0:0:0:0:
160,88,52963,1,0,0:0:0:0:
192,304,53120,2,0,B|200:352|200:352|232:320|232:320|224:192,1,215.000008201599
160,96,53588,1,0,0:0:0:0:
375,104,53744,1,0,0:0:0:0:
336,327,53900,1,0,0:0:0:0:
499,224,54057,6,0,L|480:88,1,107.5000041008
375,104,54370,1,0,0:0:0:0:
288,192,54526,2,0,P|240:184|168:208,1,107.5000041008
160,96,54838,1,0,0:0:0:0:
336,327,54995,6,0,P|400:328|440:104,4,322.500012302399
384,224,57338,6,0,P|424:232|464:288,1,107.5000041008
304,368,57651,1,0,0:0:0:0:
192,208,57807,2,0,P|180:156|206:110,1,107.5000041008
336,8,58120,1,0,0:0:0:0:
369,126,58276,2,0,P|394:172|383:223,1,107.5000041008
224,360,58588,1,0,0:0:0:0:
40,280,58745,5,0,0:0:0:0:
184,160,58901,1,0,0:0:0:0:
64,64,59057,1,0,0:0:0:0:
144,0,59213,1,0,0:0:0:0:
128,304,59526,1,0,0:0:0:0:
264,184,59682,6,0,B|272:232|256:272|256:272|296:272|296:272|328:264|352:272|368:272|368:272|352:288|344:304|344:304|320:320|320:384,1,322.500012302399
312,384,60463,1,0,0:0:0:0:
456,288,60620,2,0,B|480:224|480:224|464:184|464:184|480:144|480:112|472:56,1,215.000008201599
272,24,61088,1,0,0:0:0:0:
184,320,61401,1,0,0:0:0:0:
344,32,61557,5,0,0:0:0:0:
448,208,61713,1,0,0:0:0:0:
208,128,61870,1,0,0:0:0:0:
431,141,62026,5,0,0:0:0:0:
380,339,62182,1,0,0:0:0:0:
267,112,62339,1,0,0:0:0:0:
416,280,62495,5,0,0:0:0:0:
352,256,63276,1,0,0:0:0:0:
416,280,63432,2,0,P|403:320|472:264,1,215
448,88,64370,6,0,L|432:176,2,71.6666666666667
312,16,64838,2,0,L|328:104,2,71.6666666666667
176,88,65307,2,0,L|144:232,1,143.333333333333
24,240,65776,2,0,L|56:384,1,143.333333333333
192,320,66245,6,0,P|152:304|120:304,1,71.6666666666667
240,256,66557,1,0,0:0:0:0:
339,286,66713,1,0,0:0:0:0:
426,229,66869,1,0,0:0:0:0:
437,126,67025,1,0,0:0:0:0:
364,51,67182,2,0,B|304:40|256:48|256:48|264:88|328:136,1,215
437,126,67807,1,0,0:0:0:0:
426,229,67963,1,0,0:0:0:0:
264,120,68120,6,0,P|256:80|160:40,1,143.333333333333
312,146,68588,2,0,P|335:112|295:16,1,143.333333333333
314,234,69057,6,0,P|352:247|435:184,1,143.333333333333
266,263,69525,2,0,P|284:300|388:313,1,143.333333333333
352,176,69995,5,0,0:0:0:0:
320,16,70307,1,0,0:0:0:0:
480,96,70463,1,0,0:0:0:0:
400,352,70776,1,0,0:0:0:0:
480,176,70932,2,0,L|488:256,2,71.6666666666667
264,352,71401,2,0,P|336:304|336:208,1,143.333333333333
152,112,71870,5,0,0:0:0:0:
344,40,72182,1,0,0:0:0:0:
32,72,72338,1,0,0:0:0:0:
16,168,72651,1,0,0:0:0:0:
208,144,72807,2,0,B|264:128|264:128|352:136,1,143.333333333333
504,312,73276,2,0,B|448:328|448:328|360:320,1,143.333333333333
304,232,73745,5,0,0:0:0:0:
432,8,74057,1,0,0:0:0:0:
456,184,74213,1,0,0:0:0:0:
80,8,74526,1,0,0:0:0:0:
56,184,74682,1,0,0:0:0:0:
336,40,74995,1,0,0:0:0:0:
313,216,75151,1,0,0:0:0:0:
176,40,75463,1,0,0:0:0:0:
199,216,75620,5,0,0:0:0:0:
248,136,75776,1,0,0:0:0:0:
264,80,75932,1,0,0:0:0:0:
256,16,76088,2,0,B|280:72|216:128|264:192,1,143.333333333333
496,136,76557,2,0,P|416:144|352:88,1,143.333333333333
232,264,77026,2,0,L|392:224,1,143.333333333333
368,352,77495,6,0,P|432:312|432:176,4,215
296,352,79838,2,0,P|224:312|88:352,1,215
0,288,80620,1,0,0:0:0:0:
32,232,80776,2,0,B|48:184|48:184|32:152|32:152|40:112|32:72,1,143.333333333333
80,48,81245,6,0,P|104:56|152:48,2,71.6666666666667
224,192,81713,2,0,L|384:160,1,143.333333333333
344,64,82182,6,0,P|363:34|393:16,2,71.6666666666667
287,301,82651,2,0,P|223:245|239:165,1,143.333333333333
456,312,83120,6,0,P|464:328|456:392,1,71.6666666666667
312,184,83432,1,0,0:0:0:0:
56,96,83588,2,0,P|39:101|0:152,1,71.6666666666667,0|0,0:0|0:0,0:0:0:0:
248,107,83900,1,0,0:0:0:0:
352,88,84057,2,0,P|408:88|464:16,1,143.333333333333
480,80,84526,2,0,B|488:112|488:112|480:128|480:128|496:152|496:152|488:176|496:232,1,143.333333333333
400,312,84995,5,0,0:0:0:0:
272,368,85307,1,0,0:0:0:0:
352,88,85464,1,0,0:0:0:0:
272,368,85776,1,0,0:0:0:0:
256,168,85932,1,0,0:0:0:0:
352,88,86245,1,0,0:0:0:0:
272,368,86402,1,0,0:0:0:0:
352,88,86714,1,0,0:0:0:0:
368,288,86870,6,0,P|392:288|440:256,2,71.6666666666667
304,144,87338,2,0,B|296:40|296:40|256:8,1,143.333333333333
120,160,87807,2,0,B|128:248|128:248|96:312,1,143.333333333333
40,64,88276,2,0,P|80:40|176:72,1,143.333333333333
168,336,88745,5,0,0:0:0:0:
256,176,88901,1,0,0:0:0:0:
392,368,89057,1,0,0:0:0:0:
464,64,89213,2,0,B|480:88|480:88|480:144,1,71.6666666666667
432,326,89526,1,0,0:0:0:0:
423,14,89682,2,0,B|445:33|445:33|459:87,1,71.6666666666667
461,276,89995,1,0,0:0:0:0:
368,0,90151,6,0,B|393:-10|393:-10|421:38,1,71.6666666666667
472,216,90463,1,0,0:0:0:0:
296,40,90620,1,0,0:0:0:0:
286,135,90776,1,0,0:0:0:0:
276,230,90932,1,0,0:0:0:0:
266,325,91088,2,0,L|176:312,1,71.6666666666667
96,88,91401,1,0,0:0:0:0:
276,230,91557,6,0,P|328:224|368:240,1,71.6666666666667
416,88,91870,1,0,0:0:0:0:
235,230,92026,2,0,P|184:224|144:240,1,71.6666666666667
400,368,92338,1,0,0:0:0:0:
392,175,92495,6,0,P|432:239|400:367,1,215
286,272,93276,2,0,P|328:343|440:359,1,161.2500061512
480,88,93901,6,0,L|240:80,1,215
145,160,94682,2,0,P|225:144|265:48,1,161.2500061512
48,48,95307,6,0,L|56:168,1,107.5000041008
224,112,95776,2,0,L|216:-8,1,107.5000041008
96,320,96245,5,0,0:0:0:0:
200,160,96557,1,0,0:0:0:0:
240,384,96713,1,0,0:0:0:0:
296,112,97026,1,0,0:0:0:0:
276,338,97182,1,0,0:0:0:0:
312,8,97495,1,0,0:0:0:0:
416,376,97651,2,0,B|424:328|424:328|416:296|416:296|424:272|416:216,1,143.333333333333
480,144,98120,6,0,L|488:240,1,71.6666666666667
344,304,98432,1,0,0:0:0:0:
224,208,98588,2,0,L|232:48,1,143.333333333333
424,24,99057,2,0,P|368:48|288:24,1,143.333333333333
291,26,99526,2,0,P|358:48|424:23,1,143.333333333333
360,168,99995,6,0,P|400:152|464:160,1,89.5833333333333
440,336,100307,1,0,0:0:0:0:
256,104,100463,2,0,P|216:88|152:96,1,89.5833333333333
16,224,100776,1,0,0:0:0:0:
216,368,100932,2,0,P|272:344|328:232,1,179.166666666667
160,24,101401,6,0,P|160:64|192:120,1,89.5833333333333
416,256,101713,1,0,0:0:0:0:
456,40,101870,2,0,P|408:40|368:64,1,89.5833333333333
432,352,102182,1,0,0:0:0:0:
168,96,102338,2,0,P|152:128|160:184,1,89.5833333333333
360,16,102651,1,0,0:0:0:0:
504,160,102807,6,0,P|416:232|264:184,2,268.75
440,48,103901,5,0,0:0:0:0:
368,352,104057,1,0,0:0:0:0:
96,152,104213,2,0,B|232:112|232:112|296:128,1,179.166666666667
464,272,104682,2,0,B|352:272|328:272|328:272|288:224,1,179.166666666667
440,48,105151,2,0,B|480:88|480:88|496:232,1,179.166666666667
160,352,105620,6,0,P|184:320|184:256,1,89.5833333333333
88,24,105932,1,0,0:0:0:0:
16,152,106088,2,0,L|0:336,1,179.166666666667
328,280,106557,2,0,L|240:16,2,268.75
200,240,107807,5,0,0:0:0:0:
480,336,107963,1,0,0:0:0:0:
96,328,108276,1,0,0:0:0:0:
416,168,108432,2,0,P|352:88|392:8,1,179.166666666667
496,224,108901,2,0,P|464:312|376:240,1,215.000008201599
432,232,109370,6,0,B|448:352|448:352|368:376,1,179.166666666667
104,208,109838,2,0,P|224:184|256:136,1,179.166666666667
72,120,110307,2,0,P|144:152|192:32,1,215.000008201599
96,200,110776,6,0,L|72:392,1,179.166666666667
192,296,111245,2,0,B|232:304|232:304|272:344,2,89.5833333333333
368,296,111713,2,0,P|432:304|496:200,1,179.166666666667
472,112,112182,2,0,B|456:80|456:80|464:24,2,89.5833333333333
320,168,112651,2,0,B|288:264|288:264|296:352,1,179.166666666667
256,192,113120,12,0,114526,0:0:0:0:
256,192,114643,12,0,114838,0:0:0:0:
432,168,114995,6,0,B|464:240|464:240|448:376,1,215.000008201599
80,168,115463,2,0,B|48:240|48:240|64:376,1,215.000008201599
432,120,115932,6,0,B|464:192|464:192|448:328,1,215.000008201599
88,40,116401,2,0,P|208:80|312:16,1,215.000008201599
216,288,116870,2,0,L|0:280,1,215.000008201599
24,152,117338,6,0,B|64:144|64:144|128:160,1,107.5000041008
208,48,117651,1,0,0:0:0:0:
384,216,117807,2,0,B|320:200|320:200|384:168,1,107.5000041008
456,56,118120,1,0,0:0:0:0:
496,248,118276,2,0,L|512:368,1,107.5000041008
328,368,118588,1,0,0:0:0:0:
225,294,118745,6,0,P|241:166|385:222,2,322.500012302399
96,264,119995,1,0,0:0:0:0:
192,40,120151,1,0,0:0:0:0:
32,16,120463,1,0,0:0:0:0:
216,368,120620,2,0,P|336:344|384:248,1,215.000008201599
176,80,121088,2,0,P|56:104|8:200,1,215.000008201599
64,360,121557,6,0,B|96:320|96:320|104:256,1,107.5000041008
208,120,121870,1,0,0:0:0:0:
448,360,122026,2,0,B|416:320|416:320|408:256,1,107.5000041008
304,120,122339,1,0,0:0:0:0:
216,336,122495,6,0,B|176:240|264:208|288:232|408:144|288:32,4,322.500012302399
304,368,124838,6,0,P|320:328|304:256,1,107.5000041008
144,64,125151,1,0,0:0:0:0:
24,208,125307,6,0,P|40:247|103:287,1,107.5000041008
352,309,125620,1,0,0:0:0:0:
352,24,125776,2,0,P|328:64|336:152,1,107.5000041008
480,376,126088,1,0,0:0:0:0:
512,224,126245,1,0,0:0:0:0:
256,120,126401,1,0,0:0:0:0:
192,264,126557,1,0,0:0:0:0:
0,192,126713,6,0,B|72:192|64:208|88:232|120:112|200:192,1,215.000008201599
368,368,127182,2,0,P|248:360|184:296,1,215.000008201599
456,72,127651,2,0,L|432:296,1,215.000008201599
32,112,128120,6,0,L|8:8,2,107.5000041008
168,72,128588,2,0,L|400:88,1,215.000008201599
216,192,129057,2,0,L|-16:208,1,215.000008201599
272,304,129526,2,0,L|504:320,1,215.000008201599
392,208,129995,6,0,P|432:240|480:248,2,71.6666666666667
464,40,130463,2,0,P|480:104|448:184,1,143.333333333333
320,32,130932,2,0,P|304:96|336:176,1,143.333333333333
392,208,131401,2,0,P|384:288|472:288,1,143.333333333333
480,240,131870,6,0,L|496:160,2,71.6666666666667
368,376,132338,2,0,P|304:320|304:240,1,143.333333333333
192,240,132807,2,0,P|188:310|232:365,1,143.333333333333
120,144,133276,2,0,P|87:206|103:274,1,143.333333333333
96,48,133745,6,8,P|33:80|16:104,1,71.6666666666667
32,200,134057,1,0,0:0:0:0:
216,40,134213,2,8,P|278:72|296:96,1,71.6666666666667
280,192,134525,1,0,0:0:0:0:
240,352,134682,2,8,P|261:323|272:289,1,71.6666666666667
136,88,134995,1,0,0:0:0:0:
408,208,135151,2,0,P|456:184|480:88,1,143.333333333333
400,80,135620,6,0,B|400:40|360:40|320:48|320:72|272:96|224:80|224:32,3,215
400,80,137495,6,0,P|376:168|424:200,1,107.5000041008
440,344,137807,1,0,0:0:0:0:
432,144,137963,1,0,0:0:0:0:
264,360,138120,1,0,0:0:0:0:
304,80,138276,1,0,0:0:0:0:
115,368,138432,2,0,B|163:264|219:240|219:240|227:288|211:328|211:328|227:360|275:360,1,322.500012302399
416,296,139057,5,0,0:0:0:0:
56,272,139213,1,0,0:0:0:0:
352,208,139370,1,0,0:0:0:0:
56,128,139526,1,0,0:0:0:0:
248,160,139682,1,0,0:0:0:0:
152,16,139838,1,0,0:0:0:0:
240,216,140307,2,0,B|264:336|264:336|336:352|336:352|312:224,1,322.500012302399
352,136,141245,6,0,P|400:128|456:144,2,107.5000041008
464,288,141713,2,0,B|336:288|336:288|248:216,1,215.000008201599
472,24,142182,2,0,L|504:248,1,215.000008201599
176,384,142651,2,0,L|208:160,1,215.000008201599
384,16,143120,5,0,0:0:0:0:
432,296,143276,1,0,0:0:0:0:
256,72,143432,1,0,0:0:0:0:
256,312,143588,1,0,0:0:0:0:
128,16,143745,1,0,0:0:0:0:
80,296,143901,1,0,0:0:0:0:
16,56,144057,2,0,B|64:96|144:96|176:64|208:24|208:24|208:64|224:120|264:128|352:136,1,365.500006971359
384,40,144682,1,0,0:0:0:0:
384,152,144838,1,0,0:0:0:0:
480,16,144995,5,0,0:0:0:0:
493,121,145151,1,0,0:0:0:0:
447,216,145307,1,0,0:0:0:0:
333,326,145463,2,0,P|309:278|389:150,1,215.000008201599
384,376,145932,1,0,0:0:0:0:
277,364,146088,1,0,0:0:0:0:
170,353,146244,1,0,0:0:0:0:
312,136,146401,2,0,P|192:208|72:136,1,215.000008201599
102,31,146870,6,0,P|174:111|63:194,1,215.000008201599
64,272,147338,2,0,B|48:312|8:344|8:344|56:352|128:384,1,215.000008201599
224,336,147807,1,0,0:0:0:0:
312,112,147963,1,0,0:0:0:0:
424,328,148120,1,0,0:0:0:0:
464,136,148276,2,0,B|456:32|456:32|392:8|392:8|392:88,1,215.000008201599
296,312,148745,6,0,P|360:232|512:336,1,286.666666666667
192,320,149213,6,0,P|256:240|408:344,1,286.666666666667
104,328,149682,6,0,P|168:248|320:352,1,286.666666666667
0,336,150150,6,0,P|64:256|216:360,1,286.666666666667
40,304,150620,6,0,L|56:160,1,143.333333333333
24,24,150932,1,0,0:0:0:0:
184,320,151088,6,0,L|200:176,1,143.333333333333
168,40,151400,1,0,0:0:0:0:
472,304,151557,6,0,L|456:160,1,143.333333333333
488,24,151869,1,0,0:0:0:0:
328,320,152025,6,0,L|312:176,1,143.333333333333
344,40,152337,1,0,0:0:0:0:
256,192,152495,12,0,153745,0:0:0:0:
336,104,153901,6,0,B|360:176|344:200|328:200|296:232|344:320,1,215
144,360,154838,6,0,P|272:280|448:376,3,322.500012302399
88,320,156713,6,0,P|48:280|32:200,1,107.5000041008
96,32,157026,1,0,0:0:0:0:
250,232,157182,2,0,P|162:328|74:312,1,215.000008201599
328,96,157651,2,0,P|384:200|304:224,1,215.000008201599
136,376,158120,6,0,P|144:248|32:80,2,322.500012302399
184,32,159370,5,0,0:0:0:0:
64,344,159526,1,0,0:0:0:0:
120,8,159838,1,0,0:0:0:0:
248,376,159995,6,0,P|368:336|368:216,1,215.000008201599
264,8,160463,2,0,P|144:48|144:168,1,215.000008201599
168,184,160932,2,0,B|240:224|344:168|344:168|376:216|376:216|416:224|456:200,2,322.500012302399
16,320,162338,6,0,P|144:280|152:376,1,215.000008201599
496,320,162807,2,0,P|368:280|360:376,1,215.000008201599
280,144,163276,2,0,P|176:56|192:48,1,215.000008201599
216,112,163745,2,0,L|168:344,1,215.000008201599
336,384,164213,6,0,L|312:264,1,107.5000041008
456,120,164526,1,0,0:0:0:0:
176,384,164682,2,0,L|244:282,1,107.5000041008
448,282,164995,1,0,0:0:0:0:
64,272,165151,2,0,L|184:248,1,107.5000041008
328,392,165464,1,0,0:0:0:0:
63,112,165620,1,0,0:0:0:0:
176,189,165776,1,0,0:0:0:0:
155,323,165932,1,0,0:0:0:0:
25,362,166088,2,0,P|80:312|16:200,1,215.000008201599
63,112,166557,6,0,P|192:128|136:40,1,215.000008201599
328,24,167026,2,0,B|160:32|160:32|208:8,1,215.000008201599
328,120,167495,2,0,P|328:184|216:288,1,215.000008201599
192,208,167963,2,0,P|304:216|336:328,1,215.000008201599
232,360,168432,6,0,L|112:344,1,107.5000041008
64,168,168745,1,0,0:0:0:0:
240,240,168901,2,0,L|360:224,1,107.5000041008
408,48,169214,1,0,0:0:0:0:
504,168,169370,6,0,B|504:240|504:240|464:344,1,143.333333333333
312,312,169838,6,0,B|286:245|286:245|286:173,1,143.333333333333
400,72,170307,6,0,B|400:144|400:144|360:248,1,143.333333333333
208,216,170775,6,0,B|182:149|182:149|182:77,1,143.333333333333
272,40,171245,2,0,P|312:32|352:40,2,71.6666666666667
384,336,171713,1,0,0:0:0:0:
80,312,172026,1,0,0:0:0:0:
208,216,172182,2,0,P|280:192|264:128,1,143.333333333333
24,224,172651,2,0,L|40:376,1,143.333333333333
192,368,173120,6,0,P|208:336|200:280,2,71.6666666666667
24,224,173588,2,0,P|48:120|0:48,1,143.333333333333
160,16,174057,2,0,P|90:30|25:3,1,143.333333333333
112,200,174526,2,0,P|134:132|190:89,1,143.333333333333
224,256,174995,6,0,P|201:323|145:366,1,143.333333333333
278,259,175463,2,0,P|310:323|301:393,1,143.333333333333
319,223,175932,2,0,P|387:246|430:302,1,143.333333333333
323,169,176401,2,0,P|387:137|457:146,1,143.333333333333
320,360,176870,5,0,0:0:0:0:
496,312,177026,1,0,0:0:0:0:
120,280,177182,1,0,0:0:0:0:
320,224,177338,2,0,B|424:208|424:208|368:176,1,143.333333333333
120,280,177807,2,0,P|56:216|64:152,1,143.333333333333
41,83,178276,2,0,B|96:80|96:80|112:96|112:96|120:80|120:80|136:96|136:96|152:95|152:95|144:80|144:80|168:80|200:96|256:64,1,243.66667131424
304,200,178745,5,0,0:0:0:0:
344,8,178901,1,0,0:0:0:0:
456,344,179057,1,0,0:0:0:0:
472,96,179213,2,0,P|480:48|384:72,1,143.333333333333
344,304,179682,2,0,P|312:376|264:320,1,143.333333333333
120,320,180151,2,0,B|164:310|168:288|168:288|200:296|200:296|224:272|248:264,1,143.333333333333
48,184,180620,5,0,0:0:0:0:
424,128,180776,1,0,0:0:0:0:
0,32,180932,1,0,0:0:0:0:
256,48,181088,2,0,B|320:72|320:72|216:104,1,143.333333333333
152,184,181557,2,0,L|160:352,1,143.333333333333
272,368,182026,2,0,B|288:312|272:296|272:296|296:288|296:288|272:280|272:280|296:272|296:272|272:264|272:264|296:256|296:256|288:232|288:232|304:176|272:152,1,286.666666666667
104,24,182495,5,0,0:0:0:0:
222,100,182651,1,0,0:0:0:0:
363,91,182807,1,0,0:0:0:0:
471,0,182963,1,0,0:0:0:0:
256,192,183120,12,0,184370,0:0:0:0:
