osu file format v11

[General]
AudioFilename: SID-Sound, .mp3
AudioLeadIn: 0
PreviewTime: 63988
Countdown: 0
SampleSet: Soft
StackLeniency: 0.7
Mode: 0
LetterboxInBreaks: 1

[Editor]
Bookmarks: 12924,63988
DistanceSpacing: 0.9
BeatDivisor: 2
GridSize: 4

[Metadata]
Title:Butterfly Sculpture
TitleUnicode:조각 나비
Artist:S.I.D-Sound Feat. Elika
ArtistUnicode:S.I.D-Sound Feat. Elika
Creator:HelloSCV
Version:Normal
Source:
Tags:
BeatmapID:199197
BeatmapSetID:64467

[Difficulty]
HPDrainRate:3
CircleSize:3
OverallDifficulty:3
ApproachRate:4
SliderMultiplier:1.09999990463257
SliderTickRate:1

[Events]
//Background and Video events
0,0,"bg.jpg"
//Break Periods
2,186741,200541
//Storyboard Layer 0 (Background)
//Storyboard Layer 1 (Fail)
//Storyboard Layer 2 (Pass)
//Storyboard Layer 3 (Foreground)
//Storyboard Sound Samples
//Background Colour Transformations
3,100,163,162,255

[TimingPoints]
2712,638.297872340426,4,2,1,50,1,0
43563,-100,4,2,1,70,0,0
63988,-100,4,2,1,85,0,1
79307,-100,4,2,1,50,0,1
83775,-100,4,2,1,85,0,0
84414,-100,4,2,1,85,0,1
99733,-100,4,2,1,50,0,1
104201,-100,4,2,1,30,0,0
104839,-100,4,2,1,70,0,0
145690,-100,4,2,1,85,0,1
161009,-100,4,2,1,50,0,1
165477,-100,4,2,1,85,0,0
166116,-100,4,2,1,85,0,1
181435,-100,4,2,1,50,0,1
186541,-100,4,2,1,80,0,0
201860,-100,4,2,1,70,0,0
209520,-100,4,2,1,85,0,1
224839,-100,4,2,1,50,0,1
229307,-100,4,2,1,85,0,0
229946,-100,4,2,1,85,0,1
245265,-100,4,2,1,70,0,1
250371,-100,4,2,1,50,0,0

[Colours]
Combo1 : 255,255,0
Combo2 : 128,255,0
Combo3 : 255,176,255
Combo4 : 255,255,255

[HitObjects]
456,208,12925,2,0,P|448:156|408:104,1,109.999990463257,4|2,0:0|0:0,0:0:0
348,180,14201,2,0,P|315:133|307:81,1,109.999990463257,0|2,0:0|0:0,0:0:0
208,80,15477,2,0,P|200:132|167:178,1,109.999990463257,0|2,0:0|0:0,0:0:0
80,228,16754,1,0,0:0:0
40,316,17393,1,10,0:0:0
72,352,17712,1,0,0:0:0
124,348,18031,6,0,P|176:340|208:296,1,109.999990463257,0|2,0:0|0:0,0:0:0
264,216,19307,2,0,P|292:168|348:148,1,109.999990463257,0|2,0:0|0:0,0:0:0
436,176,20584,2,0,P|444:116|416:72,1,109.999990463257,0|2,0:0|0:0,0:0:0
376,52,21541,2,0,P|316:24,1,54.9999952316285,0|0,0:0|0:0,0:0:0
228,28,22499,1,4,0:0:0
128,36,23137,6,0,P|116:88|136:148,1,109.999990463257,0|2,0:0|0:0,0:0:0
112,240,24414,1,0,0:0:0
212,252,25052,2,0,P|252:292|276:340,1,109.999990463257,2|0,0:0|0:0,0:0:0
316,368,26009,2,0,P|396:348|432:248,1,164.999985694885,0|0,0:0|0:0,0:0:0
452,184,27605,1,2,0:0:0
360,152,28243,6,0,P|304:144|264:108,1,109.999990463257,0|2,0:0|0:0,0:0:0
196,36,29520,1,0,0:0:0
120,96,30158,2,0,P|104:152|120:220,1,109.999990463257,2|0,0:0|0:0,0:0:0
188,260,31435,1,2,0:0:0
284,276,32073,2,0,P|336:282|376:246,1,109.999990463257,0|2,0:0|0:0,0:0:0
476,236,33350,6,0,P|467:188|423:148,1,109.999990463257,0|2,0:0|0:0,0:0:0
356,76,34626,1,0,0:0:0
256,64,35265,1,2,0:0:0
172,116,35903,2,0,P|132:156|124:232,1,109.999990463257,0|2,0:0|0:0,0:0:0
220,216,37180,2,0,P|240:268|236:324,1,109.999990463257,0|2,0:0|0:0,0:0:0
272,356,38137,5,0,0:0:0
320,348,38456,2,0,P|372:332|432:340,1,109.999990463257,0|2,0:0|0:0,0:0:0
504,276,39733,2,0,P|452:252|428:200,1,109.999990463257,0|2,0:0|0:0,0:0:0
388,116,41009,2,0,P|300:92,2,54.9999952316285,0|0|2,0:0|0:0|0:0,0:0:0
356,212,42286,2,0,P|328:256|268:264,1,109.999990463257,0|2,0:0|0:0,0:0:0
224,180,43563,6,0,P|192:136|144:112,1,109.999990463257,4|8,0:0|0:0,0:0:0
44,104,44839,1,2,0:0:0
88,192,45477,2,0,P|112:248|104:304,1,109.999990463257,8|2,0:0|0:0,0:0:0
200,256,46754,1,8,0:0:0
256,336,47392,1,2,0:0:0
352,360,48031,6,0,P|396:328|412:276,1,109.999990463257,8|2,0:0|0:0,0:0:0
404,176,49307,1,8,0:0:0
304,180,49946,2,0,P|252:156|212:116,1,109.999990463257,2|8,0:0|0:0,0:0:0
164,36,51222,1,2,0:0:0
96,108,51860,1,8,0:0:0
92,208,52499,2,0,P|116:256|84:296,1,109.999990463257,2|8,0:0|0:0,0:0:0
156,368,53775,6,0,P|200:336|256:328,1,109.999990463257,4|8,0:0|0:0,0:0:0
352,328,55052,1,2,0:0:0
416,252,55690,1,8,0:0:0
324,220,56329,2,0,P|276:192|256:136,1,109.999990463257,2|8,0:0|0:0,0:0:0
204,60,57605,1,2,0:0:0
108,44,58243,1,8,0:0:0
80,140,58882,6,0,P|104:192|104:248,1,109.999990463257,2|8,0:0|0:0,0:0:0
8,228,60158,2,0,P|8:279|32:331,1,109.999990463257,2|8,0:0|0:0,0:0:0
80,340,61116,2,0,P|140:348,1,54.9999952316285,0|4,0:0|0:0,0:0:0
216,292,62073,2,0,P|252:248,1,54.9999952316285,0|4,0:0|0:0,0:0:0
332,376,63350,1,8,0:0:0
316,328,63669,1,8,0:0:0
324,280,63988,6,0,P|356:232|412:212,1,109.999990463257,4|8,0:0|0:0,0:0:0
500,216,65265,1,2,0:0:0
444,136,65903,1,8,0:0:0
344,128,66541,2,0,P|304:88|256:68,1,109.999990463257,4|8,0:0|0:0,0:0:0
232,164,67818,2,0,P|175:168|129:192,1,109.999990463257,2|8,0:0|0:0,0:0:0
196,268,69094,6,0,P|248:296|300:296,1,109.999990463257,4|8,0:0|0:0,0:0:0
396,284,70371,1,2,0:0:0
428,192,71009,2,0,P|436:136,1,54.9999952316285,8|0,0:0|0:0,0:0:0
440,88,71648,2,0,P|400:48|340:44,2,109.999990463257,4|8|2,0:0|0:0|0:0,0:0:0
356,136,73563,5,8,0:0:0
316,164,73882,1,8,0:0:0
272,188,74201,2,0,P|224:216|172:212,1,109.999990463257,4|8,0:0|0:0,0:0:0
96,148,75477,2,0,P|144:120|196:124,1,109.999990463257,2|8,0:0|0:0,0:0:0
228,164,76435,1,0,0:0:0
256,204,76754,6,0,P|304:232|356:228,1,109.999990463257,4|8,0:0|0:0,0:0:0
432,164,78030,2,0,P|384:136|332:140,1,109.999990463257,2|8,0:0|0:0,0:0:0
256,192,79307,12,2,83137,0:0:0
408,280,84414,6,0,P|356:264|300:280,1,109.999990463257,4|8,0:0|0:0,0:0:0
204,292,85690,1,2,0:0:0
112,252,86329,2,0,P|108:192|88:148,1,109.999990463257,8|2,0:0|0:0,0:0:0
144,64,87605,2,0,P|200:64|252:96,1,109.999990463257,8|2,0:0|0:0,0:0:0
272,132,88563,2,0,P|288:188,1,54.9999952316285,0|8,0:0|0:0,0:0:0
308,280,89520,6,0,P|336:328|388:352,1,109.999990463257,4|8,0:0|0:0,0:0:0
480,328,90797,2,0,P|452:280|400:256,1,109.999990463257,2|8,0:0|0:0,0:0:0
368,224,91754,1,0,0:0:0
364,176,92073,2,0,P|352:124|380:68,2,109.999990463257,4|8|2,0:0|0:0|0:0,0:0:0
456,136,93988,1,8,0:0:0
464,184,94307,1,8,0:0:0
472,232,94626,6,0,P|474:289|461:339,1,109.999990463257,4|8,0:0|0:0,0:0:0
364,328,95903,1,2,0:0:0
296,256,96541,1,8,0:0:0
248,272,96860,1,0,0:0:0
200,280,97180,2,8,P|143:284|91:272,1,109.999990463257,4|8,0:0|0:0,0:0:0
24,200,98456,1,2,0:0:0
12,100,99094,1,8,0:0:0
256,192,99733,12,4,103563,0:0:0
384,300,104839,6,0,P|332:280|304:232,1,109.999990463257,0|2,0:0|0:0,0:0:0
304,136,106116,1,0,0:0:0
256,48,106754,1,2,0:0:0
180,112,107392,5,0,0:0:0
140,204,108031,2,0,P|132:260|144:320,1,109.999990463257,2|0,0:0|0:0,0:0:0
228,264,109307,1,2,0:0:0
264,296,109626,1,0,0:0:0
312,296,109946,2,0,P|348:248|400:236,1,109.999990463257,0|2,0:0|0:0,0:0:0
488,272,111222,1,0,0:0:0
488,172,111860,6,0,P|440:140|416:92,1,109.999990463257,2|0,0:0|0:0,0:0:0
340,32,113137,1,2,0:0:0
264,96,113775,2,0,P|224:132|176:108,1,109.999990463257,0|2,0:0|0:0,0:0:0
88,96,115052,6,0,P|64:148|76:208,1,109.999990463257,4|2,0:0|0:0,0:0:0
116,288,116329,1,0,0:0:0
216,288,116967,1,2,0:0:0
264,280,117286,1,0,0:0:0
308,256,117605,2,0,P|344:208|400:184,1,109.999990463257,0|2,0:0|0:0,0:0:0
484,160,118882,1,0,0:0:0
400,108,119520,1,0,0:0:0
300,112,120158,6,0,P|244:108|204:72,1,109.999990463257,0|2,0:0|0:0,0:0:0
156,72,121116,1,0,0:0:0
108,88,121435,2,0,P|72:124|56:180,1,109.999990463257,0|2,0:0|0:0,0:0:0
72,276,122712,2,0,P|104:332,2,54.9999952316285,0|0|2,0:0|0:0|0:0,0:0:0
160,232,123988,2,0,P|212:208|232:160,1,109.999990463257,0|2,0:0|0:0,0:0:0
324,124,125265,6,0,P|384:132|416:168,1,109.999990463257,4|8,0:0|0:0,0:0:0
424,264,126541,1,0,0:0:0
356,336,127180,1,8,0:0:0
260,360,127818,2,0,P|208:352|164:316,1,109.999990463257,0|8,0:0|0:0,0:0:0
128,224,129094,1,0,0:0:0
216,180,129733,6,0,P|260:140|272:76,1,109.999990463257,8|0,0:0|0:0,0:0:0
352,32,131009,1,8,0:0:0
396,120,131648,2,0,P|409:167|453:207,1,109.999990463257,0|8,0:0|0:0,0:0:0
444,304,132924,1,0,0:0:0
348,324,133563,1,8,0:0:0
252,296,134201,2,0,P|216:256|164:280,1,109.999990463257,0|8,0:0|0:0,0:0:0
72,260,135477,6,0,P|32:224|32:160,1,109.999990463257,4|8,0:0|0:0,0:0:0
52,76,136754,1,0,0:0:0
144,40,137392,1,8,0:0:0
168,136,138031,2,0,P|220:148|276:132,1,109.999990463257,0|8,0:0|0:0,0:0:0
228,44,139307,2,0,P|281:29|333:41,1,109.999990463257,0|8,0:0|0:0,0:0:0
416,92,140584,6,0,P|404:144|404:204,1,109.999990463257,0|8,0:0|0:0,0:0:0
320,252,141860,2,0,P|276:216|220:208,1,109.999990463257,0|8,0:0|0:0,0:0:0
176,216,142818,1,0,0:0:0
136,244,143137,1,4,0:0:0
68,316,143775,2,0,P|112:356,1,54.9999952316285,8|4,0:0|0:0,0:0:0
208,356,144733,2,0,P|248:319,1,54.9999952316285,8|0,0:0|0:0,0:0:0
292,292,145371,1,8,0:0:0
344,272,145690,6,0,P|392:240|420:192,1,109.999990463257,4|8,0:0|0:0,0:0:0
428,100,146967,1,2,0:0:0
360,32,147605,1,8,0:0:0
320,116,148243,2,0,P|280:152|220:160,1,109.999990463257,4|8,0:0|0:0,0:0:0
140,116,149520,2,0,P|180:80|240:72,1,109.999990463257,2|8,0:0|0:0,0:0:0
280,88,150477,5,0,0:0:0
320,116,150797,2,0,P|356:156|364:216,1,109.999990463257,4|8,0:0|0:0,0:0:0
320,300,152073,1,2,0:0:0
224,324,152712,2,0,P|168:320,1,54.9999952316285,8|0,0:0|0:0,0:0:0
120,308,153350,2,0,P|76:272|64:216,2,109.999990463257,4|8|2,0:0|0:0|0:0,0:0:0
164,220,155265,1,8,0:0:0
208,200,155584,1,8,0:0:0
252,176,155903,6,0,P|284:136|280:80,1,109.999990463257,4|8,0:0|0:0,0:0:0
192,36,157180,1,2,0:0:0
96,64,157818,1,8,0:0:0
64,104,158137,1,0,0:0:0
72,152,158456,2,0,P|76:208|40:252,1,109.999990463257,4|8,0:0|0:0,0:0:0
100,332,159733,2,0,P|145:355|200:341,1,109.999990463257,2|8,0:0|0:0,0:0:0
256,192,161009,12,2,164839,0:0:0
216,232,166116,6,0,P|192:176|192:128,1,109.999990463257,4|8,0:0|0:0,0:0:0
228,36,167392,1,2,0:0:0
280,120,168031,2,0,P|292:180|336:204,1,109.999990463257,8|2,0:0|0:0,0:0:0
428,196,169307,2,0,P|416:136|372:112,1,109.999990463257,8|2,0:0|0:0,0:0:0
340,80,170265,2,0,P|304:28,1,54.9999952316285,0|8,0:0|0:0,0:0:0
212,52,171222,6,0,P|168:80|112:84,1,109.999990463257,4|8,0:0|0:0,0:0:0
52,160,172499,1,2,0:0:0
80,256,173137,2,0,P|112:300,1,54.9999952316285,8|0,0:0|0:0,0:0:0
152,332,173775,2,0,P|204:352|264:340,2,109.999990463257,4|8|2,0:0|0:0|0:0,0:0:0
216,256,175690,1,8,0:0:0
264,248,176009,1,8,0:0:0
308,224,176329,6,0,P|348:184|356:128,1,109.999990463257,4|8,0:0|0:0,0:0:0
336,36,177605,1,2,0:0:0
236,44,178243,1,8,0:0:0
192,68,178563,1,0,0:0:0
160,104,178882,2,0,P|148:164|160:220,1,109.999990463257,4|8,0:0|0:0,0:0:0
204,296,180158,1,2,0:0:0
292,344,180797,1,8,0:0:0
256,192,181435,12,4,186541,0:0:0
256,192,201861,12,4,206967,0:0:0
108,212,209520,6,0,P|140:248|200:248,1,109.999990463257,4|8,0:0|0:0,0:0:0
288,204,210797,1,2,0:0:0
348,124,211435,1,8,0:0:0
436,168,212073,2,0,P|432:224|448:280,1,109.999990463257,4|8,0:0|0:0,0:0:0
488,364,213350,1,2,0:0:0
392,352,213988,1,8,0:0:0
304,312,214626,6,0,P|256:292|196:292,1,109.999990463257,4|8,0:0|0:0,0:0:0
148,296,215584,1,0,0:0:0
104,272,215903,1,2,0:0:0
56,192,216541,2,0,P|44:136,1,54.9999952316285,8|0,0:0|0:0,0:0:0
56,88,217180,2,0,P|84:40|140:32,2,109.999990463257,4|8|2,0:0|0:0|0:0,0:0:0
148,124,219094,1,8,0:0:0
176,164,219414,1,8,0:0:0
220,188,219733,6,0,P|276:212|332:204,1,109.999990463257,4|8,0:0|0:0,0:0:0
416,176,221009,1,2,0:0:0
452,84,221648,1,8,0:0:0
492,116,221967,5,0,0:0:0
508,164,222286,2,0,P|504:220|456:256,1,109.999990463257,4|8,0:0|0:0,0:0:0
368,272,223563,1,2,0:0:0
292,336,224201,1,8,0:0:0
256,192,224839,12,2,228669,0:0:0
148,184,229946,6,0,P|192:216|212:268,1,109.999990463257,4|8,0:0|0:0,0:0:0
272,348,231222,1,2,0:0:0
372,340,231860,2,0,P|432:332|456:284,1,109.999990463257,8|2,0:0|0:0,0:0:0
408,204,233137,2,0,P|348:212|324:260,1,109.999990463257,8|2,0:0|0:0,0:0:0
288,284,234094,2,0,P|224:296,1,54.9999952316285,0|8,0:0|0:0,0:0:0
136,284,235052,6,0,P|92:248|76:192,1,109.999990463257,4|8,0:0|0:0,0:0:0
92,100,236329,1,2,0:0:0
184,64,236967,2,0,P|240:60,1,54.9999952316285,8|0,0:0|0:0,0:0:0
288,72,237605,2,0,P|344:100|376:152,2,109.999990463257,4|8|2,0:0|0:0|0:0,0:0:0
284,172,239520,1,8,0:0:0
236,180,239839,1,8,0:0:0
192,200,240158,6,0,P|144:236|132:288,1,109.999990463257,4|8,0:0|0:0,0:0:0
164,376,241435,1,2,0:0:0
248,324,242073,1,8,0:0:0
296,308,242392,1,0,0:0:0
344,304,242712,6,0,P|400:300|448:324,1,109.999990463257,4|8,0:0|0:0,0:0:0
484,232,243988,1,2,0:0:0
472,132,244626,1,8,0:0:0
256,192,245265,12,4,250371,0:0:0
