osu file format v11

[General]
AudioFilename: S.I.D.mp3
AudioLeadIn: 0
PreviewTime: 120073
Countdown: 0
SampleSet: Soft
StackLeniency: 0.7
Mode: 0
LetterboxInBreaks: 1

[Editor]
DistanceSpacing: 0.8
BeatDivisor: 4
GridSize: 4

[Metadata]
Title:Yeoraea
TitleUnicode:黎崍阿
Artist:S.I.D-Sound
ArtistUnicode:S.I.D-Sound
Creator:Star Stream
Version:Hard
Source:
Tags:Roricheseul Kaburagi Kotetsu HelloSCV
BeatmapID:168142
BeatmapSetID:55425

[Difficulty]
HPDrainRate:7
CircleSize:4
OverallDifficulty:6
ApproachRate:7
SliderMultiplier:2.5
SliderTickRate:2

[Events]
//Background and Video events
0,0,"77.jpg"
//Break Periods
2,45940,47840
2,69939,71173
2,142273,159840
2,230273,239840
//Storyboard Layer 0 (Background)
//Storyboard Layer 1 (Fail)
//Storyboard Layer 2 (Pass)
//Storyboard Layer 3 (Foreground)
//Storyboard Sound Samples
//Background Colour Transformations
3,100,163,162,255

[TimingPoints]
3407,666.666666666667,4,2,1,40,1,0
48740,-100,4,2,0,40,0,0
94740,-100,4,2,0,20,0,0
95407,-100,4,2,0,5,0,0
96073,-100,4,2,0,70,0,0
96740,-100,4,2,0,40,0,0
120073,-100,4,2,0,70,0,0
120740,-83.3333333333333,4,2,0,40,0,1
142073,-100,4,2,0,40,0,0
187407,-83.3333333333333,4,2,0,40,0,1
208073,-83.3333333333333,4,2,0,40,0,0
208740,-83.3333333333333,4,2,0,40,0,1
230073,-100,4,2,0,40,0,0
251407,-83.3333333333333,4,2,0,40,0,1
272073,-83.3333333333333,4,2,0,40,0,0
272740,-83.3333333333333,4,2,0,40,0,1
282740,-83.3333333333333,4,2,0,40,0,0
283407,-83.3333333333333,4,2,0,40,0,1
294073,-83.3333333333333,4,2,0,40,0,0

[Colours]
Combo1 : 255,172,89
Combo2 : 255,255,128
Combo3 : 255,166,255

[HitObjects]
88,316,3407,2,0,B|156:304|168:232,1,125,2|0,0:0|0:0,0:0:0
104,156,4073,1,2,0:0:0
160,72,4407,1,2,0:0:0
248,120,4740,2,0,B|328:244|464:172,1,250,2|2,0:0|0:0,0:0:0
496,76,5740,1,2,0:0:0
396,76,6073,6,0,B|272:156|344:292,2,250,2|2|2,0:0|0:0|0:0,0:0:0
488,252,8073,1,2,0:0:0
416,320,8407,1,0,0:0:0
316,304,8740,6,0,B|256:280|192:296,1,125,2|0,0:0|0:0,0:0:0
100,264,9407,2,0,B|124:204|108:140,1,125,2|2,0:0|0:0,0:0:0
16,180,10073,2,0,B|136:228|264:196,1,250,2|2,0:0|0:0,0:0:0
348,148,11073,1,2,0:0:0
448,156,11406,6,0,B|496:204|500:268,1,125,2|0,0:0|0:0,0:0:0
400,260,12073,2,0,B|396:196|348:148,1,125,2|0,0:0|0:0,0:0:0
264,92,12740,2,0,B|220:136|224:212|224:212|284:240|284:312,2,250,2|0|2,0:0|0:0|0:0,0:0:0
428,32,14406,5,2,0:0:0
428,32,14573,1,0,0:0:0
428,32,14740,1,2,0:0:0
360,104,15073,1,2,0:0:0
268,68,15406,2,0,B|208:40|144:52,1,125,2|0,0:0|0:0,0:0:0
68,112,16073,2,0,B|128:140|192:128|192:128|200:196|160:256,1,250,2|2,0:0|0:0,0:0:0
28,312,17073,5,2,0:0:0
36,264,17240,1,0,0:0:0
68,224,17406,2,0,B|120:192|192:192,1,125,2|2,0:0|0:0,0:0:0
236,363,18073,2,0,B|182:333|146:271,1,125,2|0,0:0|0:0,0:0:0
274,148,18740,2,0,B|275:209|242:267,1,125,2|0,0:0|0:0,0:0:0
180,188,19407,5,2,0:0:0
274,148,19740,1,2,0:0:0
324,136,19907,1,0,0:0:0
372,140,20073,1,2,0:0:0
328,232,20407,1,2,0:0:0
448,104,20740,5,2,0:0:0
276,64,21073,1,0,0:0:0
407,184,21407,1,2,0:0:0
356,16,21740,1,0,0:0:0
236,145,22073,6,0,B|184:188|120:184,1,125,2|0,0:0|0:0,0:0:0
276,64,22740,2,0,B|319:116|315:180,1,125,2|0,0:0|0:0,0:0:0
120,184,23407,2,0,B|29:131|109:-6|200:45,2,250,2|0|2,0:0|0:0|0:0,0:0:0
212,140,25073,6,0,B|152:108,2,62.5,2|0|2,0:0|0:0|0:0,0:0:0
304,176,25740,1,2,0:0:0
448,132,26073,2,0,B|480:76|476:8,1,125,2|0,0:0|0:0,0:0:0
388,60,26740,2,0,B|356:116|360:184,1,125,2|0,0:0|0:0,0:0:0
436,244,27407,5,2,0:0:0
360,308,27740,1,2,0:0:0
312,288,27907,1,0,0:0:0
264,284,28073,2,0,B|200:264|136:280,1,125,2|2,0:0|0:0,0:0:0
192,364,28740,1,2,0:0:0
260,232,29073,1,2,0:0:0
128,168,29407,2,0,B|108:232|124:296|124:296|184:268|240:300,1,250,2|2,0:0|0:0,0:0:0
328,352,30407,5,2,0:0:0
328,352,30573,1,0,0:0:0
328,352,30740,1,2,0:0:0
452,228,31073,1,2,0:0:0
328,352,31407,1,2,0:0:0
176,264,31740,1,0,0:0:0
328,352,32073,2,0,B|392:332|452:344,1,125,2|0,0:0|0:0,0:0:0
292,276,32740,5,2,0:0:0
208,328,33073,1,2,0:0:0
324,196,33407,1,2,0:0:0
408,248,33740,1,2,0:0:0
288,120,34073,1,2,0:0:0
204,172,34407,1,0,0:0:0
324,300,34740,1,2,0:0:0
408,248,35073,1,0,0:0:0
388,348,35407,6,0,B|336:438|197:358|249:268,1,250,2|2,0:0|0:0,0:0:0
304,188,36407,1,2,0:0:0
396,224,36740,2,0,B|460:224,2,62.5,2|0|0,0:0|0:0|0:0,0:0:0
304,188,37407,2,0,B|232:176|204:112,1,125,2|0,0:0|0:0,0:0:0
124,64,38073,6,0,B|8:136|36:288,2,250,2|2|2,0:0|0:0|0:0,0:0:0
252,144,39740,1,0,0:0:0
140,240,40073,1,2,0:0:0
252,144,40406,1,0,0:0:0
348,272,40740,6,0,B|412:252|432:188,1,125,2|2,0:0|0:0,0:0:0
416,88,41406,1,2,0:0:0
328,40,41740,1,2,0:0:0
280,56,41906,1,0,0:0:0
232,72,42073,1,2,0:0:0
184,56,42240,1,0,0:0:0
136,40,42406,1,2,0:0:0
48,84,42740,2,0,B|8:136|16:212,1,125,2|0,0:0|0:0,0:0:0
108,160,43406,5,2,0:0:0
238,274,43740,1,2,0:0:0
65,262,44073,1,2,0:0:0
218,174,44406,1,2,0:0:0
141,330,44740,1,2,0:0:0
108,160,45073,1,0,0:0:0
238,274,45406,1,2,0:0:0
65,262,45740,1,0,0:0:0
96,288,48740,6,0,B|164:280|200:220,1,125,2|0,0:0|0:0,0:0:0
280,164,49406,2,0,B|347:277|483:293,1,250,2|2,0:0|0:0,0:0:0
432,208,50406,1,0,0:0:0
336,232,50740,2,0,B|276:264|264:332,1,125,2|0,0:0|0:0,0:0:0
180,272,51406,6,0,B|157:141|37:77,1,250,2|2,0:0|0:0,0:0:0
4,172,52406,1,0,0:0:0
88,224,52740,2,0,B|152:204|172:140,1,125,2|0,0:0|0:0,0:0:0
164,40,53406,2,0,B|100:60|80:124,1,125,2|0,0:0|0:0,0:0:0
160,184,54073,6,0,B|272:252|404:192,2,250,2|2|2,0:0|0:0|0:0,0:0:0
236,120,55740,1,0,0:0:0
332,152,56073,2,0,B|372:208|364:276,1,125,2|0,0:0|0:0,0:0:0
292,340,56740,6,0,B|279:235|437:216|451:320,1,250,2|2,0:0|0:0,0:0:0
380,384,57740,1,2,0:0:0
292,340,58073,2,0,B|240:308|168:312,1,125,2|0,0:0|0:0,0:0:0
72,324,58740,2,0,B|104:272|100:200,1,125,2|0,0:0|0:0,0:0:0
76,108,59406,6,0,B|180:172|324:164,2,250,2|2|2,0:0|0:0|0:0,0:0:0
148,40,61073,1,0,0:0:0
248,60,61406,2,0,B|300:92|372:88,1,125,2|0,0:0|0:0,0:0:0
464,56,62073,6,0,B|367:16|304:162|401:203,1,250,2|2,0:0|0:0,0:0:0
484,148,63073,1,2,0:0:0
400,204,63406,2,0,B|497:245|434:391|337:351,2,250,2|2|2,0:0|0:0|0:0,0:0:0
300,196,65073,6,0,B|300:272|372:280,1,125,0|2,0:0|0:0,0:0:0
300,352,65740,1,2,0:0:0
300,352,65906,2,0,B|216:296|108:320,1,187.5,2|0,0:0|0:0,0:0:0
20,312,66740,1,2,0:0:0
84,236,67073,1,0,0:0:0
84,236,67240,1,0,0:0:0
84,236,67406,6,0,B|116:176|108:116,1,125,2|0,0:0|0:0,0:0:0
24,60,68073,1,2,0:0:0
8,160,68406,1,2,0:0:0
8,160,68573,2,0,B|96:196|196:176,1,187.5,2|0,0:0|0:0,0:0:0
168,80,69406,2,0,B|102:53|27:68,1,125,2|0,0:0|0:0,0:0:0
96,312,72073,5,2,0:0:0
180,256,72406,1,0,0:0:0
272,296,72740,2,0,B|332:272|400:284,1,125,2|0,0:0|0:0,0:0:0
332,360,73406,2,0,B|272:384|204:372,1,125,2|0,0:0|0:0,0:0:0
416,204,74073,2,0,B|521:209|511:368|407:363,1,250,2|2,0:0|0:0,0:0:0
364,280,75073,1,0,0:0:0
275,279,75406,6,0,B|227:185|369:113|417:206,1,250,2|2,0:0|0:0,0:0:0
364,280,76406,1,0,0:0:0
200,312,76740,2,0,B|170:252|204:190,1,125,2|0,0:0|0:0,0:0:0
328,192,77406,2,0,B|358:252|324:314,1,125,2|0,0:0|0:0,0:0:0
240,160,78073,6,0,B|264:100|328:80|328:80|376:136|440:136,2,250,2|2|2,0:0|0:0|0:0,0:0:0
176,236,79740,1,0,0:0:0
80,208,80073,2,0,B|32:160|32:96,1,125,2|0,0:0|0:0,0:0:0
108,28,80740,5,2,0:0:0
200,68,81073,1,0,0:0:0
200,168,81407,1,2,0:0:0
136,244,81740,1,2,0:0:0
136,244,81907,2,0,B|216:184|320:184,1,187.5,2|0,0:0|0:0,0:0:0
184,300,82740,2,0,B|244:255|322:255,1,125,2|0,0:0|0:0,0:0:0
268,352,83407,6,0,B|344:360|380:311|380:311|408:248|360:184,2,250,2|2|2,0:0|0:0|0:0,0:0:0
184,296,85073,1,0,0:0:0
92,336,85407,2,0,B|48:288|52:216,1,125,2|0,0:0|0:0,0:0:0
64,124,86073,6,0,B|112:168|184:164,1,125,2|0,0:0|0:0,0:0:0
268,116,86740,1,2,0:0:0
364,148,87073,1,0,0:0:0
452,104,87407,2,0,B|496:152|496:224,1,125,2|0,0:0|0:0,0:0:0
328,276,88073,2,0,B|284:228|284:156,1,125,2|0,0:0|0:0,0:0:0
380,184,88740,5,2,0:0:0
432,268,89073,1,0,0:0:0
384,356,89407,1,2,0:0:0
284,376,89740,1,2,0:0:0
284,376,89907,2,0,B|184:352|184:352|188:300|224:264,1,187.5,2|0,0:0|0:0,0:0:0
304,180,90740,2,0,B|316:244|280:304,1,125,2|0,0:0|0:0,0:0:0
216,224,91407,5,2,0:0:0
164,140,91740,1,0,0:0:0
212,52,92073,1,2,0:0:0
312,32,92407,1,2,0:0:0
312,32,92573,2,0,B|412:56|412:56|408:108|372:144,1,187.5,2|0,0:0|0:0,0:0:0
312,204,93407,2,0,B|240:184|244:108,1,125,2|0,0:0|0:0,0:0:0
312,32,94073,5,0,0:0:0
312,32,94740,1,0,0:0:0
312,32,95407,1,0,0:0:0
312,32,96073,6,0,B|296:92,1,62.5
400,168,96407,2,0,B|416:228,1,62.5
312,304,96740,6,0,B|204:368|68:352,1,250,6|2,0:0|0:0,0:0:0
32,260,97740,1,0,0:0:0
80,172,98073,2,0,B|132:216|132:280,1,125,2|0,0:0|0:0,0:0:0
228,248,98740,2,0,B|280:204|280:140,1,125,2|0,0:0|0:0,0:0:0
352,72,99407,6,0,B|408:156|384:248|320:296,1,250,2|2,0:0|0:0,0:0:0
228,248,100407,1,0,0:0:0
272,160,100740,2,0,B|351:169|418:237|411:337,1,250,2|0,0:0|0:0,0:0:0
320,380,101740,1,0,0:0:0
232,336,102073,6,0,B|172:304|108:316,1,125,2|0,0:0|0:0,0:0:0
144,220,102740,2,0,B|176:160|164:96,1,125,2|0,0:0|0:0,0:0:0
80,44,103407,2,0,B|16:88|16:88|32:148|104:152,2,187.5,2|2|2,0:0|0:0|0:0,0:0:0
176,16,104740,5,2,0:0:0
264,60,105073,1,0,0:0:0
452,16,105407,1,2,0:0:0
364,60,105740,1,2,0:0:0
364,60,105907,2,0,B|280:132|324:232,1,187.5,2|0,0:0|0:0,0:0:0
388,304,106740,2,0,B|420:240|392:176,1,125,2|0,0:0|0:0,0:0:0
316,120,107407,6,0,B|208:200|76:148,1,250,2|2,0:0|0:0,0:0:0
136,64,108407,1,2,0:0:0
136,64,108573,2,0,B|184:152|156:252,1,187.5,2|0,0:0|0:0,0:0:0
112,336,109407,2,0,B|172:304|240:324,1,125,2|0,0:0|0:0,0:0:0
328,352,110073,5,2,0:0:0
436,216,110407,1,0,0:0:0
496,296,110740,1,2,0:0:0
424,368,111073,1,2,0:0:0
424,368,111240,2,0,B|392:264|288:248,1,187.5,2|0,0:0|0:0,0:0:0
204,296,112073,1,2,0:0:0
108,276,112407,1,0,0:0:0
44,200,112740,6,0,B|60:132|132:108,1,125,2|0,0:0|0:0,0:0:0
220,136,113407,2,0,B|204:204|132:228,1,125,2|0,0:0|0:0,0:0:0
292,136,114073,2,0,B|308:204|371:225,1,125,2|0,0:0|0:0,0:0:0
468,200,114740,2,0,B|452:132|388:110,1,125,2|0,0:0|0:0,0:0:0
256,192,115407,12,0,118073,0:0:0
112,320,120073,5,0,0:0:0
80,280,120240,1,0,0:0:0
60,232,120407,1,0,0:0:0
76,184,120573,1,0,0:0:0
108,144,120740,6,0,B|168:196|252:180,1,150.000003576279,6|0,0:0|0:0,0:0:0
352,120,121407,2,0,B|292:68|208:84,1,150.000003576279,2|0,0:0|0:0,0:0:0
284,328,122073,2,0,B|336:268|320:184,1,150.000003576279,2|0,0:0|0:0,0:0:0
212,84,122740,2,0,B|160:144|176:228,1,150.000003576279,2|0,0:0|0:0,0:0:0
420,148,123407,6,0,B|360:96|276:108|276:108|228:168|252:252,2,300.000007152558,2|2|2,0:0|0:0|0:0,0:0:0
488,244,125073,1,0,0:0:0
404,328,125407,1,2,0:0:0
284,316,125740,1,2,0:0:0
284,316,125907,1,0,0:0:0
284,316,126073,6,0,B|204:316|148:376,1,150.000003576279,2|0,0:0|0:0,0:0:0
100,340,126573,2,0,B|108:208|4:148,1,225.000005364418,2|2,0:0|0:0,0:0:0
20,92,127240,1,0,0:0:0
60,48,127407,2,0,B|132:16|216:32,1,150.000003576279,2|2,0:0|0:0,0:0:0
264,52,127907,2,0,B|196:148|268:264,1,225.000005364418,2|2,0:0|0:0,0:0:0
320,292,128573,1,0,0:0:0
376,308,128740,6,0,B|440:264|440:180,1,150.000003576279,2|0,0:0|0:0,0:0:0
392,68,129407,2,0,B|328:112|328:196,2,150.000003576279,2|0|2,0:0|0:0|0:0,0:0:0
488,140,130407,1,0,0:0:0
412,236,130740,1,2,0:0:0
296,204,131073,1,0,0:0:0
196,272,131407,6,0,B|228:348|320:328,1,150.000003576279,2|0,0:0|0:0,0:0:0
368,296,131907,2,0,B|384:172|504:124,1,225.000005364418,2|2,0:0|0:0,0:0:0
400,60,132740,1,2,0:0:0
184,140,133073,1,0,0:0:0
255,44,133407,1,2,0:0:0
328,155,133740,1,0,0:0:0
144,56,134073,6,0,B|63:193|111:346,2,300.000007152558,2|2|2,0:0|0:0|0:0,0:0:0
252,108,135740,1,0,0:0:0
336,24,136073,1,2,0:0:0
448,64,136407,1,0,0:0:0
448,64,136573,1,0,0:0:0
448,64,136740,6,0,B|416:144|424:216,1,150.000003576279,2|0,0:0|0:0,0:0:0
476,236,137240,2,0,B|344:268|300:368,1,225.000005364418,2|2,0:0|0:0,0:0:0
60,244,138073,5,2,0:0:0
180,236,138407,1,2,0:0:0
232,344,138740,1,2,0:0:0
112,352,139073,1,2,0:0:0
112,352,139240,1,2,0:0:0
256,192,139407,12,4,142073,0:0:0
256,192,160740,12,0,163406,0:0:0
452,208,166073,6,0,B|428:280|352:292,1,125,2|0,0:0|0:0,0:0:0
328,324,166573,2,0,B|236:288|140:328,1,187.5,2|2,0:0|0:0,0:0:0
20,200,167406,1,2,0:0:0
192,236,167740,1,0,0:0:0
52,340,168073,1,2,0:0:0
104,172,168406,1,0,0:0:0
272,220,168740,6,0,B|344:204|360:128,1,125,2|0,0:0|0:0,0:0:0
392,100,169240,2,0,B|496:132|508:240,1,187.5,2|2,0:0|0:0,0:0:0
464,324,170073,1,2,0:0:0
344,196,170406,1,0,0:0:0
208,308,170740,1,2,0:0:0
160,304,170906,1,0,0:0:0
112,300,171073,1,2,0:0:0
52,104,171406,6,0,B|100:60|168:72,1,125,2|0,0:0|0:0,0:0:0
228,268,172073,2,0,B|180:312|112:300,1,125,2|0,0:0|0:0,0:0:0
52,220,172740,2,0,B|124:154|226:172,2,187.5,2|2|2,0:0|0:0|0:0,0:0:0
157,364,174073,5,2,0:0:0
52,220,174406,1,0,0:0:0
219,275,174740,1,2,0:0:0
52,329,175073,1,0,0:0:0
52,329,175240,2,0,B|144:276|148:172,1,187.5,2|0,0:0|0:0,0:0:0
196,88,176073,1,2,0:0:0
240,60,176240,1,0,0:0:0
288,44,176406,1,2,0:0:0
336,48,176573,1,0,0:0:0
384,60,176740,6,0,B|404:128|468:144,1,125,2|0,0:0|0:0,0:0:0
428,236,177406,1,2,0:0:0
336,200,177740,1,2,0:0:0
336,200,177906,2,0,B|316:268|360:328|424:344,1,187.5,2|0,0:0|0:0,0:0:0
508,292,178740,1,2,0:0:0
428,236,179073,1,0,0:0:0
340,288,179406,6,0,B|288:336|224:328,1,125,2|0,0:0|0:0,0:0:0
132,292,180073,1,2,0:0:0
184,208,180406,1,2,0:0:0
184,208,180573,2,0,B|232:260|236:332|192:380,1,187.5,2|0,0:0|0:0,0:0:0
20,284,181406,1,2,0:0:0
64,140,181740,1,0,0:0:0
168,32,182073,6,0,B|220:72|288:60,1,125,2|0,0:0|0:0,0:0:0
328,36,182573,2,0,B|344:132|448:184,1,187.5,2|2,0:0|0:0,0:0:0
424,80,183406,1,2,0:0:0
332,124,183740,1,0,0:0:0
252,184,184073,1,2,0:0:0
188,260,184406,1,0,0:0:0
132,344,184740,6,0,B|108:208|-12:152,2,250,2|0|0,0:0|0:0|0:0,0:0:0
228,380,186406,1,0,0:0:0
312,324,186740,2,0,B|436:324,1,125,2|0,0:0|0:0,0:0:0
500,224,187407,5,6,0:0:0
408,148,187740,1,2,0:0:0
408,148,187906,2,0,B|392:228|308:252,1,150.000003576279,2|0,0:0|0:0,0:0:0
252,268,188406,1,2,0:0:0
136,232,188740,1,2,0:0:0
136,232,188906,1,0,0:0:0
136,232,189073,1,0,0:0:0
208,136,189406,1,2,0:0:0
36,20,189740,1,0,0:0:0
68,136,190073,6,0,B|104:72|184:44,1,150.000003576279,2|0,0:0|0:0,0:0:0
328,44,190740,2,0,B|408:72|444:136,1,150.000003576279,2|0,0:0|0:0,0:0:0
340,240,191406,2,0,B|340:376|164:376|164:240,1,300.000007152558,2|0,0:0|0:0,0:0:0
256,164,192406,5,2,0:0:0
308,136,192573,1,0,0:0:0
368,144,192740,2,0,B|460:136|472:228,1,150.000003576279,2|0,0:0|0:0,0:0:0
440,276,193240,1,2,0:0:0
256,164,193740,5,2,0:0:0
204,136,193906,1,0,0:0:0
144,144,194073,2,0,B|52:136|40:228,1,150.000003576279,2|0,0:0|0:0,0:0:0
72,276,194573,1,2,0:0:0
256,164,195073,5,2,0:0:0
296,116,195240,1,0,0:0:0
256,72,195406,2,0,B|184:104|168:192,1,150.000003576279,2|0,0:0|0:0,0:0:0
256,312,196073,2,0,B|328:280|344:192,1,150.000003576279,2|0,0:0|0:0,0:0:0
388,88,196740,2,0,B|476:104|508:196|508:196|408:308,2,299.999990844727,2|2|2,0:0|0:0|0:0,0:0:0
272,52,198406,5,2,0:0:0
272,52,198573,2,0,B|260:176|128:216,1,225.000005364418,2|2,0:0|0:0,0:0:0
48,60,199406,1,2,0:0:0
68,256,199740,1,0,0:0:0
193,74,200073,1,2,0:0:0
7,123,200406,1,0,0:0:0
249,127,200740,6,0,B|303:188|285:263|285:263|214:310|137:288,2,300.000007152558,2|2|2,0:0|0:0|0:0,0:0:0
136,84,202406,1,0,0:0:0
59,173,202740,2,0,B|59:253|139:289,1,150.000003576279,2|0,0:0|0:0,0:0:0
236,224,203406,6,0,B|256:148|344:124,1,150.000003576279,2|0,0:0|0:0,0:0:0
388,88,203906,2,0,B|260:96|180:4,1,225.000005364418,2|2,0:0|0:0,0:0:0
84,76,204740,1,2,0:0:0
24,180,205073,1,2,0:0:0
68,292,205406,1,2,0:0:0
168,360,205740,2,2,B|248:360,1,75.0000017881394
256,192,206073,12,2,208073,0:0:0
332,112,208740,5,4,0:0:0
228,52,209073,1,0,0:0:0
228,52,209240,2,0,P|190:110|230:170,1,149.999995422363,2|0,0:0|0:0,0:0:0
230,170,209740,1,2,0:0:0
336,224,210073,1,2,0:0:0
420,140,210406,1,0,0:0:0
500,228,210740,1,2,0:0:0
416,312,211073,1,0,0:0:0
336,224,211406,6,0,P|266:233|246:302,1,149.999995422363,2|0,0:0|0:0,0:0:0
380,276,212073,2,0,P|406:211|356:159,1,149.999995422363,2|0,0:0|0:0,0:0:0
156,200,212740,2,0,P|240:310|380:276,1,299.999990844727,2|2,0:0|0:0,0:0:0
332,100,213740,5,2,0:0:0
300,152,213906,1,0,0:0:0
268,204,214073,2,0,P|196:344,1,149.999995422363,2|0,0:0|0:0,0:0:0
199,337,214573,1,2,0:0:0
188,100,215073,5,2,0:0:0
156,152,215240,1,0,0:0:0
124,204,215406,2,0,P|52:344,1,149.999995422363,2|0,0:0|0:0,0:0:0
55,337,215906,1,2,0:0:0
80,92,216406,5,2,0:0:0
120,48,216573,1,0,0:0:0
176,32,216740,2,0,P|252:20|300:68,1,149.999995422363,2|0,0:0|0:0,0:0:0
344,180,217406,2,0,P|268:192|220:144,1,149.999995422363,2|0,0:0|0:0,0:0:0
376,72,218073,2,0,P|448:161|421:258,2,224.999993133545,2|2|0,0:0|0:0|0:0,0:0:0
260,40,219406,5,2,0:0:0
176,128,219740,1,0,0:0:0
176,128,219906,2,0,P|176:232|280:224|280:320,1,224.999993133545,2|2,0:0|0:0,0:0:0
108,164,220740,6,0,B|129:238|189:285,1,149.999995422363,2|0,0:0|0:0,0:0:0
348,288,221406,2,0,B|326:213|266:166,1,149.999995422363,2|0,0:0|0:0,0:0:0
192,72,222073,2,0,P|328:36|396:168,2,299.999990844727,2|2|2,0:0|0:0|0:0,0:0:0
164,188,223740,5,2,0:0:0
292,124,224073,1,2,0:0:0
340,272,224406,1,2,0:0:0
340,272,224573,1,0,0:0:0
340,272,224740,2,0,P|500:272,1,149.999995422363,2|0,0:0|0:0,0:0:0
476,200,225240,2,0,P|324:200|324:200|284:208|272:248,1,224.999993133545,2|2,0:0|0:0,0:0:0
192,156,226073,5,2,0:0:0
192,276,226406,1,2,0:0:0
276,80,226740,1,2,0:0:0
108,80,227073,1,2,0:0:0
108,80,227240,1,2,0:0:0
256,192,227406,12,4,230073,0:0:0
100,236,240740,5,2,0:0:0
229,293,241073,1,0,0:0:0
158,171,241406,1,2,0:0:0
144,312,241740,1,2,0:0:0
144,312,241906,2,0,B|180:216|280:184,1,187.5,2|0,0:0|0:0,0:0:0
328,268,242740,2,0,B|303:332|236:354,1,125,2|0,0:0|0:0,0:0:0
144,312,243406,5,2,0:0:0
272,192,243740,1,0,0:0:0
104,244,244073,1,2,0:0:0
276,268,244406,1,2,0:0:0
276,268,244573,2,0,B|372:304|452:228,1,187.5,2|0,0:0|0:0,0:0:0
504,144,245406,1,2,0:0:0
428,80,245740,1,0,0:0:0
344,132,246073,6,0,B|288:168|224:156,1,125,2|0,0:0|0:0,0:0:0
184,128,246573,2,0,B|88:172|72:272,1,187.5,2|2,0:0|0:0,0:0:0
148,336,247406,2,0,B|204:300|268:312,1,125,2|0,0:0|0:0,0:0:0
308,340,247906,2,0,B|404:296|420:196,1,187.5,2|2,0:0|0:0,0:0:0
256,192,248740,12,2,250740,0:0:0
88,88,251407,6,0,P|48:124|48:188|88:220,1,149.999995422363,4|0,0:0|0:0,0:0:0
140,252,251906,2,0,P|199:198|199:102|140:54,1,224.999993133545,2|2,0:0|0:0,0:0:0
60,156,252740,1,2,0:0:0
139,53,253073,1,0,0:0:0
220,156,253406,1,2,0:0:0
299,53,253740,1,0,0:0:0
376,156,254073,6,0,P|416:124|416:60|376:24,1,149.999995422363,2|0,0:0|0:0,0:0:0
312,200,254740,2,0,P|344:240|408:240|444:200,1,149.999995422363,2|0,0:0|0:0,0:0:0
324,92,255406,2,0,P|194:127|229:258,1,299.999990844727,2|2,0:0|0:0,0:0:0
340,212,256406,5,2,0:0:0
288,184,256573,1,0,0:0:0
236,156,256740,2,0,P|128:88|128:88|48:136|48:232,1,299.999990844727,2|2,0:0|0:0,0:0:0
124,332,257740,5,2,0:0:0
176,304,257906,1,0,0:0:0
228,276,258073,2,0,P|336:208|336:208|416:256|416:352,1,299.999990844727,2|2,0:0|0:0,0:0:0
300,320,259073,5,2,0:0:0
264,272,259240,1,0,0:0:0
228,224,259406,2,0,P|184:164|112:176,1,149.999995422363,2|0,0:0|0:0,0:0:0
296,216,260073,2,0,P|269:279|195:287,1,149.999995422363,2|0,0:0|0:0,0:0:0
76,116,260740,2,0,P|59:217|158:228,2,224.999993133545,2|2|0,0:0|0:0|0:0,0:0:0
164,36,262073,5,2,0:0:0
248,120,262406,1,0,0:0:0
248,120,262573,2,0,P|328:64|368:180|464:120,1,224.999993133545,2|2,0:0|0:0,0:0:0
296,184,263406,5,2,0:0:0
404,60,263740,1,0,0:0:0
452,216,264073,1,2,0:0:0
356,288,264406,1,0,0:0:0
296,184,264740,6,0,P|340:128|408:148,1,149.999995422363,2|0,0:0|0:0,0:0:0
380,264,265406,2,0,P|336:320|268:300,1,149.999995422363,2|0,0:0|0:0,0:0:0
188,212,266073,2,0,P|58:247|93:378,1,299.999990844727,2|2,0:0|0:0,0:0:0
196,320,267073,1,2,0:0:0
308,368,267406,6,0,P|444:304,1,149.999995422363,2|0,0:0|0:0,0:0:0
504,316,267906,2,0,P|440:276|408:188|428:120,1,224.999993133545,2|2,0:0|0:0,0:0:0
500,24,268740,1,2,0:0:0
388,60,269073,1,2,0:0:0
496,116,269406,1,2,0:0:0
384,152,269740,1,2,0:0:0
384,152,269906,1,2,0:0:0
256,192,270073,12,0,272073,0:0:0
132,64,272740,6,0,P|96:216,1,149.999995422363,4|2,0:0|0:0,0:0:0
156,316,273406,2,0,P|190:170,1,149.999995422363,0|2,0:0|0:0,0:0:0
288,100,274073,2,0,P|252:252,1,149.999995422363,0|2,0:0|0:0,0:0:0
312,352,274740,2,0,P|346:206,1,149.999995422363,0|2,0:0|0:0,0:0:0
436,124,275406,6,0,P|424:188|496:212|496:212|420:284|456:380,2,299.999990844727,2|2|2,0:0|0:0|0:0,0:0:0
344,44,277073,2,0,P|268:44,2,74.9999977111817,0|0|2,0:0|0:0|0:0,0:0:0
508,136,277740,1,0,0:0:0
368,260,278073,6,0,P|304:296|300:368,1,149.999995422363,2|0,0:0|0:0,0:0:0
212,364,278573,2,0,P|187:260|85:224,1,224.999993133545,2|2,0:0|0:0,0:0:0
144,124,279406,6,0,P|208:88|212:16,1,149.999995422363,2|0,0:0|0:0,0:0:0
300,20,279906,2,0,P|324:123|426:159,1,224.999993133545,2|2,0:0|0:0,0:0:0
256,192,280740,6,0,P|202:189|157:234|162:285,1,149.999995422363,2|0,0:0|0:0,0:0:0
256,192,281406,2,0,P|253:245|298:290|349:285,1,149.999995422363,2|0,0:0|0:0,0:0:0
256,192,282073,2,0,P|309:194|354:149|349:98,1,149.999995422363,2|0,0:0|0:0,0:0:0
256,192,282740,2,0,P|258:138|213:93|162:98,1,149.999995422363,2|0,0:0|0:0,0:0:0
148,216,283406,6,0,P|132:292|76:336,1,149.999995422363,2|0,0:0|0:0,0:0:0
44,384,283906,2,0,P|140:332|256:344,1,224.999993133545,2|2,0:0|0:0,0:0:0
256,224,284740,1,2,0:0:0
364,272,285073,1,0,0:0:0
264,184,285406,1,2,0:0:0
372,232,285740,1,2,0:0:0
272,144,286073,6,0,P|240:80|172:96,1,149.999995422363,2|0,0:0|0:0,0:0:0
276,248,286740,2,0,P|212:280|228:348,1,149.999995422363,2|0,0:0|0:0,0:0:0
372,232,287406,2,0,P|404:296|472:280,1,149.999995422363,2|0,0:0|0:0,0:0:0
356,136,288073,2,0,P|420:104|404:36,1,149.999995422363,2|0,0:0|0:0,0:0:0
288,56,288740,6,0,P|216:84|148:68,1,149.999995422363,2|0,0:0|0:0,0:0:0
88,52,289240,2,0,P|140:144|120:260,1,224.999993133545,2|2,0:0|0:0,0:0:0
201,367,290073,1,2,0:0:0
122,258,290406,1,2,0:0:0
122,341,290740,1,2,0:0:0
251,299,291073,2,0,P|328:299,1,74.9999977111817,2|2,0:0|0:0,0:0:0
256,192,291406,12,0,293406,0:0:0
256,100,294073,6,0,P|256:252,1,149.999995422363,2|0,0:0|0:0,0:0:0
192,292,294573,2,0,P|254:322|322:290,1,149.999995422363,2|2,0:0|0:0,0:0:0
352,168,295240,2,0,P|257:121|155:169,1,224.999993133545,2|2,0:0|0:0,0:0:0
192,292,296073,2,0,P|254:261|322:293,1,149.999995422363,2|0,0:0|0:0,0:0:0
322,293,296573,1,2,0:0:0
256,192,296740,12,0,299406,0:0:0
