osu file format v14

[General]
AudioFilename: SweetBrownie.mp3
AudioLeadIn: 0
PreviewTime: 61810
Countdown: 0
SampleSet: Soft
StackLeniency: 0.7
Mode: 3
LetterboxInBreaks: 0
SpecialStyle: 0
WidescreenStoryboard: 0

[Editor]
DistanceSpacing: 1
BeatDivisor: 4
GridSize: 32
TimelineZoom: 0.7999998

[Metadata]
Title:Sweet Brownie
TitleUnicode:Sweet Brownie
Artist:S.I.D-Sound
ArtistUnicode:S.I.D-Sound
Creator:erlinadewi-
Version:Normal
Source:
Tags:INNOCENT MUSIC banami Miracle Planet MAX Cute Korean Touch Mix2 Electronic Ichigaki
BeatmapID:1023373
BeatmapSetID:479174

[Difficulty]
HPDrainRate:7
CircleSize:4
OverallDifficulty:7
ApproachRate:5
SliderMultiplier:1.4
SliderTickRate:1

[Events]
//Background and Video events
0,0,"BG.jpg",0,0
//Break Periods
//Storyboard Layer 0 (Background)
//Storyboard Layer 1 (Fail)
//Storyboard Layer 2 (Pass)
//Storyboard Layer 3 (Foreground)
//Storyboard Sound Samples

[TimingPoints]
53,468.75,4,2,1,30,1,0
61928,-100,4,2,1,30,0,1
75053,-100,4,2,1,30,0,0
76928,-100,4,2,1,30,0,1
90053,-100,4,2,1,30,0,0

[HitObjects]
320,192,287,128,0,1928:0:0:0:0:
448,192,1928,1,2,0:0:0:0:
64,192,1928,1,4,0:0:0:0:
192,192,2279,1,0,0:0:0:0:
64,192,2279,1,0,0:0:0:0:
320,192,2513,1,0,0:0:0:0:
448,192,2631,1,0,0:0:0:0:
64,192,2631,1,0,0:0:0:0:
192,192,2982,1,0,0:0:0:0:
320,192,2982,1,0,0:0:0:0:
448,192,3334,1,0,0:0:0:0:
320,192,3334,1,0,0:0:0:0:
64,192,3568,1,0,0:0:0:0:
192,192,3803,1,0,0:0:0:0:
320,192,3803,1,0,0:0:0:0:
448,192,4154,1,0,0:0:0:0:
192,192,4154,1,0,0:0:0:0:
320,192,4388,1,0,0:0:0:0:
192,192,4506,1,0,0:0:0:0:
64,192,4506,1,0,0:0:0:0:
448,192,4857,1,0,0:0:0:0:
320,192,4857,1,0,0:0:0:0:
64,192,5209,1,0,0:0:0:0:
448,192,5209,1,0,0:0:0:0:
192,192,5443,1,0,0:0:0:0:
320,192,5678,1,0,0:0:0:0:
448,192,5678,1,0,0:0:0:0:
64,192,6029,1,0,0:0:0:0:
320,192,6029,1,0,0:0:0:0:
192,192,6263,1,0,0:0:0:0:
64,192,6381,1,0,0:0:0:0:
448,192,6381,1,0,0:0:0:0:
448,192,6732,1,0,0:0:0:0:
320,192,6732,1,0,0:0:0:0:
64,192,7084,1,0,0:0:0:0:
320,192,7084,1,0,0:0:0:0:
192,192,7318,1,0,0:0:0:0:
320,192,7553,1,0,0:0:0:0:
448,192,7553,1,0,0:0:0:0:
64,192,7904,1,0,0:0:0:0:
448,192,7904,1,0,0:0:0:0:
320,192,8138,1,0,0:0:0:0:
64,192,8256,1,0,0:0:0:0:
192,192,8256,1,0,0:0:0:0:
192,192,8607,1,0,0:0:0:0:
320,192,8607,1,0,0:0:0:0:
64,192,8959,1,0,0:0:0:0:
448,192,8959,1,0,0:0:0:0:
320,192,9193,1,0,0:0:0:0:
64,192,9428,128,0,11303:0:0:0:0:
448,192,9662,1,0,0:0:0:0:
320,192,9896,1,8,0:0:0:0:
192,192,10131,1,0,0:0:0:0:
320,192,10365,1,0,0:0:0:0:
448,192,10599,1,0,0:0:0:0:
192,192,10834,1,8,0:0:0:0:
320,192,11068,1,0,0:0:0:0:
192,192,11303,128,0,13178:0:0:0:0:
448,192,11537,1,0,0:0:0:0:
64,192,11771,1,8,0:0:0:0:
320,192,12006,1,0,0:0:0:0:
448,192,12240,1,0,0:0:0:0:
64,192,12474,1,0,0:0:0:0:
448,192,12709,1,8,0:0:0:0:
320,192,12943,1,0,0:0:0:0:
448,192,13178,128,0,15053:0:0:0:0:
64,192,13412,1,0,0:0:0:0:
320,192,13646,1,8,0:0:0:0:
192,192,13881,1,0,0:0:0:0:
320,192,14115,1,0,0:0:0:0:
64,192,14349,1,0,0:0:0:0:
192,192,14584,1,8,0:0:0:0:
320,192,14818,1,0,0:0:0:0:
192,192,15053,1,2,0:0:0:0:
64,192,15053,1,0,0:0:0:0:
320,192,15404,1,2,0:0:0:0:
448,192,15404,1,0,0:0:0:0:
192,192,15756,1,2,0:0:0:0:
64,192,15756,1,0,0:0:0:0:
448,192,15990,128,2,16928:0:0:0:0:
320,192,16459,128,8,16928:0:0:0:0:
64,192,16928,1,2,0:0:0:0:
192,192,16928,1,4,0:0:0:0:
320,192,17162,1,0,0:0:0:0:
448,192,17396,1,0,0:0:0:0:
64,192,17396,1,8,0:0:0:0:
192,192,17631,1,0,0:0:0:0:
320,192,17865,1,2,0:0:0:0:
64,192,18099,1,0,0:0:0:0:
192,192,18334,1,8,0:0:0:0:
448,192,18334,1,0,0:0:0:0:
320,192,18568,1,0,0:0:0:0:
64,192,18803,1,2,0:0:0:0:
192,192,19037,1,0,0:0:0:0:
64,192,19271,1,8,0:0:0:0:
448,192,19271,1,0,0:0:0:0:
320,192,19506,1,0,0:0:0:0:
448,192,19740,1,2,0:0:0:0:
64,192,19974,1,0,0:0:0:0:
192,192,20209,1,8,0:0:0:0:
320,192,20209,1,0,0:0:0:0:
448,192,20443,1,0,0:0:0:0:
64,192,20678,1,2,0:0:0:0:
192,192,20912,1,0,0:0:0:0:
64,192,21146,1,8,0:0:0:0:
448,192,21146,1,0,0:0:0:0:
320,192,21381,1,0,0:0:0:0:
192,192,21615,1,2,0:0:0:0:
448,192,21849,1,0,0:0:0:0:
320,192,22084,1,0,0:0:0:0:
64,192,22084,1,8,0:0:0:0:
192,192,22318,1,0,0:0:0:0:
64,192,22553,1,2,0:0:0:0:
320,192,22787,1,0,0:0:0:0:
64,192,23021,1,8,0:0:0:0:
448,192,23021,1,0,0:0:0:0:
192,192,23256,1,0,0:0:0:0:
448,192,23490,1,2,0:0:0:0:
320,192,23724,1,0,0:0:0:0:
192,192,23959,1,8,0:0:0:0:
64,192,23959,128,0,24428:0:0:0:0:
448,192,24193,128,0,24428:0:0:0:0:
320,192,24428,1,2,0:0:0:0:
192,192,24662,1,0,0:0:0:0:
448,192,24896,1,0,0:0:0:0:
320,192,24896,1,8,0:0:0:0:
64,192,25131,1,0,0:0:0:0:
320,192,25365,1,2,0:0:0:0:
192,192,25599,1,0,0:0:0:0:
64,192,25834,1,8,0:0:0:0:
448,192,25834,1,0,0:0:0:0:
320,192,26068,1,0,0:0:0:0:
192,192,26303,1,2,0:0:0:0:
64,192,26537,1,0,0:0:0:0:
448,192,26771,1,0,0:0:0:0:
320,192,26771,1,8,0:0:0:0:
192,192,27006,1,0,0:0:0:0:
320,192,27240,1,2,0:0:0:0:
64,192,27474,1,0,0:0:0:0:
192,192,27709,1,8,0:0:0:0:
448,192,27709,1,0,0:0:0:0:
320,192,27943,1,0,0:0:0:0:
64,192,28178,1,2,0:0:0:0:
192,192,28412,1,0,0:0:0:0:
448,192,28646,1,0,0:0:0:0:
320,192,28646,1,8,0:0:0:0:
192,192,28881,1,0,0:0:0:0:
64,192,29115,1,2,0:0:0:0:
448,192,29349,1,0,0:0:0:0:
64,192,29584,1,8,0:0:0:0:
192,192,29584,1,0,0:0:0:0:
320,192,29818,1,0,0:0:0:0:
448,192,30053,128,2,31928:0:0:0:0:
64,192,31459,128,0,31928:0:0:0:0:
192,192,31928,1,2,0:0:0:0:
320,192,32162,128,0,32396:0:0:0:0:
64,192,32396,1,2,0:0:0:0:
192,192,32631,128,0,32865:0:0:0:0:
448,192,32865,1,2,0:0:0:0:
64,192,33099,128,0,33334:0:0:0:0:
192,192,33334,1,2,0:0:0:0:
448,192,33568,128,0,33803:0:0:0:0:
320,192,33803,1,2,0:0:0:0:
64,192,34037,128,0,34271:0:0:0:0:
448,192,34271,1,2,0:0:0:0:
192,192,34506,128,0,34740:0:0:0:0:
448,192,34740,1,2,0:0:0:0:
320,192,34974,128,0,35209:0:0:0:0:
192,192,35209,128,0,35678:0:0:0:0:
448,192,35678,1,2,0:0:0:0:
64,192,35912,128,0,36146:0:0:0:0:
192,192,36146,1,2,0:0:0:0:
448,192,36381,128,0,36615:0:0:0:0:
320,192,36615,1,2,0:0:0:0:
64,192,36849,128,0,37084:0:0:0:0:
448,192,37084,1,2,0:0:0:0:
320,192,37318,128,0,37553:0:0:0:0:
192,192,37553,1,2,0:0:0:0:
448,192,37787,128,0,38021:0:0:0:0:
320,192,38021,1,2,0:0:0:0:
64,192,38256,128,0,38490:0:0:0:0:
192,192,38490,1,2,0:0:0:0:
448,192,38724,128,0,38959:0:0:0:0:
320,192,38959,128,0,39428:0:0:0:0:
64,192,39193,1,2,0:0:0:0:
192,192,39428,1,2,0:0:0:0:
64,192,39662,128,0,39896:0:0:0:0:
320,192,39896,1,2,0:0:0:0:
448,192,40131,128,0,40365:0:0:0:0:
192,192,40365,1,2,0:0:0:0:
320,192,40599,128,0,40834:0:0:0:0:
192,192,40834,1,2,0:0:0:0:
64,192,41068,128,0,41303:0:0:0:0:
448,192,41303,1,2,0:0:0:0:
192,192,41537,128,0,41771:0:0:0:0:
320,192,41771,1,2,0:0:0:0:
448,192,42006,128,0,42240:0:0:0:0:
192,192,42240,1,2,0:0:0:0:
320,192,42474,128,0,42709:0:0:0:0:
64,192,42709,128,0,43178:0:0:0:0:
192,192,43178,1,2,0:0:0:0:
320,192,43412,128,0,43646:0:0:0:0:
448,192,43646,1,2,0:0:0:0:
64,192,43881,128,0,44115:0:0:0:0:
192,192,44115,1,2,0:0:0:0:
320,192,44349,128,0,44584:0:0:0:0:
192,192,44584,1,2,0:0:0:0:
448,192,44818,128,0,45053:0:0:0:0:
320,192,45053,128,0,46459:0:0:0:0:
64,192,45053,1,2,0:0:0:0:
64,192,45521,1,8,0:0:0:0:
192,192,45990,1,8,0:0:0:0:
64,192,46459,1,8,0:0:0:0:
192,192,46459,1,2,0:0:0:0:
448,192,46928,1,4,0:0:0:0:
320,192,46928,1,2,0:0:0:0:
192,192,47162,1,0,0:0:0:0:
64,192,47396,1,8,0:0:0:0:
448,192,47396,1,0,0:0:0:0:
320,192,47631,1,0,0:0:0:0:
192,192,47865,1,2,0:0:0:0:
320,192,48099,1,0,0:0:0:0:
64,192,48334,1,8,0:0:0:0:
448,192,48334,1,0,0:0:0:0:
192,192,48568,1,0,0:0:0:0:
320,192,48803,1,2,0:0:0:0:
192,192,49037,1,0,0:0:0:0:
64,192,49271,1,8,0:0:0:0:
320,192,49271,1,0,0:0:0:0:
448,192,49506,1,0,0:0:0:0:
192,192,49740,1,2,0:0:0:0:
320,192,49974,1,0,0:0:0:0:
64,192,50209,1,8,0:0:0:0:
192,192,50209,1,0,0:0:0:0:
448,192,50443,1,0,0:0:0:0:
320,192,50678,1,2,0:0:0:0:
192,192,50912,1,0,0:0:0:0:
64,192,51146,1,8,0:0:0:0:
448,192,51146,1,0,0:0:0:0:
320,192,51381,1,0,0:0:0:0:
192,192,51615,1,2,0:0:0:0:
320,192,51849,1,0,0:0:0:0:
448,192,52084,1,0,0:0:0:0:
64,192,52084,1,8,0:0:0:0:
192,192,52318,1,0,0:0:0:0:
448,192,52553,128,2,53256:0:0:0:0:
64,192,52787,1,0,0:0:0:0:
320,192,53021,1,0,0:0:0:0:
192,192,53021,1,8,0:0:0:0:
64,192,53256,128,0,53959:0:0:0:0:
192,192,53490,1,2,0:0:0:0:
320,192,53724,1,0,0:0:0:0:
192,192,53959,1,8,0:0:0:0:
448,192,53959,1,0,0:0:0:0:
320,192,54193,1,0,0:0:0:0:
64,192,54428,1,2,0:0:0:0:
192,192,54662,1,0,0:0:0:0:
320,192,54896,1,8,0:0:0:0:
448,192,54896,1,0,0:0:0:0:
64,192,55131,1,0,0:0:0:0:
448,192,55365,1,2,0:0:0:0:
320,192,55599,1,0,0:0:0:0:
64,192,55834,1,8,0:0:0:0:
448,192,55834,1,0,0:0:0:0:
192,192,56068,1,0,0:0:0:0:
64,192,56303,1,2,0:0:0:0:
320,192,56537,1,0,0:0:0:0:
192,192,56771,1,8,0:0:0:0:
448,192,56771,1,0,0:0:0:0:
64,192,57006,1,0,0:0:0:0:
320,192,57240,1,2,0:0:0:0:
192,192,57474,1,0,0:0:0:0:
448,192,57709,1,0,0:0:0:0:
64,192,57709,1,8,0:0:0:0:
320,192,57943,1,0,0:0:0:0:
64,192,58178,128,2,60053:0:0:0:0:
192,192,60053,128,2,60756:0:0:0:0:
320,192,60756,128,0,61459:0:0:0:0:
64,192,61459,128,0,61928:0:0:0:0:
320,192,61928,1,8,0:0:0:0:
448,192,61928,1,4,0:0:0:0:
192,192,62162,1,0,0:0:0:0:
64,192,62396,1,8,0:0:0:0:
448,192,62396,1,0,0:0:0:0:
320,192,62631,1,0,0:0:0:0:
64,192,62865,1,2,0:0:0:0:
192,192,63099,1,0,0:0:0:0:
448,192,63334,1,0,0:0:0:0:
320,192,63334,1,8,0:0:0:0:
192,192,63568,1,0,0:0:0:0:
64,192,63803,1,2,0:0:0:0:
320,192,64037,1,0,0:0:0:0:
192,192,64271,1,8,0:0:0:0:
448,192,64271,1,0,0:0:0:0:
320,192,64506,1,0,0:0:0:0:
64,192,64740,1,2,0:0:0:0:
448,192,64974,128,0,65443:0:0:0:0:
192,192,65209,1,8,0:0:0:0:
64,192,65209,1,0,0:0:0:0:
320,192,65443,1,0,0:0:0:0:
192,192,65678,1,2,0:0:0:0:
320,192,65912,1,0,0:0:0:0:
64,192,66146,1,8,0:0:0:0:
448,192,66146,1,0,0:0:0:0:
192,192,66381,1,0,0:0:0:0:
64,192,66615,1,2,0:0:0:0:
320,192,66849,1,0,0:0:0:0:
192,192,67084,1,8,0:0:0:0:
448,192,67084,1,0,0:0:0:0:
64,192,67318,1,0,0:0:0:0:
320,192,67553,1,2,0:0:0:0:
192,192,67787,1,0,0:0:0:0:
320,192,68021,1,8,0:0:0:0:
448,192,68021,1,0,0:0:0:0:
64,192,68256,1,0,0:0:0:0:
192,192,68490,1,2,0:0:0:0:
320,192,68724,128,0,69193:0:0:0:0:
448,192,68959,1,0,0:0:0:0:
64,192,68959,1,8,0:0:0:0:
192,192,69193,128,8,69428:0:0:0:0:
448,192,69428,1,2,0:0:0:0:
320,192,69662,1,0,0:0:0:0:
64,192,69896,1,8,0:0:0:0:
192,192,69896,1,0,0:0:0:0:
320,192,70131,1,0,0:0:0:0:
448,192,70365,1,2,0:0:0:0:
192,192,70599,1,0,0:0:0:0:
320,192,70834,1,8,0:0:0:0:
448,192,70834,1,0,0:0:0:0:
64,192,71068,1,0,0:0:0:0:
192,192,71303,1,2,0:0:0:0:
448,192,71537,1,0,0:0:0:0:
64,192,71771,1,8,0:0:0:0:
320,192,71771,1,0,0:0:0:0:
192,192,72006,1,0,0:0:0:0:
64,192,72240,1,2,0:0:0:0:
448,192,72474,1,0,0:0:0:0:
192,192,72709,1,8,0:0:0:0:
320,192,72709,1,0,0:0:0:0:
64,192,72943,1,0,0:0:0:0:
320,192,73178,1,2,0:0:0:0:
192,192,73412,1,0,0:0:0:0:
320,192,73646,1,8,0:0:0:0:
448,192,73646,1,0,0:0:0:0:
64,192,73881,1,0,0:0:0:0:
192,192,74115,1,2,0:0:0:0:
320,192,74349,1,0,0:0:0:0:
64,192,74584,1,8,0:0:0:0:
448,192,74584,1,0,0:0:0:0:
192,192,74818,1,0,0:0:0:0:
448,192,75053,128,2,76928:0:0:0:0:
64,192,75521,1,8,0:0:0:0:
192,192,75521,1,0,0:0:0:0:
320,192,75756,1,2,0:0:0:0:
192,192,76224,1,8,0:0:0:0:
64,192,76224,1,0,0:0:0:0:
64,192,76459,1,0,0:0:0:0:
192,192,76459,1,8,0:0:0:0:
320,192,76693,128,8,76928:0:0:0:0:
192,192,76928,1,2,0:0:0:0:
64,192,76928,1,4,0:0:0:0:
448,192,77162,1,0,0:0:0:0:
64,192,77396,1,8,0:0:0:0:
320,192,77396,1,0,0:0:0:0:
192,192,77631,1,0,0:0:0:0:
64,192,77865,1,2,0:0:0:0:
320,192,78099,1,0,0:0:0:0:
192,192,78334,1,8,0:0:0:0:
448,192,78334,1,0,0:0:0:0:
320,192,78568,1,0,0:0:0:0:
64,192,78803,1,2,0:0:0:0:
192,192,79037,1,0,0:0:0:0:
320,192,79271,1,8,0:0:0:0:
448,192,79271,1,0,0:0:0:0:
64,192,79506,1,0,0:0:0:0:
448,192,79740,1,2,0:0:0:0:
320,192,79974,128,0,80443:0:0:0:0:
192,192,80209,1,0,0:0:0:0:
64,192,80209,1,8,0:0:0:0:
448,192,80443,1,0,0:0:0:0:
192,192,80678,1,2,0:0:0:0:
320,192,80912,1,0,0:0:0:0:
192,192,81146,1,0,0:0:0:0:
64,192,81146,1,8,0:0:0:0:
448,192,81381,1,0,0:0:0:0:
64,192,81615,1,2,0:0:0:0:
192,192,81849,1,0,0:0:0:0:
320,192,82084,1,8,0:0:0:0:
448,192,82084,1,0,0:0:0:0:
192,192,82318,1,0,0:0:0:0:
64,192,82553,1,2,0:0:0:0:
320,192,82787,1,0,0:0:0:0:
64,192,83021,1,8,0:0:0:0:
448,192,83021,1,0,0:0:0:0:
192,192,83256,1,0,0:0:0:0:
320,192,83490,1,2,0:0:0:0:
64,192,83724,128,0,84193:0:0:0:0:
448,192,83959,1,0,0:0:0:0:
320,192,83959,1,8,0:0:0:0:
192,192,84193,1,0,0:0:0:0:
448,192,84428,1,2,0:0:0:0:
192,192,84662,1,0,0:0:0:0:
64,192,84896,1,8,0:0:0:0:
448,192,84896,1,0,0:0:0:0:
320,192,85131,1,0,0:0:0:0:
192,192,85365,1,2,0:0:0:0:
64,192,85599,1,0,0:0:0:0:
320,192,85834,1,8,0:0:0:0:
448,192,85834,1,0,0:0:0:0:
192,192,86068,1,0,0:0:0:0:
64,192,86303,1,2,0:0:0:0:
320,192,86537,1,0,0:0:0:0:
192,192,86771,1,8,0:0:0:0:
448,192,86771,1,0,0:0:0:0:
320,192,87006,1,0,0:0:0:0:
64,192,87240,1,2,0:0:0:0:
192,192,87474,1,0,0:0:0:0:
448,192,87709,1,0,0:0:0:0:
64,192,87709,1,8,0:0:0:0:
320,192,87943,1,0,0:0:0:0:
448,192,88178,128,0,89349:0:0:0:0:
64,192,88178,1,2,0:0:0:0:
320,192,88412,1,0,0:0:0:0:
192,192,88646,1,0,0:0:0:0:
64,192,88646,1,8,0:0:0:0:
320,192,88881,1,0,0:0:0:0:
64,192,89115,1,2,0:0:0:0:
192,192,89349,1,0,0:0:0:0:
64,192,89584,1,8,0:0:0:0:
448,192,89584,1,0,0:0:0:0:
320,192,89818,1,0,0:0:0:0:
64,192,90053,1,2,0:0:0:0:
192,192,90053,1,0,0:0:0:0:
320,192,90404,1,0,0:0:0:0:
448,192,90404,1,2,0:0:0:0:
64,192,90756,1,2,0:0:0:0:
192,192,90756,1,0,0:0:0:0:
