osu file format v14

[General]
AudioFilename: SweetBrownie.mp3
AudioLeadIn: 0
PreviewTime: 61810
Countdown: 0
SampleSet: Soft
StackLeniency: 0.7
Mode: 3
LetterboxInBreaks: 0
SpecialStyle: 0
WidescreenStoryboard: 0

[Editor]
DistanceSpacing: 1
BeatDivisor: 4
GridSize: 32
TimelineZoom: 0.9

[Metadata]
Title:Sweet Brownie
TitleUnicode:Sweet Brownie
Artist:S.I.D-Sound
ArtistUnicode:S.I.D-Sound
Creator:erlinadewi-
Version:Beginner
Source:
Tags:INNOCENT MUSIC banami Miracle Planet MAX Cute Korean Touch Mix2 Electronic Ichigaki
BeatmapID:1023248
BeatmapSetID:479174

[Difficulty]
HPDrainRate:6
CircleSize:4
OverallDifficulty:7
ApproachRate:5
SliderMultiplier:1.4
SliderTickRate:1

[Events]
//Background and Video events
0,0,"BG.jpg",0,0
//Break Periods
//Storyboard Layer 0 (Background)
//Storyboard Layer 1 (Fail)
//Storyboard Layer 2 (Pass)
//Storyboard Layer 3 (Foreground)
//Storyboard Sound Samples

[TimingPoints]
53,468.75,4,2,1,30,1,0
61928,-100,4,2,1,30,0,1
75053,-100,4,2,1,30,0,0
76928,-100,4,2,1,30,0,1
90053,-100,4,2,1,30,0,0

[HitObjects]
64,192,287,128,0,1928:0:0:0:0:
320,192,1928,5,4,0:0:0:0:
448,192,1928,128,2,2396:0:0:0:0:
64,192,2631,1,0,0:0:0:0:
192,192,3099,1,0,0:0:0:0:
320,192,3568,1,0,0:0:0:0:
192,192,3803,128,0,4271:0:0:0:0:
64,192,4506,1,0,0:0:0:0:
320,192,4974,1,0,0:0:0:0:
448,192,5209,1,0,0:0:0:0:
320,192,5443,1,0,0:0:0:0:
192,192,5678,128,0,6146:0:0:0:0:
64,192,6381,1,0,0:0:0:0:
320,192,6849,1,0,0:0:0:0:
192,192,7318,1,0,0:0:0:0:
448,192,7553,128,0,8021:0:0:0:0:
320,192,8256,1,0,0:0:0:0:
192,192,8724,1,0,0:0:0:0:
320,192,8959,1,0,0:0:0:0:
192,192,9193,1,0,0:0:0:0:
64,192,9428,128,2,11303:0:0:0:0:
448,192,9896,1,8,0:0:0:0:
448,192,10834,1,8,0:0:0:0:
192,192,11303,128,2,13178:0:0:0:0:
320,192,11771,1,8,0:0:0:0:
320,192,12709,1,8,0:0:0:0:
448,192,13178,128,2,15053:0:0:0:0:
64,192,13646,1,8,0:0:0:0:
64,192,14584,1,8,0:0:0:0:
320,192,15053,1,2,0:0:0:0:
320,192,15404,1,2,0:0:0:0:
192,192,15756,1,2,0:0:0:0:
64,192,15990,128,2,16928:0:0:0:0:
448,192,16459,128,8,16928:0:0:0:0:
192,192,16928,1,4,0:0:0:0:
320,192,16928,1,0,0:0:0:0:
64,192,17396,1,8,0:0:0:0:
320,192,17396,1,0,0:0:0:0:
448,192,17865,1,2,0:0:0:0:
192,192,18334,128,8,18803:0:0:0:0:
320,192,18334,1,0,0:0:0:0:
64,192,18803,1,2,0:0:0:0:
192,192,19271,1,8,0:0:0:0:
320,192,19271,1,0,0:0:0:0:
448,192,19740,1,2,0:0:0:0:
320,192,20209,128,8,20678:0:0:0:0:
192,192,20209,1,0,0:0:0:0:
64,192,20678,1,2,0:0:0:0:
448,192,21146,1,8,0:0:0:0:
192,192,21146,1,0,0:0:0:0:
320,192,21615,1,2,0:0:0:0:
64,192,22084,1,8,0:0:0:0:
448,192,22084,1,0,0:0:0:0:
192,192,22553,1,2,0:0:0:0:
448,192,23021,1,8,0:0:0:0:
64,192,23021,1,0,0:0:0:0:
320,192,23490,1,2,0:0:0:0:
448,192,23959,128,8,24428:0:0:0:0:
192,192,23959,1,0,0:0:0:0:
64,192,24428,1,2,0:0:0:0:
320,192,24896,1,8,0:0:0:0:
448,192,24896,1,0,0:0:0:0:
64,192,25365,1,2,0:0:0:0:
192,192,25834,128,8,26303:0:0:0:0:
448,192,25834,1,0,0:0:0:0:
320,192,26303,1,2,0:0:0:0:
448,192,26771,1,8,0:0:0:0:
64,192,26771,1,0,0:0:0:0:
192,192,27240,1,2,0:0:0:0:
320,192,27709,128,8,28178:0:0:0:0:
64,192,27709,1,0,0:0:0:0:
448,192,28178,1,2,0:0:0:0:
64,192,28646,1,8,0:0:0:0:
192,192,28646,1,0,0:0:0:0:
320,192,29115,1,2,0:0:0:0:
192,192,29584,128,8,30053:0:0:0:0:
64,192,29584,1,0,0:0:0:0:
448,192,30053,128,2,31928:0:0:0:0:
64,192,31928,1,2,0:0:0:0:
192,192,32396,1,2,0:0:0:0:
320,192,32865,1,2,0:0:0:0:
192,192,33334,1,2,0:0:0:0:
64,192,33803,1,2,0:0:0:0:
448,192,34271,1,2,0:0:0:0:
320,192,34740,1,2,0:0:0:0:
192,192,35209,1,2,0:0:0:0:
320,192,35678,1,2,0:0:0:0:
448,192,36146,1,2,0:0:0:0:
64,192,36615,1,2,0:0:0:0:
192,192,37084,1,2,0:0:0:0:
448,192,37553,1,2,0:0:0:0:
192,192,38021,1,2,0:0:0:0:
320,192,38490,1,2,0:0:0:0:
448,192,38959,1,2,0:0:0:0:
192,192,39193,1,2,0:0:0:0:
320,192,39428,1,2,0:0:0:0:
192,192,39896,1,2,0:0:0:0:
64,192,40365,1,2,0:0:0:0:
448,192,40834,1,2,0:0:0:0:
320,192,41303,1,2,0:0:0:0:
192,192,41771,1,2,0:0:0:0:
448,192,42240,1,2,0:0:0:0:
192,192,42709,1,2,0:0:0:0:
320,192,43178,1,2,0:0:0:0:
64,192,43646,1,2,0:0:0:0:
448,192,44115,1,2,0:0:0:0:
320,192,44584,1,2,0:0:0:0:
448,192,45053,128,2,46459:0:0:0:0:
192,192,45521,1,8,0:0:0:0:
320,192,45990,1,8,0:0:0:0:
64,192,46459,1,8,0:0:0:0:
192,192,46928,1,2,0:0:0:0:
320,192,46928,1,4,0:0:0:0:
64,192,47396,1,8,0:0:0:0:
448,192,47396,1,0,0:0:0:0:
192,192,47865,1,2,0:0:0:0:
320,192,48334,1,8,0:0:0:0:
448,192,48334,1,0,0:0:0:0:
192,192,48803,1,2,0:0:0:0:
64,192,49271,1,8,0:0:0:0:
320,192,49271,1,0,0:0:0:0:
192,192,49740,1,2,0:0:0:0:
64,192,50209,1,8,0:0:0:0:
448,192,50209,1,0,0:0:0:0:
320,192,50678,1,2,0:0:0:0:
192,192,51146,1,0,0:0:0:0:
64,192,51146,1,8,0:0:0:0:
448,192,51615,1,2,0:0:0:0:
320,192,52084,1,0,0:0:0:0:
64,192,52084,1,8,0:0:0:0:
192,192,52553,1,2,0:0:0:0:
320,192,53021,1,8,0:0:0:0:
448,192,53021,1,0,0:0:0:0:
192,192,53490,1,2,0:0:0:0:
64,192,53959,1,8,0:0:0:0:
448,192,53959,1,0,0:0:0:0:
320,192,54428,1,2,0:0:0:0:
192,192,54896,1,0,0:0:0:0:
64,192,54896,1,8,0:0:0:0:
448,192,55365,1,2,0:0:0:0:
320,192,55834,1,0,0:0:0:0:
64,192,55834,1,8,0:0:0:0:
192,192,56303,1,2,0:0:0:0:
64,192,56771,1,8,0:0:0:0:
448,192,56771,1,0,0:0:0:0:
320,192,57240,1,2,0:0:0:0:
192,192,57709,1,8,0:0:0:0:
448,192,57709,1,0,0:0:0:0:
64,192,58178,128,2,60053:0:0:0:0:
448,192,60053,128,0,61928:0:0:0:0:
320,192,61928,1,4,0:0:0:0:
192,192,61928,1,2,0:0:0:0:
448,192,62396,1,0,0:0:0:0:
64,192,62396,1,8,0:0:0:0:
192,192,62865,1,2,0:0:0:0:
320,192,63334,1,8,0:0:0:0:
448,192,63334,1,0,0:0:0:0:
64,192,63803,1,2,0:0:0:0:
192,192,64271,1,8,0:0:0:0:
448,192,64271,1,0,0:0:0:0:
320,192,64740,1,2,0:0:0:0:
64,192,65209,1,8,0:0:0:0:
192,192,65209,1,0,0:0:0:0:
448,192,65678,1,2,0:0:0:0:
320,192,66146,1,0,0:0:0:0:
64,192,66146,1,8,0:0:0:0:
192,192,66615,1,2,0:0:0:0:
320,192,67084,1,8,0:0:0:0:
448,192,67084,1,0,0:0:0:0:
64,192,67553,1,2,0:0:0:0:
192,192,68021,1,8,0:0:0:0:
448,192,68021,1,0,0:0:0:0:
320,192,68490,1,2,0:0:0:0:
448,192,68959,1,8,0:0:0:0:
192,192,68959,128,0,69428:0:0:0:0:
320,192,69428,1,2,0:0:0:0:
64,192,69896,1,0,0:0:0:0:
192,192,69896,1,8,0:0:0:0:
320,192,70365,1,2,0:0:0:0:
448,192,70834,1,0,0:0:0:0:
64,192,70834,1,8,0:0:0:0:
192,192,71303,1,2,0:0:0:0:
448,192,71771,1,0,0:0:0:0:
320,192,71771,1,8,0:0:0:0:
64,192,72240,1,2,0:0:0:0:
192,192,72709,1,8,0:0:0:0:
448,192,72709,1,0,0:0:0:0:
320,192,73178,1,2,0:0:0:0:
64,192,73646,1,8,0:0:0:0:
192,192,73646,1,0,0:0:0:0:
448,192,74115,1,2,0:0:0:0:
320,192,74584,1,0,0:0:0:0:
64,192,74584,1,8,0:0:0:0:
192,192,75053,1,2,0:0:0:0:
64,192,75521,1,8,0:0:0:0:
448,192,75521,1,0,0:0:0:0:
320,192,75756,1,2,0:0:0:0:
320,192,76224,1,8,0:0:0:0:
448,192,76224,1,0,0:0:0:0:
64,192,76459,128,0,76928:0:0:0:0:
192,192,76459,1,8,0:0:0:0:
320,192,76928,1,2,0:0:0:0:
448,192,76928,1,4,0:0:0:0:
448,192,77396,1,0,0:0:0:0:
192,192,77396,1,8,0:0:0:0:
320,192,77865,1,2,0:0:0:0:
192,192,78334,1,0,0:0:0:0:
64,192,78334,1,8,0:0:0:0:
448,192,78803,1,2,0:0:0:0:
320,192,79271,1,0,0:0:0:0:
64,192,79271,1,8,0:0:0:0:
192,192,79740,1,2,0:0:0:0:
448,192,80209,1,0,0:0:0:0:
320,192,80209,1,8,0:0:0:0:
64,192,80678,1,2,0:0:0:0:
192,192,81146,1,8,0:0:0:0:
448,192,81146,1,0,0:0:0:0:
320,192,81615,1,2,0:0:0:0:
64,192,82084,1,8,0:0:0:0:
448,192,82084,1,0,0:0:0:0:
192,192,82553,1,2,0:0:0:0:
64,192,83021,1,8,0:0:0:0:
320,192,83021,1,0,0:0:0:0:
448,192,83490,1,2,0:0:0:0:
192,192,83959,1,8,0:0:0:0:
64,192,83959,1,0,0:0:0:0:
320,192,84428,1,2,0:0:0:0:
192,192,84896,1,8,0:0:0:0:
448,192,84896,1,0,0:0:0:0:
320,192,85365,1,2,0:0:0:0:
192,192,85834,1,0,0:0:0:0:
64,192,85834,1,8,0:0:0:0:
448,192,86303,1,2,0:0:0:0:
320,192,86771,1,0,0:0:0:0:
64,192,86771,1,8,0:0:0:0:
192,192,87240,1,2,0:0:0:0:
64,192,87709,1,8,0:0:0:0:
448,192,87709,1,0,0:0:0:0:
320,192,88178,1,2,0:0:0:0:
64,192,88646,1,8,0:0:0:0:
192,192,88646,1,0,0:0:0:0:
448,192,89115,1,2,0:0:0:0:
320,192,89584,1,0,0:0:0:0:
64,192,89584,1,8,0:0:0:0:
192,192,90053,1,2,0:0:0:0:
320,192,90404,1,2,0:0:0:0:
448,192,90756,1,2,0:0:0:0:
