osu file format v12

[General]
AudioFilename: 01.Smile_FULL.mp3
AudioLeadIn: 1493
PreviewTime: 12244
Countdown: 0
SampleSet: Soft
StackLeniency: 0.7
Mode: 0
LetterboxInBreaks: 0

[Editor]
Bookmarks: 15,3072,11862,12435,18167,20269,25620,29059,30588,36989,42244,45492,49505,55620,62785,68613,74823,80938,85906,95651,101002,104537
DistanceSpacing: 1.5
BeatDivisor: 4
GridSize: 4

[Metadata]
Title:Smile (Short Ver.)
TitleUnicode:Smile (Short Ver.)
Artist:S.I.D-Sound
ArtistUnicode:S.I.D-Sound
Creator:SeeU
Version:Insane
Source:Maplestory
Tags:rising star maple banami KDS
BeatmapID:243390
BeatmapSetID:44959

[Difficulty]
HPDrainRate:7
CircleSize:4
OverallDifficulty:7
ApproachRate:9
SliderMultiplier:1.6
SliderTickRate:1

[Events]
//Background and Video events
Video,0,"Maple Story - 8th Anniversary Video.avi"
0,0,"xenon_1024_768.jpg",0,0
//Break Periods
//Storyboard Layer 0 (Background)
//Storyboard Layer 1 (Fail)
//Storyboard Layer 2 (Pass)
//Storyboard Layer 3 (Foreground)
//Storyboard Sound Samples
//Background Colour Transformations
3,100,192,192,192

[TimingPoints]
31,382.165605095541,4,2,0,100,1,0
3088,-100,4,2,0,32,0,0
6909,-100,4,2,0,57,0,0
7674,-100,4,2,0,62,0,0
9202,-100,4,2,0,67,0,0
10540,-100,4,2,0,72,0,0
11878,-66.6666666666667,4,2,0,32,0,0
12260,-100,4,2,0,77,0,0
18279,-100,4,2,0,71,0,0
35190,-100,4,2,0,80,0,0
35572,-100,4,2,0,75,0,0
35954,-100,4,2,0,70,0,0
36336,-100,4,2,0,65,0,0
36718,-100,4,2,0,80,0,0
62706,-100,4,2,0,100,0,1
74554,-100,4,2,0,100,0,0
74935,-100,4,2,0,100,0,1
85445,-100,4,2,0,100,0,0
86018,-100,4,2,0,90,0,0
100922,-100,4,2,0,90,0,1
101018,-100,4,2,0,90,0,0

[Colours]
Combo1 : 128,255,0
Combo2 : 255,128,255
Combo3 : 255,255,0
Combo4 : 128,255,255
Combo5 : 128,0,255

[HitObjects]
124,104,3088,2,0,L|164:188,1,80
228,272,3470,1,0,0:0:0:0:
280,204,3661,1,0,0:0:0:0:
376,276,3852,2,0,L|384:180,1,80
288,124,4234,2,0,L|280:220,1,80
256,236,4521,1,0,0:0:0:0:
236,268,4616,1,0,0:0:0:0:
116,288,4808,2,0,L|136:208,1,80
180,100,5190,1,0,0:0:0:0:
296,76,5381,6,0,L|316:184,1,80
408,224,5763,2,0,L|388:116,1,80
256,64,6145,2,0,L|276:172,1,80
452,216,6527,2,0,L|432:108,1,80
320,168,6909,1,0,0:0:0:0:
320,168,7005,1,0,0:0:0:0:
320,168,7101,1,0,0:0:0:0:
320,168,7196,1,0,0:0:0:0:
320,168,7292,2,0,P|304:260|308:320,1,120
256,324,7674,6,0,L|144:316,1,80
92,232,8056,2,0,L|204:240,1,80
292,228,8438,1,0,0:0:0:0:
300,220,8629,1,0,0:0:0:0:
344,108,8820,2,0,L|244:128,1,80
152,160,9202,1,0,0:0:0:0:
144,168,9393,1,0,0:0:0:0:
168,276,9585,2,0,L|268:256,1,80
364,236,9967,1,0,0:0:0:0:
364,236,10062,1,0,0:0:0:0:
364,236,10158,1,0,0:0:0:0:
256,60,10540,5,0,0:0:0:0:
364,236,10922,1,0,0:0:0:0:
144,236,11113,1,0,0:0:0:0:
120,260,11495,1,0,0:0:0:0:
400,260,11687,1,0,0:0:0:0:
432,292,11878,2,0,L|452:140,1,120.000004577637
356,96,12260,5,0,0:0:0:0:
356,96,12355,1,0,0:0:0:0:
356,96,12451,2,0,P|288:68|272:64,1,80
212,164,12833,2,0,P|280:192|296:196,1,80
404,216,13215,1,0,0:0:0:0:
332,312,13406,2,0,B|284:288|240:296|240:296|176:260,1,160
84,332,13980,2,0,L|44:240,1,80
120,80,14362,2,0,B|144:128|136:172|136:172|172:236,1,160
236,328,14935,1,0,0:0:0:0:
324,244,15126,6,0,L|336:160,1,80
260,72,15508,2,0,L|244:160,1,80
324,244,15890,1,0,0:0:0:0:
424,180,16081,1,0,0:0:0:0:
424,180,16177,1,0,0:0:0:0:
424,180,16273,2,0,L|444:264,1,80
352,336,16655,6,0,P|296:320|212:316,1,120
236,256,17037,2,0,P|252:200|256:116,1,120
296,96,17419,2,0,P|352:112|412:112,2,80
176,92,17992,2,0,L|72:92,1,80
52,204,18374,5,0,0:0:0:0:
52,204,18470,1,0,0:0:0:0:
52,204,18566,2,0,B|120:196|148:232|148:232|224:184,1,160
300,144,19139,2,0,L|280:244,1,80
368,308,19521,2,0,B|400:256|388:192,1,120
328,180,19903,6,0,L|348:72,1,80
440,32,20285,2,0,L|420:140,1,80
288,192,20667,2,0,L|308:84,1,80
484,40,21049,2,0,L|464:148,1,80
412,224,21432,1,0,0:0:0:0:
412,224,21527,1,0,0:0:0:0:
412,224,21623,2,0,L|348:248,1,40
264,248,21814,2,0,L|316:224,1,40
384,148,22005,2,0,L|336:168,1,40
196,192,22196,2,0,L|280:156,1,80
388,68,22578,2,0,L|304:104,1,80
240,272,23343,5,0,0:0:0:0:
240,152,23725,2,0,L|240:24,2,120
240,272,24489,1,0,0:0:0:0:
240,272,24585,1,0,0:0:0:0:
240,272,24680,2,0,B|296:304|336:296|336:296|392:324,1,160
360,188,25253,2,0,L|352:108,1,80
248,44,25636,2,0,B|216:100|224:140|224:140|196:196,1,160
100,260,26209,1,0,0:0:0:0:
104,140,26400,2,0,L|184:64,1,80
260,152,26782,6,0,B|256:216|224:256|224:256|224:320,1,160
336,268,27355,1,0,0:0:0:0:
396,164,27546,2,0,L|348:80,1,80
236,108,27929,2,0,B|172:104|132:72|132:72|68:72,1,160
72,192,28502,2,0,L|96:280,1,80
212,260,28884,1,0,0:0:0:0:
212,260,29075,2,0,L|188:172,1,80
220,68,29457,5,0,0:0:0:0:
220,68,29553,1,0,0:0:0:0:
220,68,29648,1,0,0:0:0:0:
280,172,29839,1,0,0:0:0:0:
352,76,30030,1,0,0:0:0:0:
352,76,30126,1,0,0:0:0:0:
352,76,30222,1,0,0:0:0:0:
448,148,30413,1,0,0:0:0:0:
448,148,30508,1,0,0:0:0:0:
448,148,30604,6,0,B|448:212|436:260|436:260|440:336,1,160
320,280,31177,1,0,0:0:0:0:
320,280,31273,1,0,0:0:0:0:
320,280,31368,2,0,L|328:192,1,80
240,120,31750,2,0,L|232:208,1,80
204,228,32037,1,0,0:0:0:0:
184,260,32132,2,0,B|168:300|152:320|152:320|96:336,1,120
64,320,32515,2,0,P|40:244|44:172,1,120
52,164,32897,2,0,P|92:120|120:80,1,80
224,84,33279,6,0,L|224:176,1,80
316,244,33661,1,0,0:0:0:0:
316,244,33852,2,0,P|328:176|352:136,1,80
432,100,34234,1,0,0:0:0:0:
432,100,34616,2,0,P|420:168|396:208,2,80
312,104,35190,5,0,0:0:0:0:
260,72,35285,1,0,0:0:0:0:
200,64,35381,1,0,0:0:0:0:
140,76,35476,1,0,0:0:0:0:
88,104,35572,1,0,0:0:0:0:
128,216,35763,1,0,0:0:0:0:
128,216,35859,1,0,0:0:0:0:
240,172,36050,1,0,0:0:0:0:
288,208,36145,1,0,0:0:0:0:
344,224,36241,1,0,0:0:0:0:
400,200,36336,1,0,0:0:0:0:
452,172,36432,2,0,L|464:120,3,40
404,304,37101,5,0,0:0:0:0:
292,264,37292,2,0,L|296:172,1,80
244,76,37674,2,0,B|204:104|140:104|140:104|88:132,1,160
56,240,38247,1,0,0:0:0:0:
164,288,38438,2,0,B|204:260|268:260|268:260|320:232,1,160
340,120,39011,1,0,0:0:0:0:
432,196,39202,1,0,0:0:0:0:
432,196,39298,1,0,0:0:0:0:
432,196,39394,6,0,L|416:276,1,80
300,304,39776,2,0,L|320:216,1,80
432,196,40158,2,0,B|404:156|404:92|404:92|376:40,1,160
260,44,40731,1,0,0:0:0:0:
316,152,40922,2,0,B|276:180|212:180|212:180|160:208,1,160
96,300,41495,2,0,P|80:220|104:108,1,160
172,56,42069,1,0,0:0:0:0:
228,164,42260,1,0,0:0:0:0:
228,164,42355,1,0,0:0:0:0:
228,164,42451,1,0,0:0:0:0:
304,72,42642,6,0,L|384:96,1,80
384,216,43024,1,0,0:0:0:0:
384,216,43215,2,0,L|304:192,1,80
228,164,43597,2,0,B|192:216|192:248|192:248|196:332,1,160
316,308,44171,1,0,0:0:0:0:
384,216,44362,2,0,B|420:164|420:132|420:132|416:48,1,160
300,44,44935,2,0,L|284:148,1,80
200,176,45317,1,0,0:0:0:0:
200,176,45413,1,0,0:0:0:0:
200,176,45508,1,0,0:0:0:0:
84,208,45699,6,0,L|96:304,1,80
212,304,46081,2,0,L|200:208,1,80
48,196,46464,2,0,L|60:292,1,80
244,320,46846,2,0,L|232:224,1,80
264,188,47132,2,0,L|288:140,2,40
436,88,47801,5,0,0:0:0:0:
408,204,47992,2,0,L|400:288,1,80
292,336,48374,1,0,0:0:0:0:
216,240,48566,1,0,0:0:0:0:
216,240,48757,2,0,L|224:156,1,80
436,88,49330,5,0,0:0:0:0:
392,200,49521,2,0,L|372:292,1,80
292,336,49903,2,0,B|244:312|200:320|200:320|136:284,1,160
68,196,50476,2,0,L|88:104,1,80
176,40,50859,2,0,B|224:64|268:56|268:56|332:92,1,160
360,204,51432,6,0,L|288:164,1,80
172,160,51814,1,0,0:0:0:0:
132,272,52005,1,0,0:0:0:0:
132,272,52196,2,0,L|204:312,1,80
320,312,52578,2,0,P|356:236|360:208,1,80
380,208,52865,1,0,0:0:0:0:
380,168,52960,1,0,0:0:0:0:
284,92,53152,2,0,L|264:184,1,80
380,208,53534,2,0,L|400:116,1,80
284,92,53916,6,0,L|272:148,2,40
200,228,54298,1,0,0:0:0:0:
360,228,54489,1,0,0:0:0:0:
152,268,54680,1,0,0:0:0:0:
400,272,54871,1,0,0:0:0:0:
104,312,55062,5,0,0:0:0:0:
104,312,55253,2,0,L|68:228,1,80
96,152,55636,1,0,0:0:0:0:
184,140,55827,2,0,B|240:172|280:164|280:164|336:192,1,160
400,272,56400,2,0,L|440:188,1,80
496,136,56782,2,0,B|440:104|400:112|400:112|344:84,1,160
228,76,57355,1,0,0:0:0:0:
228,76,57451,1,0,0:0:0:0:
228,76,57546,1,0,0:0:0:0:
464,124,58024,6,0,B|464:184|472:232|464:268,1,120
