osu file format v12

[General]
AudioFilename: 07 - Prayer.mp3
AudioLeadIn: 1500
PreviewTime: 52856
Countdown: 0
SampleSet: Normal
StackLeniency: 0.7
Mode: 0
LetterboxInBreaks: 0
WidescreenStoryboard: 0

[Editor]
Bookmarks: 15356,38570,52856,53909,75713,86963,109999,124285,148570,159999,185713,197142,208570,219999,231427,238731
DistanceSpacing: 0.8
BeatDivisor: 4
GridSize: 4

[Metadata]
Title:Prayer
TitleUnicode:Prayer
Artist:S.I.D-Sound
ArtistUnicode:S.I.D-Sound
Creator:Asgard
Version:Normal
Source:Sword Girls
Tags:W_h_i_t_e Gloria_Guard
BeatmapID:204561
BeatmapSetID:63310

[Difficulty]
HPDrainRate:3
CircleSize:3
OverallDifficulty:3
ApproachRate:5
SliderMultiplier:1.2
SliderTickRate:2

[Events]
//Background and Video events
0,0,"111.jpeg",0,0
//Break Periods
2,75895,85745
2,148752,158781
//Storyboard Layer 0 (Background)
//Storyboard Layer 1 (Fail)
//Storyboard Layer 2 (Pass)
//Storyboard Layer 3 (Foreground)
//Storyboard Sound Samples
//Background Colour Transformations
3,100,163,162,255

[TimingPoints]
1410,357.142857142857,4,2,1,70,1,0
52838,-100,4,1,0,70,0,1
63909,-100,4,1,0,70,0,0
64267,-100,4,1,0,70,0,1
75695,-100,4,1,0,70,0,0
87124,-100,4,2,1,70,0,0
124267,-100,4,1,0,70,0,1
135338,-100,4,1,0,70,0,0
135695,-100,4,1,0,70,0,1
148552,-100,4,1,0,70,0,0
188552,-100,4,2,1,70,0,0
197124,-100,4,1,0,70,0,1
208195,-100,4,1,0,70,0,0
208552,-100,4,1,0,70,0,1
219624,-100,4,1,0,70,0,0
219981,-100,4,1,0,70,0,1
231409,-100,4,1,0,70,0,0

[Colours]
Combo1 : 255,128,255
Combo2 : 128,128,255
Combo3 : 255,128,128
Combo4 : 0,255,128
Combo5 : 255,255,128

[HitObjects]
88,44,1410,6,0,P|152:104|152:204,2,180,2|0|0,0:0|0:0|0:0,0:0:0:0:
72,140,2838,2,0,P|16:205|16:296,1,180
32,340,3552,2,0,L|84:372,1,60
168,280,4088,6,0,P|254:311|341:280,1,180,4|8,0:0|0:0,0:0:0:0:
312,192,4981,2,0,P|256:172|200:191,2,120,0|8|0,0:0|0:0|0:0,0:0:0:0:
379,259,6052,1,8,0:0:0:0:
408,168,6409,2,0,P|432:116|496:88,1,120,0|8,0:0|0:0,0:0:0:0:
496,184,7124,6,0,P|456:268|368:312,1,180,0|0,0:0|0:0,0:0:0:0:
288,300,8017,1,0,0:0:0:0:
209,241,8374,2,0,P|205:181|312:120,1,180
300,212,9267,1,0,0:0:0:0:
300,212,9624,1,8,0:0:0:0:
376,268,9981,6,0,P|395:212|375:156,1,120,4|8,0:0|0:0,0:0:0:0:
341,122,10516,2,0,P|393:62|501:74,1,180,0|8,0:0|0:0,0:0:0:0:
448,152,11409,1,0,0:0:0:0:
376,216,11767,1,8,0:0:0:0:
376,216,11945,2,0,P|347:271|240:312,1,180,0|8,0:0|0:0,0:0:0:0:
192,224,12838,6,0,P|196:144|128:72,1,180,0|8,0:0|0:0,0:0:0:0:
36,76,13731,1,0,0:0:0:0:
28,172,14088,2,0,P|28:272|148:300,1,240,0|0,0:0|0:0,0:0:0:0:
180,112,15517,6,0,P|264:137|314:209,1,180,4|8,0:0|0:0,0:0:0:0:
352,300,16409,2,0,P|402:337|468:320,1,120,0|8,0:0|0:0,0:0:0:0:
496,240,17124,1,0,0:0:0:0:
452,156,17481,1,8,0:0:0:0:
364,48,17838,6,0,L|256:112,1,120,0|8,0:0|0:0,0:0:0:0:
192,176,18552,2,0,P|212:232|192:288,1,120,0|8,0:0|0:0,0:0:0:0:
116,232,19267,2,0,P|96:176|116:120,2,120,0|8|2,0:0|0:0|0:0,0:0:0:0:
232,320,20516,1,2,0:0:0:0:
304,196,21052,1,2,0:0:0:0:
384,248,21409,6,0,P|366:304|389:359,1,120,4|8,0:0|0:0,0:0:0:0:
460,300,22124,1,0,0:0:0:0:
500,212,22481,1,8,0:0:0:0:
492,116,22838,2,0,P|432:128|384:100,1,120,0|8,0:0|0:0,0:0:0:0:
293,122,23552,6,0,L|187:58,1,120,0|8,0:0|0:0,0:0:0:0:
100,100,24267,2,0,P|41:163|60:264,2,180,0|0|8,0:0|0:0|0:0,0:0:0:0:
128,192,25695,1,0,0:0:0:0:
208,244,26052,1,4,0:0:0:0:
264,320,26409,2,0,P|323:326|364:369,2,120,0|8|4,0:0|0:0|0:0,0:0:0:0:
264,320,27838,5,0,0:0:0:0:
244,224,28195,1,8,0:0:0:0:
164,172,28552,2,0,P|120:124|116:68,1,120,0|8,0:0|0:0,0:0:0:0:
204,32,29267,2,0,L|332:32,1,120,0|8,0:0|0:0,0:0:0:0:
376,112,29981,6,0,P|292:152|244:224,2,180,0|0|8,0:0|0:0|0:0,0:0:0:0:
420,192,31409,2,0,P|396:252|400:324,1,120,0|8,0:0|0:0,0:0:0:0:
300,328,32124,6,0,P|240:304|118:336,1,180,0|2,0:0|0:0,0:0:0:0:
30,225,33195,1,0,0:0:0:0:
52,132,33552,2,0,P|129:88|217:94,2,180,0|2|0,0:0|0:0|0:0,0:0:0:0:
92,220,34981,1,0,0:0:0:0:
184,252,35338,1,0,0:0:0:0:
280,240,35695,6,0,P|324:280|340:336,1,120,4|8,0:0|0:0,0:0:0:0:
428,376,36409,2,0,P|473:338|493:278,2,120,0|8|0,0:0|0:0|0:0,0:0:0:0:
340,336,37481,1,8,0:0:0:0:
244,328,37838,2,0,P|196:280|132:264,1,120,0|8,0:0|0:0,0:0:0:0:
56,240,38552,5,4,0:0:0:0:
96,52,39267,2,0,P|140:92|200:116,1,120,2|0,0:0|0:0,0:0:0:0:
260,44,39981,2,0,L|384:44,1,120,0|0,0:0|0:0,0:0:0:0:
324,124,40695,2,0,L|448:124,1,120,2|0,0:0|0:0,0:0:0:0:
388,204,41409,6,0,P|460:252|468:340,2,180,0|2|0,0:0|0:0|0:0,0:0:0:0:
324,124,42838,2,0,P|276:156|252:216,1,120,0|0,0:0|0:0,0:0:0:0:
236,256,43374,1,2,0:0:0:0:
120,332,43909,1,0,0:0:0:0:
120,332,44267,6,0,P|84:276|16:256,1,120,4|0,0:0|0:0,0:0:0:0:
56,164,44981,1,0,0:0:0:0:
56,164,45338,1,0,0:0:0:0:
56,164,45695,2,0,L|96:50,1,120,0|8,0:0|0:0,0:0:0:0:
192,40,46409,2,0,L|151:153,1,120,0|8,0:0|0:0,0:0:0:0:
220,220,47124,6,0,B|268:88|268:88|352:24,1,240,4|0,0:0|0:0,0:0:0:0:
407,103,48195,1,8,0:0:0:0:
339,170,48552,2,0,P|319:226|339:282,1,120,0|8,0:0|0:0,0:0:0:0:
384,296,49088,2,0,P|456:236|472:152,1,180,0|8,0:0|0:0,0:0:0:0:
256,192,49981,12,4,52124,0:0:0:0:
292,136,52838,6,0,P|311:191|292:247,1,120,6|10,0:0|0:0,0:0:0:0:
211,303,53552,2,0,P|192:247|212:192,1,120,2|8,0:0|0:0,0:0:0:0:
192,100,54267,1,2,0:0:0:0:
104,60,54624,1,8,0:0:0:0:
16,100,54981,2,0,P|12:164|48:228,1,120,2|8,0:0|0:0,0:0:0:0:
108,148,55695,6,0,P|136:240|77:321,2,180,2|2|8,0:0|0:0|0:0,0:0:0:0:
188,71,57124,2,0,P|243:51|299:70,1,120,0|2,0:0|0:0,0:0:0:0:
392,44,57838,2,0,P|428:89|429:148,1,120,2|2,0:0|0:0,0:0:0:0:
380,232,58552,6,0,L|256:264,1,120,6|8,0:0|0:0,0:0:0:0:
200,336,59267,1,0,0:0:0:0:
116,292,59624,2,0,L|172:240,1,60
152,204,59981,2,0,P|120:148|72:120,1,120,2|8,0:0|0:0,0:0:0:0:
141,52,60695,2,0,P|187:88|245:97,1,120,0|8,0:0|0:0,0:0:0:0:
332,52,61409,6,0,P|364:124|292:272,1,240,2|2,0:0|0:0,0:0:0:0:
212,288,62481,1,2,0:0:0:0:
248,200,62838,2,0,P|278:149|261:93,2,120,0|10|10,0:0|0:0|0:0,0:0:0:0:
156,176,63909,1,10,0:0:0:0:
120,268,64267,6,0,P|160:320|224:336,1,120,6|8,0:0|0:0,0:0:0:0:
277,268,64981,2,0,P|332:248|388:267,2,120,2|10|0,0:0|0:0|0:0,0:0:0:0:
200,208,66052,1,10,0:0:0:0:
240,120,66409,2,0,L|132:60,1,120,2|8,0:0|0:0,0:0:0:0:
51,107,67124,2,0,P|56:204|120:260,2,180,2|2|0,0:0|0:0|0:0,0:0:0:0:
136,64,68552,5,0,0:0:0:0:
228,40,68909,1,2,0:0:0:0:
324,60,69267,2,0,P|344:116|325:172,1,120,2|2,0:0|0:0,0:0:0:0:
252,120,69981,2,0,P|232:175|251:231,1,120,6|8,0:0|0:0,0:0:0:0:
276,272,70517,2,0,P|251:354|163:362,1,180,0|8,0:0|0:0,0:0:0:0:
92,304,71409,2,0,P|57:231|98:136,2,180,6|4|8,0:0|0:0|0:0,0:0:0:0:
256,192,72838,12,6,74267,0:0:0:0:
148,236,74624,6,0,L|188:192,1,60,0|2,0:0|0:0,0:0:0:0:
256,124,75159,1,2,0:0:0:0:
324,192,75517,2,0,L|364:236,1,60,0|6,0:0|0:0,0:0:0:0:
116,28,86945,6,0,L|32:190,1,180,0|8,0:0|0:0,0:0:0:0:
129,187,87838,2,0,L|73:295,1,120,0|8,0:0|0:0,0:0:0:0:
144,356,88552,1,0,0:0:0:0:
240,356,88909,1,8,0:0:0:0:
336,340,89267,2,0,P|360:280|400:240,1,120,0|8,0:0|0:0,0:0:0:0:
496,240,89981,6,0,P|480:184|408:140,1,120,0|8,0:0|0:0,0:0:0:0:
396,56,90695,1,0,0:0:0:0:
300,52,91052,1,8,0:0:0:0:
236,120,91409,2,0,P|180:140|124:120,1,120,0|10,0:0|0:0,0:0:0:0:
48,64,92124,2,0,P|28:120|48:176,1,120,2|10,0:0|0:0,0:0:0:0:
100,256,92838,5,4,0:0:0:0:
68,348,93195,1,10,0:0:0:0:
164,332,93552,2,0,P|232:328|264:280,1,120,0|8,0:0|0:0,0:0:0:0:
336,232,94267,6,0,P|340:173|384:120,1,120,0|8,0:0|0:0,0:0:0:0:
428,204,94981,2,0,L|484:324,2,120,0|8|0,0:0|0:0|0:0,0:0:0:0:
472,120,96052,1,8,0:0:0:0:
400,56,96409,1,0,0:0:0:0:
304,72,96767,1,8,0:0:0:0:
256,156,97124,6,0,P|208:204|152:208,2,120,0|6|2,0:0|0:0|0:0,0:0:0:0:
304,72,98195,1,2,0:0:0:0:
352,156,98553,6,0,L|300:272,1,120,4|8,0:0|0:0,0:0:0:0:
236,196,99267,2,0,L|184:312,2,120,0|8|0,0:0|0:0|0:0,0:0:0:0:
188,112,100338,1,8,0:0:0:0:
112,52,100695,2,0,P|72:100|72:160,1,120,0|8,0:0|0:0,0:0:0:0:
138,223,101409,6,0,P|158:279|138:335,2,120,0|8|0,0:0|0:0|0:0,0:0:0:0:
148,128,102481,1,8,0:0:0:0:
236,88,102838,2,0,L|360:88,1,120,0|8,0:0|0:0,0:0:0:0:
408,168,103552,2,0,L|284:168,1,120,0|8,0:0|0:0,0:0:0:0:
219,236,104267,6,0,P|256:324|348:340,2,180,0|2|8,0:0|0:0|0:0,0:0:0:0:
316,248,105695,1,0,0:0:0:0:
412,244,106052,1,8,0:0:0:0:
472,172,106409,2,0,L|516:60,2,120,2|8|4,0:0|0:0|0:0,0:0:0:0:
400,108,107481,5,8,0:0:0:0:
324,152,107838,2,0,P|268:132|212:152,1,120,0|8,0:0|0:0,0:0:0:0:
145,219,108552,2,0,P|89:239|33:219,2,120,0|0|8,0:0|0:0|0:0,0:0:0:0:
88,140,109624,1,0,0:0:0:0:
140,60,109981,6,0,B|204:56|256:88|256:88|308:56|372:60,1,240,4|2,0:0|0:0,0:0:0:0:
436,128,111052,1,0,0:0:0:0:
368,195,111409,2,0,P|316:223|308:291,1,120,0|0,0:0|0:0,0:0:0:0:
208,292,112124,2,0,P|152:272|96:292,1,120,2|0,0:0|0:0,0:0:0:0:
0,284,112838,6,0,P|52:212|152:184,2,180,0|2|0,0:0|0:0|0:0,0:0:0:0:
52,364,114267,2,0,L|176:364,1,120,2|0,0:0|0:0,0:0:0:0:
220,364,114803,1,2,0:0:0:0:
128,156,115695,6,0,P|108:100|128:44,1,120,4|8,0:0|0:0,0:0:0:0:
204,100,116409,2,0,P|224:156|205:212,1,120,0|8,0:0|0:0,0:0:0:0:
264,292,117124,1,0,0:0:0:0:
340,352,117481,1,8,0:0:0:0:
416,292,117838,1,0,0:0:0:0:
492,352,118195,1,8,0:0:0:0:
512,256,118553,6,0,B|536:168|500:72,2,180,4|0|8,0:0|0:0|0:0,0:0:0:0:
416,256,119981,2,0,P|384:308|332:340,1,120,0|8,0:0|0:0,0:0:0:0:
288,332,120517,2,0,P|204:302|121:330,1,180,0|8,0:0|0:0,0:0:0:0:
44,272,121409,1,4,0:0:0:0:
256,192,121588,12,4,123552,0:0:0:0:
220,248,124267,6,0,P|201:193|220:137,1,120,6|10,0:0|0:0,0:0:0:0:
301,81,124981,2,0,P|320:137|300:192,1,120,2|8,0:0|0:0,0:0:0:0:
320,284,125696,1,0,0:0:0:0:
408,324,126053,1,10,0:0:0:0:
500,296,126410,2,0,L|460:168,1,120,2|8,0:0|0:0,0:0:0:0:
392,244,127124,6,0,P|365:154|400:80,2,180,2|2|8,0:0|0:0|0:0,0:0:0:0:
323,312,128553,2,0,P|268:332|212:313,1,120,0|2,0:0|0:0,0:0:0:0:
124,276,129267,2,0,P|71:250|45:197,1,120,2|2,0:0|0:0,0:0:0:0:
132,152,129981,6,0,L|256:120,1,120,6|8,0:0|0:0,0:0:0:0:
320,56,130696,1,0,0:0:0:0:
404,100,131052,2,0,L|344:140,1,60
360,180,131410,2,0,P|392:236|440:264,1,120,2|8,0:0|0:0,0:0:0:0:
371,332,132124,2,0,P|324:295|266:286,1,120,0|8,0:0|0:0,0:0:0:0:
184,340,132838,6,0,P|152:268|224:120,1,240,6|2,0:0|0:0,0:0:0:0:
304,96,133910,1,8,0:0:0:0:
276,188,134267,2,0,P|246:239|263:295,2,120,0|10|2,0:0|0:0|0:0,0:0:0:0:
348,252,135338,1,10,0:0:0:0:
439,256,135695,6,0,P|458:201|439:145,1,120,2|0,0:0|0:0,0:0:0:0:
344,128,136409,2,0,P|325:73|344:17,2,120,2|10|0,0:0|0:0|0:0,0:0:0:0:
292,208,137481,1,2,0:0:0:0:
196,188,137838,2,0,L|184:320,1,120,2|8,0:0|0:0,0:0:0:0:
92,332,138552,6,0,L|102:212,1,120,6|8,0:0|0:0,0:0:0:0:
16,168,139267,2,0,L|0:352,2,180,2|2|2,0:0|0:0|0:0,0:0:0:0:
92,112,140695,2,0,P|154:102|207:66,1,120,2|2,0:0|0:0,0:0:0:0:
296,84,141409,6,0,L|344:216,1,120,6|8,0:0|0:0,0:0:0:0:
352,240,141945,2,0,P|284:308|196:322,1,180,0|12,0:0|0:0,0:0:0:0:
180,232,142838,2,0,L|-12:249,2,180,6|6|8,0:0|0:0|0:0,0:0:0:0:
156,140,144267,2,0,L|348:123,2,180,6|6|8,0:0|0:0|0:0,0:0:0:0:
256,192,145695,12,4,148552,0:0:0:0:
424,340,159981,6,0,P|444:284|424:228,1,120,6|10,0:0|0:0,0:0:0:0:
343,172,160695,2,0,P|324:228|344:284,1,120,2|0,0:0|0:0,0:0:0:0:
268,344,161409,1,2,0:0:0:0:
188,292,161767,1,10,0:0:0:0:
136,212,162124,2,0,P|80:192|24:212,1,120,2|8,0:0|0:0,0:0:0:0:
77,291,162838,6,0,P|133:311|189:291,1,120,2|10,0:0|0:0,0:0:0:0:
255,223,163552,2,0,P|311:203|367:223,2,120,2|0|2,0:0|0:0|0:0,0:0:0:0:
312,300,164624,1,10,0:0:0:0:
408,296,164981,1,2,0:0:0:0:
456,212,165338,1,10,0:0:0:0:
396,136,165695,5,4,0:0:0:0:
200,48,166409,2,0,P|240:128|204:204,2,180,2|0|8,0:0|0:0|0:0,0:0:0:0:
148,128,167838,2,0,P|112:176|116:240,1,120,2|8,0:0|0:0,0:0:0:0:
204,288,168552,6,0,L|328:288,1,120,4|10,0:0|0:0,0:0:0:0:
360,200,169267,2,0,L|236:200,1,120,0|10,0:0|0:0,0:0:0:0:
208,112,169981,2,0,L|392:112,2,180
256,192,171766,12,4,174267,0:0:0:0:
256,264,174981,5,2,0:0:0:0:
140,112,175695,1,0,0:0:0:0:
92,196,176052,1,10,0:0:0:0:
20,260,176409,2,0,P|36:324|84:368,1,120,0|10,0:0|0:0,0:0:0:0:
168,344,177124,6,0,L|288:344,1,120,6|8,0:0|0:0,0:0:0:0:
232,264,177838,2,0,L|352:264,1,120,2|10,0:0|0:0,0:0:0:0:
404,184,178552,2,0,L|284:184,1,120,6|8,0:0|0:0,0:0:0:0:
336,104,179267,2,0,L|216:104,1,120,2|10,0:0|0:0,0:0:0:0:
120,104,179981,6,0,P|76:224|120:345,1,240,2|12,0:0|0:0,0:0:0:0:
404,328,181409,2,0,P|434:213|392:104,1,240,2|12,0:0|0:0,0:0:0:0:
120,104,182838,2,0,P|76:224|120:345,1,240,10|12,0:0|0:0,0:0:0:0:
256,192,184267,12,4,185695,0:0:0:0:
256,312,186945,5,4,1:1:0:0:
256,312,188017,5,4,1:1:0:0:
332,188,188552,2,0,P|351:132|331:76,1,120,2|0,0:0|0:0,0:0:0:0:
256,136,189267,2,0,P|236:191|255:247,1,120,0|0,0:0|0:0,0:0:0:0:
324,312,189981,1,0,0:0:0:0:
324,312,190338,2,0,P|388:288|464:304,2,120
236,348,191409,5,4,0:0:0:0:
156,292,191767,1,8,0:0:0:0:
124,200,192124,2,0,P|76:164|12:160,2,120,0|8|0,0:0|0:0|0:0,0:0:0:0:
220,196,193195,1,8,0:0:0:0:
280,120,193552,2,0,L|244:-12,1,120,0|8,0:0|0:0,0:0:0:0:
344,20,194267,6,0,L|380:152,1,120,4|8,0:0|0:0,0:0:0:0:
448,72,194981,2,0,L|484:204,1,120,0|8,0:0|0:0,0:0:0:0:
256,192,195695,12,6,197124,0:0:0:0:
224,100,197838,5,2,0:0:0:0:
304,156,198195,1,0,0:0:0:0:
216,192,198552,2,0,P|196:248|216:304,1,120,0|10,0:0|0:0,0:0:0:0:
296,359,199266,2,0,P|315:303|296:248,1,120,2|8,0:0|0:0,0:0:0:0:
300,152,199981,6,0,P|336:72|424:20,2,180,6|2|8,0:0|0:0|0:0,0:0:0:0:
395,152,201409,2,0,L|427:276,1,120,0|2,0:0|0:0,0:0:0:0:
328,256,202124,2,0,B|344:316|344:316|344:384,2,120,2|2|6,0:0|0:0|0:0,0:0:0:0:
256,132,203374,1,6,0:0:0:0:
256,132,204267,6,0,P|276:184|256:244,1,120,6|8,0:0|0:0,0:0:0:0:
222,276,204803,2,0,L|54:350,1,180,2|12,0:0|0:0,0:0:0:0:
256,192,205695,12,6,208552,0:0:0:0:
316,288,209266,5,2,0:0:0:0:
224,256,209624,1,2,0:0:0:0:
296,192,209981,2,0,P|316:136|296:80,1,120,0|10,0:0|0:0,0:0:0:0:
215,24,210695,2,0,P|196:80|216:136,1,120,2|8,0:0|0:0,0:0:0:0:
200,232,211409,6,0,P|140:304|44:320,2,180,6|2|10,0:0|0:0|0:0,0:0:0:0:
108,200,212838,2,0,L|178:84,1,120,4|10,0:0|0:0,0:0:0:0:
264,68,213552,2,0,P|308:104|324:164,1,120,6|10,0:0|0:0,0:0:0:0:
324,259,214267,6,0,P|338:316|384:354,1,120,6|8,0:0|0:0,0:0:0:0:
416,264,214981,1,2,0:0:0:0:
448,172,215338,2,0,L|448:96,1,60
413,77,215695,6,0,P|358:58|302:78,1,120,2|8,0:0|0:0,0:0:0:0:
248,157,216409,2,0,P|304:177|359:157,2,120,2|8|6,0:0|0:0|0:0,0:0:0:0:
156,188,217481,5,10,0:0:0:0:
100,264,217838,1,2,0:0:0:0:
68,356,218195,1,10,0:0:0:0:
256,192,218552,12,6,219981,0:0:0:0:
196,108,220695,5,2,0:0:0:0:
104,128,221052,1,0,0:0:0:0:
176,192,221409,2,0,P|231:211|287:192,1,120,0|10,0:0|0:0,0:0:0:0:
355,124,222124,2,0,P|412:110|465:136,1,120,2|8,0:0|0:0,0:0:0:0:
400,208,222838,2,0,P|372:272|440:368,2,180,6|6|8,0:0|0:0|0:0,0:0:0:0:
256,192,224267,12,4,225695,0:0:0:0:
256,192,226231,5,6,0:0:0:0:
176,112,227124,2,0,P|256:76|336:112,1,180,4|6,0:0|0:0,0:0:0:0:
256,192,228552,12,4,231409,0:0:0:0:
256,256,231945,5,0,0:0:0:0:
357,154,232481,1,0,0:0:0:0:
501,154,233017,1,0,0:0:0:0:
424,276,233552,2,0,L|424:336,2,60
424,180,234267,6,0,P|408:80|336:64,1,180
240,164,235338,2,0,P|203:229|50:268,1,240
60,172,236409,2,0,L|44:76,2,90
108,184,237124,6,0,P|156:240|168:356,1,180
256,224,238195,2,0,L|256:16,2,180
340,342,239624,2,0,L|360:280,1,60
256,192,239981,12,4,241945,0:0:0:0:
