osu file format v12

[General]
AudioFilename: 07 - Prayer.mp3
AudioLeadIn: 1500
PreviewTime: 52856
Countdown: 0
SampleSet: Soft
StackLeniency: 0.7
Mode: 0
LetterboxInBreaks: 0
WidescreenStoryboard: 0

[Editor]
Bookmarks: 15356,38570,52856,53909,75713,86963,109999,124285,148570,159999,185713,197142,208570,219999,231427,238731
DistanceSpacing: 1.2
BeatDivisor: 4
GridSize: 4

[Metadata]
Title:Prayer
TitleUnicode:Prayer
Artist:S.I.D-Sound
ArtistUnicode:S.I.D-Sound
Creator:Asgard
Version:Insane
Source:Sword Girls
Tags:W_h_i_t_e Gloria_Guard
BeatmapID:206600
BeatmapSetID:63310

[Difficulty]
HPDrainRate:7
CircleSize:4
OverallDifficulty:7
ApproachRate:8
SliderMultiplier:1.6
SliderTickRate:2

[Events]
//Background and Video events
0,0,"111.jpeg",0,0
//Break Periods
2,78752,86017
2,148752,158909
//Storyboard Layer 0 (Background)
//Storyboard Layer 1 (Fail)
//Storyboard Layer 2 (Pass)
//Storyboard Layer 3 (Foreground)
//Storyboard Sound Samples
//Background Colour Transformations
3,100,163,162,255

[TimingPoints]
1410,357.142857142857,4,2,1,70,1,0
38552,-125,4,2,1,70,0,0
44267,-100,4,2,1,70,0,0
52838,-83.3333333333333,4,1,0,70,0,1
63909,-83.3333333333333,4,1,0,70,0,0
64267,-83.3333333333333,4,1,0,70,0,1
75695,-100,4,1,0,70,0,0
86767,-100,4,2,1,70,0,0
124267,-83.3333333333333,4,1,0,70,0,1
135338,-83.3333333333333,4,1,0,70,0,0
135695,-83.3333333333333,4,1,0,70,0,1
145695,-83.3333333333333,4,2,1,70,0,1
148552,-100,4,1,0,70,0,0
188552,-100,4,2,1,70,0,0
197124,-83.3333333333333,4,1,0,70,0,1
208195,-83.3333333333333,4,1,0,70,0,0
208552,-83.3333333333333,4,1,0,70,0,1
219624,-83.3333333333333,4,1,0,70,0,0
219981,-83.3333333333333,4,1,0,70,0,1
231409,-100,4,2,1,70,0,0

[Colours]
Combo1 : 255,128,255
Combo2 : 128,128,255
Combo3 : 255,128,128
Combo4 : 0,255,128
Combo5 : 255,255,128

[HitObjects]
36,172,1409,2,0,P|60:228|152:272,1,160,2|2,0:0|0:0,0:0:0:0:
216,236,1945,2,0,P|268:168|348:160,2,160,2|0|2,0:0|0:0|0:0,0:0:0:0:
374,226,3016,2,0,L|290:70,1,160,2|0,0:0|0:0,0:0:0:0:
240,28,3552,1,2,0:0:0:0:
240,28,3731,1,0,0:0:0:0:
240,28,4088,6,0,P|208:92|116:108,1,160,4|0,0:0|0:0,0:0:0:0:
48,132,4623,1,8,0:0:0:0:
8,200,4802,2,0,P|16:288|76:332,2,160,0|0|0,0:0|0:0|0:0,0:0:0:0:
88,240,5695,2,0,P|128:260|172:256,1,80,0|0,0:0|0:0,0:0:0:0:
216,188,6052,1,8,0:0:0:0:
292,228,6231,2,0,P|376:216|444:260,1,160,0|0,0:0|0:0,0:0:0:0:
472,336,6766,1,8,0:0:0:0:
512,256,6945,1,0,0:0:0:0:
472,180,7123,6,0,P|396:144|320:140,1,160,0|8,0:0|0:0,0:0:0:0:
244,152,7659,2,0,P|156:156|84:108,2,160,0|0|0,0:0|0:0|0:0,0:0:0:0:
244,152,8731,1,0,0:0:0:0:
276,224,8909,1,8,0:0:0:0:
244,300,9088,1,0,0:0:0:0:
172,336,9266,2,0,P|112:292|24:324,2,160,0|8|4,0:0|0:0|0:0,0:0:0:0:
244,372,10159,5,0,0:0:0:0:
324,364,10338,1,8,0:0:0:0:
392,324,10516,2,0,P|448:252|448:180,1,160,4|0,0:0|0:0,0:0:0:0:
432,108,11052,2,0,P|424:68|440:24,1,80,8|0,0:0|0:0,0:0:0:0:
504,76,11409,5,4,0:0:0:0:
360,144,11766,1,8,0:0:0:0:
284,164,11945,2,0,P|200:160|128:112,1,160,4|0,0:0|0:0,0:0:0:0:
96,52,12481,1,8,0:0:0:0:
52,120,12659,5,0,0:0:0:0:
52,120,12748,1,0,0:0:0:0:
52,120,12838,2,0,P|84:204|52:288,1,160,2|8,0:0|0:0,0:0:0:0:
120,332,13373,2,0,P|204:340|284:296,1,160,0|0,0:0|0:0,0:0:0:0:
336,264,13909,1,8,0:0:0:0:
412,244,14088,1,0,0:0:0:0:
412,244,14445,5,4,0:0:0:0:
332,152,14623,1,4,0:0:0:0:
452,128,14802,1,4,0:0:0:0:
64,120,15338,5,8,0:0:0:0:
128,76,15517,2,0,P|136:152|60:200,1,160,4|0,0:0|0:0,0:0:0:0:
40,272,16052,2,0,L|16:360,1,80,8|0,0:0|0:0,0:0:0:0:
75,199,16409,1,0,0:0:0:0:
132,256,16588,2,0,L|208:216,1,80,0|8,0:0|0:0,0:0:0:0:
264,272,16945,6,0,P|280:196|218:138,1,160,0|0,0:0|0:0,0:0:0:0:
176,88,17481,2,0,L|244:40,1,80,8|0,0:0|0:0,0:0:0:0:
308,88,17838,1,0,0:0:0:0:
380,120,18017,1,0,0:0:0:0:
408,196,18195,1,8,0:0:0:0:
392,276,18374,1,0,0:0:0:0:
332,332,18552,6,0,L|164:332,1,160,0|8,0:0|0:0,0:0:0:0:
140,256,19088,2,0,L|220:256,2,80,0|0|0,0:0|0:0|0:0,0:0:0:0:
72,216,19624,2,0,L|28:292,1,80,8|0,0:0|0:0,0:0:0:0:
8,176,19981,6,0,P|76:141|144:200,1,160,2|0,0:0|0:0,0:0:0:0:
180,104,20517,2,0,P|208:140|220:176,2,80,2|0|0,0:0|0:0|0:0,0:0:0:0:
264,240,21052,2,0,P|188:244|137:183,1,160,2|4,0:0|0:0,0:0:0:0:
232,48,21767,6,0,L|320:48,1,80,8|0,0:0|0:0,0:0:0:0:
368,104,22124,2,0,P|344:180|372:268,1,160,0|8,0:0|0:0,0:0:0:0:
420,199,22659,2,0,P|344:175|256:203,1,160,0|0,0:0|0:0,0:0:0:0:
211,251,23195,1,8,0:0:0:0:
152,308,23374,2,0,L|68:308,2,80,0|0|0,0:0|0:0|0:0,0:0:0:0:
220,352,23909,6,0,L|308:352,1,80,8|0,0:0|0:0,0:0:0:0:
356,296,24267,2,0,P|416:252|496:264,1,160,0|8,0:0|0:0,0:0:0:0:
444,324,24802,2,0,P|420:260|472:176,1,160,0|0,0:0|0:0,0:0:0:0:
408,120,25338,1,8,0:0:0:0:
348,64,25517,2,0,P|304:120|216:132,1,160,0|2,0:0|0:0,0:0:0:0:
163,189,26052,5,4,0:0:0:0:
124,256,26231,2,0,P|84:184|132:116,1,160,0|0,0:0|0:0,0:0:0:0:
196,288,26767,2,0,P|164:324|116:332,1,80,8|0,0:0|0:0,0:0:0:0:
216,212,27124,6,0,P|272:268|248:348,1,160,4|8,0:0|0:0,0:0:0:0:
196,288,27659,1,0,0:0:0:0:
131,340,27838,2,0,P|64:292|56:216,1,160,0|8,0:0|0:0,0:0:0:0:
111,162,28374,1,0,0:0:0:0:
168,104,28552,2,0,L|228:48,1,80,0|0,0:0|0:0,0:0:0:0:
283,106,28909,2,0,L|365:108,1,80,8|0,0:0|0:0,0:0:0:0:
400,180,29267,6,0,L|240:176,1,160,0|8,0:0|0:0,0:0:0:0:
183,230,29802,1,0,0:0:0:0:
140,300,29981,2,0,L|40:320,1,80,0|0,0:0|0:0,0:0:0:0:
192,356,30338,2,0,L|292:376,1,80,8|0,0:0|0:0,0:0:0:0:
328,315,30695,2,0,P|362:297|402:295,1,80,0|0,0:0|0:0,0:0:0:0:
464,348,31052,6,0,P|476:264|408:216,1,160,8|2,0:0|0:0,0:0:0:0:
448,148,31588,1,0,0:0:0:0:
368,156,31767,2,0,L|320:240,1,80,8|0,0:0|0:0,0:0:0:0:
256,192,32124,1,2,0:0:0:0:
200,132,32302,1,0,0:0:0:0:
160,200,32481,1,8,0:0:0:0:
180,276,32659,6,0,P|256:300|332:276,1,160,2|0,0:0|0:0,0:0:0:0:
352,200,33195,1,8,0:0:0:0:
352,120,33374,2,0,P|420:162|416:244,1,160,2|0,0:0|0:0,0:0:0:0:
256,192,33909,5,8,0:0:0:0:
160,120,34088,2,0,P|92:162|92:244,1,160,2|0,0:0|0:0,0:0:0:0:
256,192,34624,5,8,0:0:0:0:
332,276,34802,2,0,P|256:300|181:277,1,160,2|0,0:0|0:0,0:0:0:0:
100,280,35338,2,0,L|48:352,1,80,8|0,0:0|0:0,0:0:0:0:
140,208,35695,6,0,L|100:132,1,80,4|0,0:0|0:0,0:0:0:0:
171,88,36052,1,8,0:0:0:0:
208,16,36231,1,0,0:0:0:0:
256,80,36409,2,0,P|304:144|384:160,1,160,0|0,0:0|0:0,0:0:0:0:
435,103,36945,5,0,0:0:0:0:
356,80,37124,2,0,P|300:144|300:228,1,160,8|8,0:0|0:0,0:0:0:0:
156,80,37838,2,0,P|212:144|212:228,1,160,0|8,0:0|0:0,0:0:0:0:
125,306,38552,6,0,P|174:348|238:356,1,128,4|0,0:0|0:0,0:0:0:0:
288,300,39088,1,0,0:0:0:0:
352,260,39267,2,0,P|360:324|312:372,1,128,2|0,0:0|0:0,0:0:0:0:
288,300,39802,2,0,P|280:232|324:188,1,128,0|0,0:0|0:0,0:0:0:0:
392,196,40338,1,2,0:0:0:0:
364,124,40517,2,0,L|396:48,2,64,0|0|0,0:0|0:0|0:0,0:0:0:0:
317,191,41052,5,2,0:0:0:0:
252,148,41231,1,0,0:0:0:0:
208,216,41409,2,0,P|152:180|92:200,1,128,0|0,0:0|0:0,0:0:0:0:
144,256,41945,1,0,0:0:0:0:
108,324,42124,1,2,0:0:0:0:
64,264,42302,2,0,L|-4:264,2,64,0|0|0,0:0|0:0|0:0,0:0:0:0:
96,196,42838,6,0,P|131:126|95:66,1,128,0|2,0:0|0:0,0:0:0:0:
44,52,43374,1,0,0:0:0:0:
204,24,43731,1,0,0:0:0:0:
268,68,43909,2,0,L|336:68,1,64,2|0,0:0|0:0,0:0:0:0:
396,136,44267,6,0,L|352:296,1,160,4|0,0:0|0:0,0:0:0:0:
260,296,44802,1,0,0:0:0:0:
180,244,44981,2,0,P|212:152|276:144,1,160,0|8,0:0|0:0,0:0:0:0:
336,76,45516,1,0,0:0:0:0:
432,76,45695,2,0,L|484:148,1,80,0|0,0:0|0:0,0:0:0:0:
390,140,46052,2,0,L|338:212,1,80,8|0,0:0|0:0,0:0:0:0:
431,204,46409,2,0,L|483:276,1,80,0|0,0:0|0:0,0:0:0:0:
389,268,46767,2,0,L|337:340,1,80,8|0,0:0|0:0,0:0:0:0:
256,348,47124,6,0,P|204:288|112:304,1,160,4|8,0:0|0:0,0:0:0:0:
108,208,47659,1,0,0:0:0:0:
196,208,47838,2,0,P|204:288|172:360,1,160,0|8,0:0|0:0,0:0:0:0:
120,288,48374,1,0,0:0:0:0:
44,240,48552,2,0,L|0:80,1,160,0|8,0:0|0:0,0:0:0:0:
58,29,49088,2,0,L|200:108,1,160,0|0,0:0|0:0,0:0:0:0:
256,52,49624,1,8,0:0:0:0:
256,52,49802,1,0,0:0:0:0:
336,92,49981,6,0,L|416:128,1,80,4|0,0:0|0:0,0:0:0:0:
488,164,50338,1,0,0:0:0:0:
408,204,50517,2,0,L|328:168,1,80,4|0,0:0|0:0,0:0:0:0:
256,132,50874,1,0,0:0:0:0:
256,219,51052,6,0,L|336:255,1,80,4|0,0:0|0:0,0:0:0:0:
408,291,51409,1,0,0:0:0:0:
328,332,51588,2,0,L|248:296,1,80,0|8,0:0|0:0,0:0:0:0:
176,260,51945,1,0,0:0:0:0:
256,132,52124,2,0,L|256:68,6,40
432,236,52838,6,0,P|432:124|380:64,1,191.999994140625,6|10,0:0|0:0,0:0:0:0:
336,172,53374,1,0,0:0:0:0:
256,252,53552,2,0,P|224:296|232:352,1,95.9999970703126,2|0,0:0|0:0,0:0:0:0:
332,268,53909,2,0,P|328:220|296:184,1,95.9999970703126,10|2,0:0|0:0,0:0:0:0:
320,344,54267,2,0,P|373:335|400:304,1,95.9999970703126,0|2,0:0|0:0,0:0:0:0:
288,108,54624,2,0,P|239:132|220:168,1,95.9999970703126,8|2,0:0|0:0,0:0:0:0:
148,268,54981,1,0,0:0:0:0:
36,300,55159,1,2,0:0:0:0:
76,192,55338,2,0,L|76:96,1,95.9999970703126,10|0,0:0|0:0,0:0:0:0:
284,52,55695,6,0,P|187:101|152:172,1,191.999994140625,2|10,0:0|0:0,0:0:0:0:
76,96,56231,2,0,P|60:176|104:284,1,191.999994140625,2|2,0:0|0:0,0:0:0:0:
188,320,56767,1,8,0:0:0:0:
256,228,56945,2,0,L|352:228,1,95.9999970703126,2|0,0:0|0:0,0:0:0:0:
433,309,57302,2,0,L|337:309,1,95.9999970703126,0|2,0:0|0:0,0:0:0:0:
256,228,57659,1,0,0:0:0:0:
304,124,57838,2,0,P|348:88|400:84,1,95.9999970703126,2|0,0:0|0:0,0:0:0:0:
208,124,58195,2,0,P|164:88|112:84,1,95.9999970703126,2|0,0:0|0:0,0:0:0:0:
136,196,58552,6,0,P|120:280|28:332,1,191.999994140625,6|8,0:0|0:0,0:0:0:0:
36,240,59088,2,0,P|110:281|131:384,1,191.999994140625,6|0,0:0|0:0,0:0:0:0:
256,288,59624,1,10,0:0:0:0:
376,196,59802,2,0,P|392:280|484:332,1,191.999994140625,2|0,0:0|0:0,0:0:0:0:
476,240,60338,2,0,P|401:281|380:384,1,191.999994140625,10|0,0:0|0:0,0:0:0:0:
256,288,60874,1,0,0:0:0:0:
196,188,61052,1,10,0:0:0:0:
316,188,61231,1,0,0:0:0:0:
256,88,61409,6,0,P|164:112|80:64,1,191.999994140625,2|10,0:0|0:0,0:0:0:0:
100,284,61945,2,0,P|96:189|25:122,2,191.999994140625,2|2|2,0:0|0:0|0:0,0:0:0:0:
216,264,62838,5,0,0:0:0:0:
257,134,63017,1,2,0:0:0:0:
298,263,63195,1,10,0:0:0:0:
189,184,63374,1,0,0:0:0:0:
324,183,63552,1,10,0:0:0:0:
160,328,63731,5,0,0:0:0:0:
256,368,63909,1,10,0:0:0:0:
352,328,64088,1,0,0:0:0:0:
172,196,64267,6,0,P|256:156|340:196,1,191.999994140625,6|10,0:0|0:0,0:0:0:0:
256,276,64802,1,0,0:0:0:0:
140,276,64981,2,0,L|32:324,1,95.9999970703126,2|0,0:0|0:0,0:0:0:0:
80,204,65338,2,0,L|-16:228,1,95.9999970703126,10|2,0:0|0:0,0:0:0:0:
48,128,65695,2,0,P|80:76|116:52,1,95.9999970703126,0|2,0:0|0:0,0:0:0:0:
212,112,66052,2,0,P|193:170|164:202,1,95.9999970703126,8|2,0:0|0:0,0:0:0:0:
256,276,66409,1,0,0:0:0:0:
340,196,66588,1,2,0:0:0:0:
424,276,66767,2,0,L|460:180,1,95.9999970703126,10|0,0:0|0:0,0:0:0:0:
384,96,67124,6,0,P|288:136|264:216,1,191.999994140625,2|10,0:0|0:0,0:0:0:0:
340,300,67659,2,0,P|256:340|172:300,1,191.999994140625,2|2,0:0|0:0,0:0:0:0:
100,212,68195,1,0,0:0:0:0:
181,130,68374,2,0,L|129:34,1,95.9999970703126,2|0,0:0|0:0,0:0:0:0:
248,96,68731,2,0,L|293:180,1,95.9999970703126,2|2,0:0|0:0,0:0:0:0:
212,262,69088,1,0,0:0:0:0:
296,344,69267,2,0,L|404:344,1,95.9999970703126,2|0,0:0|0:0,0:0:0:0:
473,262,69624,2,0,L|365:262,1,95.9999970703126,2|0,0:0|0:0,0:0:0:0:
292,184,69981,6,0,P|380:152|392:48,1,191.999994140625,6|8,0:0|0:0,0:0:0:0:
312,108,70517,2,0,P|368:184|312:264,1,191.999994140625,6|0,0:0|0:0,0:0:0:0:
220,208,71052,2,0,L|156:288,1,95.9999970703126,8|0,0:0|0:0,0:0:0:0:
324,260,71409,2,0,L|388:340,2,95.9999970703126,6|0|8,0:0|0:0|0:0,0:0:0:0:
220,208,71945,2,0,L|156:128,1,95.9999970703126,6|0,0:0|0:0,0:0:0:0:
256,72,72302,1,0,0:0:0:0:
148,28,72481,1,8,0:0:0:0:
48,84,72659,1,0,0:0:0:0:
48,84,72749,1,0,0:0:0:0:
48,84,72838,1,0,0:0:0:0:
256,192,73016,12,0,74088,0:0:0:0:
300,332,74267,6,0,P|356:264|376:156,1,191.999994140625,2|0,0:0|0:0,0:0:0:0:
135,168,74802,2,0,P|156:268|212:336,1,191.999994140625,6|2,0:0|0:0,0:0:0:0:
348,92,75338,2,0,P|256:68|163:93,1,191.999994140625,2|6,0:0|0:0,0:0:0:0:
256,192,75784,12,4,78552,0:0:0:0:
448,124,86767,5,8,0:0:0:0:
384,76,86946,2,0,P|376:156|452:204,1,160,4|0,0:0|0:0,0:0:0:0:
464,272,87481,2,0,L|480:372,1,80,8|0,0:0|0:0,0:0:0:0:
396,336,87838,2,0,L|380:236,1,80,0|0,0:0|0:0,0:0:0:0:
436,199,88195,1,8,0:0:0:0:
376,148,88374,1,0,0:0:0:0:
324,208,88552,6,0,L|248:164,1,80,0|0,0:0|0:0,0:0:0:0:
228,88,88909,2,0,L|152:136,1,80,8|0,0:0|0:0,0:0:0:0:
296,52,89267,2,0,P|224:12|156:56,1,160,0|8,0:0|0:0,0:0:0:0:
160,132,89802,1,0,0:0:0:0:
228,88,89981,6,0,P|236:136|224:172,1,80,0|0,0:0|0:0,0:0:0:0:
170,222,90338,2,0,P|162:278|169:298,1,80,8|0,0:0|0:0,0:0:0:0:
240,268,90695,2,0,P|232:348|164:376,1,160,0|8,0:0|0:0,0:0:0:0:
96,332,91231,1,2,0:0:0:0:
52,264,91409,6,0,L|8:196,1,80,0|0,0:0|0:0,0:0:0:0:
96,172,91767,2,0,L|52:104,2,80,10|0|2,0:0|0:0|0:0,0:0:0:0:
160,224,92302,1,0,0:0:0:0:
216,168,92481,2,0,L|312:168,1,80,10|2,0:0|0:0,0:0:0:0:
336,100,92838,6,0,P|260:104|216:168,1,160,4|8,0:0|0:0,0:0:0:0:
272,223,93374,1,2,0:0:0:0:
328,280,93552,2,0,L|416:280,1,80,0|0,0:0|0:0,0:0:0:0:
280,352,93909,2,0,L|192:352,1,80,8|0,0:0|0:0,0:0:0:0:
168,280,94267,6,0,L|340:280,1,160,0|8,0:0|0:0,0:0:0:0:
384,336,94802,1,0,0:0:0:0:
416,264,94981,2,0,P|396:224|368:204,1,80,0|0,0:0|0:0,0:0:0:0:
304,152,95338,2,0,L|304:68,1,80,8|0,0:0|0:0,0:0:0:0:
232,36,95695,6,0,P|184:112|100:136,1,160,0|8,0:0|0:0,0:0:0:0:
100,52,96231,2,0,P|40:104|48:184,1,160,0|0,0:0|0:0,0:0:0:0:
113,235,96767,1,8,0:0:0:0:
172,300,96945,2,0,L|172:384,2,80,0|0|0,0:0|0:0|0:0,0:0:0:0:
256,328,97481,5,6,0:0:0:0:
373,260,97749,1,6,0:0:0:0:
373,124,98017,1,6,0:0:0:0:
216,48,98373,1,2,0:0:0:0:
216,48,98552,6,0,P|220:136|176:208,1,160,4|8,0:0|0:0,0:0:0:0:
114,234,99088,1,0,0:0:0:0:
176,284,99267,2,0,P|88:308|40:264,1,160,0|8,0:0|0:0,0:0:0:0:
48,184,99802,1,0,0:0:0:0:
114,234,99981,6,0,P|156:208|208:204,1,80,0|0,0:0|0:0,0:0:0:0:
248,252,100338,2,0,L|332:252,1,80,8|0,0:0|0:0,0:0:0:0:
384,195,100695,2,0,P|332:143|324:51,1,160,0|8,0:0|0:0,0:0:0:0:
378,3,101231,1,0,0:0:0:0:
392,80,101409,6,0,P|340:132|248:140,1,160,0|8,0:0|0:0,0:0:0:0:
200,85,101945,1,0,0:0:0:0:
147,144,102124,2,0,P|113:214|45:254,1,160,0|8,0:0|0:0,0:0:0:0:
18,330,102659,1,0,0:0:0:0:
40,184,102838,6,0,P|106:220|96:303,1,160,0|8,0:0|0:0,0:0:0:0:
192,320,103374,1,0,0:0:0:0:
256,272,103552,1,0,0:0:0:0:
256,192,103731,2,0,L|256:96,1,80,0|8,0:0|0:0,0:0:0:0:
336,112,104088,6,0,P|372:180|336:248,1,160,2|0,0:0|0:0,0:0:0:0:
256,272,104624,1,8,0:0:0:0:
176,112,104802,2,0,P|140:180|175:248,1,160,2|0,0:0|0:0,0:0:0:0:
256,272,105338,5,8,0:0:0:0:
312,215,105517,2,0,P|348:283|312:351,1,160,2|0,0:0|0:0,0:0:0:0:
256,296,106052,1,8,0:0:0:0:
200,215,106231,2,0,P|164:283|199:351,1,160,2|0,0:0|0:0,0:0:0:0:
120,192,106766,6,0,L|28:192,1,80,10|0,0:0|0:0,0:0:0:0:
80,112,107124,2,0,L|176:112,1,80,0|0,0:0|0:0,0:0:0:0:
200,32,107481,2,0,L|104:32,1,80,8|0,0:0|0:0,0:0:0:0:
80,112,107838,6,0,L|244:112,1,160,8|8,0:0|0:0,0:0:0:0:
302,174,108374,1,0,0:0:0:0:
284,256,108552,2,0,P|357:236|381:160,1,160,8|8,0:0|0:0,0:0:0:0:
320,96,109088,1,0,0:0:0:0:
320,96,109266,2,0,P|244:117|224:193,1,160,8|8,0:0|0:0,0:0:0:0:
156,344,109981,6,0,P|112:268|48:232,1,160,4|0,0:0|0:0,0:0:0:0:
17,160,110517,1,0,0:0:0:0:
96,160,110695,2,0,L|132:80,2,80,2|0|0,0:0|0:0|0:0,0:0:0:0:
123,235,111231,2,0,P|202:215|274:251,1,160,2|0,0:0|0:0,0:0:0:0:
316,312,111767,1,0,0:0:0:0:
348,239,111945,2,0,P|262:254|237:325,1,160,2|0,0:0|0:0,0:0:0:0:
316,312,112481,6,0,L|408:312,1,80,0|0,0:0|0:0,0:0:0:0:
430,239,112838,2,0,L|510:239,2,80,2|0|0,0:0|0:0|0:0,0:0:0:0:
386,171,113374,1,2,0:0:0:0:
346,101,113552,1,0,0:0:0:0:
426,101,113731,1,0,0:0:0:0:
386,32,113909,2,0,P|346:21|297:40,1,80,0|0,0:0|0:0,0:0:0:0:
346,101,114266,6,0,P|306:164|343:239,1,160,2|0,0:0|0:0,0:0:0:0:
386,171,114802,2,0,P|306:168|246:233,1,160,2|0,0:0|0:0,0:0:0:0:
231,297,115338,2,0,L|143:297,1,80,2|0,0:0|0:0,0:0:0:0:
72,228,115695,6,0,P|152:208|196:148,1,160,4|8,0:0|0:0,0:0:0:0:
133,85,116231,1,0,0:0:0:0:
52,116,116409,2,0,L|0:176,1,80,0|0,0:0|0:0,0:0:0:0:
72,228,116767,2,0,L|20:288,1,80,8|0,0:0|0:0,0:0:0:0:
80,352,117124,6,0,P|144:300|232:292,1,160,0|8,0:0|0:0,0:0:0:0:
256,208,117659,1,0,0:0:0:0:
324,152,117838,2,0,P|256:116|188:152,1,160,0|8,0:0|0:0,0:0:0:0:
256,208,118374,1,0,0:0:0:0:
316,272,118552,6,0,L|352:356,1,80,4|0,0:0|0:0,0:0:0:0:
352,208,118910,2,0,L|388:124,1,80,8|0,0:0|0:0,0:0:0:0:
392,268,119266,2,0,L|428:352,1,80,0|0,0:0|0:0,0:0:0:0:
428,208,119624,2,0,L|464:124,1,80,8|0,0:0|0:0,0:0:0:0:
392,76,119981,6,0,P|318:98|295:172,1,160,0|8,0:0|0:0,0:0:0:0:
120,76,120517,2,0,P|193:98|216:172,1,160,0|0,0:0|0:0,0:0:0:0:
132,152,121052,2,0,L|40:152,1,80,8|0,0:0|0:0,0:0:0:0:
88,232,121409,6,0,L|172:232,1,80,4|0,0:0|0:0,0:0:0:0:
216,308,121767,1,0,0:0:0:0:
128,308,121945,2,0,L|48:308,1,80,4|0,0:0|0:0,0:0:0:0:
256,232,122302,1,0,0:0:0:0:
424,232,122481,6,0,L|340:232,1,80,4|0,0:0|0:0,0:0:0:0:
296,308,122838,1,0,0:0:0:0:
384,308,123017,2,0,L|464:308,1,80,0|8,0:0|0:0,0:0:0:0:
256,232,123374,1,0,0:0:0:0:
256,144,123552,2,0,L|256:92,6,40
80,236,124267,6,0,P|80:124|132:64,1,191.999994140625,6|10,0:0|0:0,0:0:0:0:
176,172,124803,1,0,0:0:0:0:
256,252,124981,2,0,P|288:296|280:352,1,95.9999970703126,2|0,0:0|0:0,0:0:0:0:
180,268,125338,2,0,P|184:220|216:184,1,95.9999970703126,10|2,0:0|0:0,0:0:0:0:
192,344,125696,2,0,P|139:335|112:304,1,95.9999970703126,0|2,0:0|0:0,0:0:0:0:
224,108,126053,2,0,P|273:132|292:168,1,95.9999970703126,8|2,0:0|0:0,0:0:0:0:
364,268,126410,1,0,0:0:0:0:
476,300,126588,1,2,0:0:0:0:
436,192,126767,2,0,L|436:96,1,95.9999970703126,10|0,0:0|0:0,0:0:0:0:
228,52,127124,6,0,P|325:101|360:172,1,191.999994140625,2|10,0:0|0:0,0:0:0:0:
436,96,127660,2,0,P|452:176|408:284,1,191.999994140625,2|2,0:0|0:0,0:0:0:0:
324,320,128196,1,8,0:0:0:0:
256,228,128374,2,0,L|160:228,1,95.9999970703126,2|0,0:0|0:0,0:0:0:0:
79,309,128731,2,0,L|175:309,1,95.9999970703126,0|2,0:0|0:0,0:0:0:0:
256,228,129088,1,0,0:0:0:0:
208,124,129267,2,0,P|164:88|112:84,1,95.9999970703126,2|0,0:0|0:0,0:0:0:0:
304,124,129624,2,0,P|348:88|400:84,1,95.9999970703126,2|0,0:0|0:0,0:0:0:0:
444,184,129981,6,0,P|420:292|360:352,1,191.999994140625,6|8,0:0|0:0,0:0:0:0:
356,217,130517,2,0,P|262:276|177:253,1,191.999994140625,2|0,0:0|0:0,0:0:0:0:
107,341,131052,1,10,0:0:0:0:
68,232,131231,2,0,L|24:136,1,95.9999970703126,2|0,0:0|0:0,0:0:0:0:
144,156,131588,2,0,L|100:60,2,95.9999970703126,0|10|2,0:0|0:0|0:0,0:0:0:0:
188,260,132123,1,0,0:0:0:0:
256,168,132302,1,0,0:0:0:0:
323,260,132481,2,0,L|368:352,1,95.9999970703126,10|2,0:0|0:0,0:0:0:0:
428,252,132838,6,0,P|388:155|313:119,1,191.999994140625,6|8,0:0|0:0,0:0:0:0:
199,119,133374,2,0,P|123:155|84:252,1,191.999994140625,2|2,0:0|0:0,0:0:0:0:
84,368,133909,2,0,P|128:356|184:368,1,95.9999970703126,0|2,0:0|0:0,0:0:0:0:
272,296,134267,2,0,L|352:352,1,95.9999970703126,0|2,0:0|0:0,0:0:0:0:
240,228,134624,2,0,L|160:284,1,95.9999970703126,10|0,0:0|0:0,0:0:0:0:
272,160,134981,2,0,L|352:216,1,95.9999970703126,2|0,0:0|0:0,0:0:0:0:
240,92,135338,2,0,L|152:152,1,95.9999970703126,10|0,0:0|0:0,0:0:0:0:
136,236,135695,6,0,P|70:164|104:71,1,191.999994140625,6|10,0:0|0:0,0:0:0:0:
240,92,136231,1,0,0:0:0:0:
352,64,136409,2,0,L|464:32,1,95.9999970703126,2|0,0:0|0:0,0:0:0:0:
392,140,136767,2,0,L|504:172,1,95.9999970703126,10|2,0:0|0:0,0:0:0:0:
388,228,137124,2,0,L|444:329,1,95.9999970703126,0|2,0:0|0:0,0:0:0:0:
324,284,137481,2,0,L|292:396,1,95.9999970703126,0|2,0:0|0:0,0:0:0:0:
241,264,137838,2,0,P|263:222|311:200,1,95.9999970703126,0|2,0:0|0:0,0:0:0:0:
159,281,138195,2,0,P|182:325|229:347,1,95.9999970703126,10|0,0:0|0:0,0:0:0:0:
241,264,138552,6,0,P|175:199|88:234,1,191.999994140625,6|10,0:0|0:0,0:0:0:0:
280,188,139088,2,0,P|186:198|160:283,1,191.999994140625,2|2,0:0|0:0,0:0:0:0:
95,365,139624,1,8,0:0:0:0:
20,280,139802,2,0,L|20:180,1,95.9999970703126,2|0,0:0|0:0,0:0:0:0:
101,102,140159,2,0,L|101:202,1,95.9999970703126,0|2,0:0|0:0,0:0:0:0:
208,148,140517,1,0,0:0:0:0:
288,68,140695,2,0,L|316:164,1,95.9999970703126,2|0,0:0|0:0,0:0:0:0:
233,241,141052,2,0,L|205:337,1,95.9999970703126,2|0,0:0|0:0,0:0:0:0:
336,376,141409,6,0,P|416:328|467:226,1,191.999994140625,6|8,0:0|0:0,0:0:0:0:
347,285,141945,2,0,P|375:201|348:105,1,191.999994140625,6|0,0:0|0:0,0:0:0:0:
292,217,142481,2,0,P|277:170|241:139,1,95.9999970703126,8|0,0:0|0:0,0:0:0:0:
176,376,142838,6,0,P|96:328|45:226,1,191.999994140625,6|8,0:0|0:0,0:0:0:0:
165,285,143374,2,0,P|137:201|164:105,1,191.999994140625,6|0,0:0|0:0,0:0:0:0:
220,217,143910,2,0,P|235:170|271:139,1,95.9999970703126,8|0,0:0|0:0,0:0:0:0:
256,192,144267,12,0,145517,0:0:0:0:
404,188,145696,6,0,P|384:273|311:355,1,191.999994140625,2|0,0:0|0:0,0:0:0:0:
108,188,146231,2,0,P|130:280|193:351,1,191.999994140625,2|2,0:0|0:0,0:0:0:0:
256,280,146767,2,0,L|256:148,2,95.9999970703126,0|0|2,0:0|0:0|0:0,0:0:0:0:
256,192,147213,12,4,148552,0:0:0:0:
8,200,159981,6,0,P|6:281|72:336,2,160,6|10|2,0:0|0:0|0:0,0:0:0:0:
92,243,160874,2,0,P|128:256|169:241,1,80,0|2,0:0|0:0,0:0:0:0:
235,176,161231,2,0,P|311:148|386:194,1,160,2|0,0:0|0:0,0:0:0:0:
452,285,161767,5,10,0:0:0:0:
460,156,161945,2,0,L|492:80,1,80,0|2,0:0|0:0,0:0:0:0:
408,32,162302,2,0,P|396:76|360:104,1,80,0|10,0:0|0:0,0:0:0:0:
303,166,162659,6,0,P|275:242|291:334,1,160,2|2,0:0|0:0,0:0:0:0:
192,340,163195,1,10,0:0:0:0:
144,352,163284,1,0,0:0:0:0:
96,356,163374,1,2,0:0:0:0:
52,340,163463,1,0,0:0:0:0:
12,316,163552,1,0,0:0:0:0:
0,272,163642,1,0,0:0:0:0:
0,224,163731,1,2,0:0:0:0:
32,184,163820,1,0,0:0:0:0:
56,140,163909,2,0,P|92:116|112:72,1,80,10|0,0:0|0:0,0:0:0:0:
152,0,164267,6,0,P|204:72|188:140,1,160,2|10,0:0|0:0,0:0:0:0:
256,208,164802,1,0,0:0:0:0:
324,140,164981,2,0,L|396:92,1,80,2|0,0:0|0:0,0:0:0:0:
408,192,165338,2,0,L|496:180,1,80,10|0,0:0|0:0,0:0:0:0:
435,261,165695,6,0,P|360:300|328:372,1,160,4|8,0:0|0:0,0:0:0:0:
246,315,166231,1,0,0:0:0:0:
152,328,166409,2,0,L|64:340,1,80,2|0,0:0|0:0,0:0:0:0:
0,264,166767,2,0,L|88:252,1,80,10|0,0:0|0:0,0:0:0:0:
172,236,167124,6,0,P|220:156|208:80,1,160,2|8,0:0|0:0,0:0:0:0:
144,24,167659,1,2,0:0:0:0:
140,120,167838,2,0,P|120:144|76:168,1,80,0|2,0:0|0:0,0:0:0:0:
56,260,168195,2,0,P|80:280|92:325,1,80,10|0,0:0|0:0,0:0:0:0:
184,356,168552,6,0,P|257:299|322:296,1,160,6|10,0:0|0:0,0:0:0:0:
390,228,169088,1,0,0:0:0:0:
456,156,169267,2,0,L|476:72,2,80,2|0|10,0:0|0:0|0:0,0:0:0:0:
390,228,169802,1,2,0:0:0:0:
316,168,169981,6,0,P|236:148|208:76,1,160,0|8,0:0|0:0,0:0:0:0:
125,35,170517,1,2,0:0:0:0:
299,81,170695,2,0,P|383:61|463:77,1,160,0|8,0:0|0:0,0:0:0:0:
511,148,171231,1,2,0:0:0:0:
256,284,171767,6,0,L|256:332,2,40,6|0|2,0:0|0:0|0:0,0:0:0:0:
216,256,172034,1,0,0:0:0:0:
168,244,172124,1,2,0:0:0:0:
124,256,172213,1,0,0:0:0:0:
80,268,172302,1,2,0:0:0:0:
40,292,172392,2,0,L|20:252,1,40,0|2,0:0|0:0,0:0:0:0:
36,212,172570,1,0,0:0:0:0:
56,168,172659,2,0,P|52:80|0:32,1,160,2|0,0:0|0:0,0:0:0:0:
2,33,173195,1,10,0:0:0:0:
56,168,173374,6,0,P|108:104|196:80,1,160,2|2,0:0|0:0,0:0:0:0:
272,100,173909,1,10,0:0:0:0:
240,192,174088,1,2,0:0:0:0:
268,220,174177,1,0,0:0:0:0:
304,240,174267,2,0,P|380:268|408:344,1,160,6|10,0:0|0:0,0:0:0:0:
480,272,174802,2,0,L|504:192,1,80,2|0,0:0|0:0,0:0:0:0:
428,112,175159,2,0,L|404:192,1,80,2|10,0:0|0:0,0:0:0:0:
304,240,175517,6,0,P|236:268|184:340,1,160,2|2,0:0|0:0,0:0:0:0:
117,268,176052,1,10,0:0:0:0:
20,256,176231,1,2,0:0:0:0:
80,180,176409,2,0,L|32:96,1,80,0|2,0:0|0:0,0:0:0:0:
108,42,176767,2,0,L|156:126,1,80,10|0,0:0|0:0,0:0:0:0:
216,180,177124,6,0,P|264:109|340:61,1,160,6|8,0:0|0:0,0:0:0:0:
392,135,177659,1,0,0:0:0:0:
312,192,177838,2,0,L|288:276,1,80,2|0,0:0|0:0,0:0:0:0:
386,268,178195,2,0,L|362:352,1,80,10|0,0:0|0:0,0:0:0:0:
272,372,178552,6,0,P|190:345|123:285,1,160,6|8,0:0|0:0,0:0:0:0:
96,208,179088,1,0,0:0:0:0:
168,144,179267,2,0,L|200:60,1,80,2|0,0:0|0:0,0:0:0:0:
264,137,179624,2,0,L|296:53,1,80,10|0,0:0|0:0,0:0:0:0:
360,130,179981,6,0,P|337:206|388:275,1,160,6|8,0:0|0:0,0:0:0:0:
440,190,180517,1,0,0:0:0:0:
475,279,180695,2,0,P|436:349|350:362,1,160,10|0,0:0|0:0,0:0:0:0:
256,260,181231,1,0,0:0:0:0:
152,130,181409,6,0,P|175:206|124:275,1,160,6|8,0:0|0:0,0:0:0:0:
72,190,181945,1,0,0:0:0:0:
37,279,182123,2,0,P|76:349|162:362,1,160,10|0,0:0|0:0,0:0:0:0:
256,260,182659,1,0,0:0:0:0:
192,188,182838,6,0,P|156:120|192:52,1,160,14|10,0:0|0:0,0:0:0:0:
256,124,183374,1,0,0:0:0:0:
319,51,183552,2,0,P|356:119|320:187,1,160,10|10,0:0|0:0,0:0:0:0:
256,124,184088,1,0,0:0:0:0:
256,287,184267,5,10,0:0:0:0:
188,259,184445,1,0,0:0:0:0:
160,191,184623,1,10,0:0:0:0:
188,124,184802,1,8,0:0:0:0:
256,96,184981,1,2,0:0:0:0:
323,124,185159,1,8,0:0:0:0:
351,192,185338,1,10,0:0:0:0:
323,259,185516,1,0,0:0:0:0:
256,192,185695,5,4,1:0:0:0:
256,96,186945,5,4,1:1:0:0:
194,263,188017,5,4,1:1:0:0:
126,330,188195,1,4,1:1:0:0:
57,261,188374,1,4,1:1:0:0:
128,196,188552,6,0,L|72:140,1,80,0|0,0:0|0:0,0:0:0:0:
3,71,188909,1,2,0:0:0:0:
100,68,189088,2,0,L|213:181,1,160,0|0,0:0|0:0,0:0:0:0:
256,92,189624,1,0,0:0:0:0:
348,132,189802,5,4,0:0:0:0:
164,132,190159,1,4,0:0:0:0:
316,252,190517,2,0,P|256:208|196:252,1,160,4|2,0:0|0:0,0:0:0:0:
256,324,191052,2,0,L|168:352,1,80,0|0,0:0|0:0,0:0:0:0:
345,338,191409,6,0,P|404:290|397:205,1,160,4|8,0:0|0:0,0:0:0:0:
497,210,191945,1,0,0:0:0:0:
315,252,192123,2,0,P|275:252|236:282,1,80,0|0,0:0|0:0,0:0:0:0:
191,191,192481,1,8,0:0:0:0:
124,124,192659,6,0,P|88:196|124:260,1,160,0|0,0:0|0:0,0:0:0:0:
191,191,193195,1,8,0:0:0:0:
260,124,193374,2,0,P|296:196|260:260,1,160,0|0,0:0|0:0,0:0:0:0:
191,191,193909,2,0,L|120:260,1,80,8|0,0:0|0:0,0:0:0:0:
260,124,194267,6,0,P|327:190|336:256,1,160,4|8,0:0|0:0,0:0:0:0:
472,184,194802,2,0,P|434:269|381:307,1,160,0|2,0:0|0:0,0:0:0:0:
240,352,195338,2,0,L|320:316,1,80,8|0,0:0|0:0,0:0:0:0:
344,228,195695,6,0,L|190:297,1,160,8|8,0:0|0:0,0:0:0:0:
101,293,196231,1,0,0:0:0:0:
164,224,196409,2,0,L|164:140,1,80,8|0,0:0|0:0,0:0:0:0:
256,108,196767,2,0,L|256:192,1,80,8|8,0:0|0:0,0:0:0:0:
328,84,197124,6,0,P|256:28|184:84,1,191.999994140625,6|10,0:0|0:0,0:0:0:0:
74,50,197659,1,0,0:0:0:0:
24,156,197838,2,0,P|40:204|32:256,1,95.9999970703126,2|2,0:0|0:0,0:0:0:0:
116,330,198195,2,0,P|161:307|192:264,1,95.9999970703126,8|2,0:0|0:0,0:0:0:0:
396,330,198552,2,0,P|350:307|319:264,1,95.9999970703126,0|2,0:0|0:0,0:0:0:0:
256,72,198909,2,0,L|256:180,1,95.9999970703126,8|2,0:0|0:0,0:0:0:0:
404,188,199266,1,2,0:0:0:0:
323,272,199445,1,0,0:0:0:0:
488,108,199624,2,0,P|452:76|440:32,1,95.9999970703126,10|0,0:0|0:0,0:0:0:0:
438,231,199981,6,0,P|383:144|372:43,1,191.999994140625,6|10,0:0|0:0,0:0:0:0:
254,97,200517,2,0,P|293:160|287:275,1,191.999994140625,2|2,0:0|0:0,0:0:0:0:
203,154,201052,2,0,P|208:204|173:251,1,95.9999970703126,8|2,0:0|0:0,0:0:0:0:
93,304,201409,2,0,L|5:364,1,95.9999970703126,0|2,0:0|0:0,0:0:0:0:
88,216,201767,2,0,L|0:276,1,95.9999970703126,2|0,0:0|0:0,0:0:0:0:
108,144,202124,2,0,P|160:80|280:68,1,191.999994140625,2|2,0:0|0:0,0:0:0:0:
336,152,202659,1,0,0:0:0:0:
256,220,202838,6,0,L|256:324,2,95.9999970703126,6|0|8,0:0|0:0|0:0,0:0:0:0:
256,104,203374,2,0,P|188:136|156:248,1,191.999994140625,6|0,0:0|0:0,0:0:0:0:
332,244,203910,2,0,P|344:188|332:144,1,95.9999970703126,8|0,0:0|0:0,0:0:0:0:
380,85,204267,2,0,P|418:160|428:268,1,191.999994140625,6|8,0:0|0:0,0:0:0:0:
83,266,204802,2,0,P|93:160|131:85,1,191.999994140625,6|0,0:0|0:0,0:0:0:0:
300,328,205338,2,0,P|256:344|212:328,1,95.9999970703126,12|0,0:0|0:0,0:0:0:0:
256,192,205695,12,0,206767,0:0:0:0:
448,284,207124,6,0,P|392:304|356:352,2,95.9999970703126,2|0|2,0:0|0:0|0:0,0:0:0:0:
252,344,207659,2,0,P|168:288|80:296,1,191.999994140625,6|0,0:0|0:0,0:0:0:0:
36,212,208195,2,0,P|36:164|8:124,1,95.9999970703126,8|0,0:0|0:0,0:0:0:0:
44,36,208552,6,0,P|116:96|212:84,1,191.999994140625,6|10,0:0|0:0,0:0:0:0:
256,192,209088,1,0,0:0:0:0:
380,220,209267,2,0,L|428:304,1,95.9999970703126,2|2,0:0|0:0,0:0:0:0:
336,164,209624,2,0,L|384:80,1,95.9999970703126,8|2,0:0|0:0,0:0:0:0:
292,220,209981,2,0,L|340:304,1,95.9999970703126,0|2,0:0|0:0,0:0:0:0:
248,164,210338,2,0,L|296:80,1,95.9999970703126,8|2,0:0|0:0,0:0:0:0:
204,220,210695,2,0,L|252:304,1,95.9999970703126,0|2,0:0|0:0,0:0:0:0:
160,164,211052,2,0,L|208:80,1,95.9999970703126,10|0,0:0|0:0,0:0:0:0:
96,108,211409,6,0,P|56:192|96:276,1,191.999994140625,4|8,0:0|0:0,0:0:0:0:
177,194,211945,2,0,P|217:110|177:26,1,191.999994140625,2|2,0:0|0:0,0:0:0:0:
95,107,212481,2,0,P|75:149|95:191,1,95.9999970703126,10|2,0:0|0:0,0:0:0:0:
140,296,212838,2,0,P|186:298|218:265,1,95.9999970703126,4|2,0:0|0:0,0:0:0:0:
392,140,213195,2,0,P|411:182|392:224,1,95.9999970703126,10|0,0:0|0:0,0:0:0:0:
372,296,213552,2,0,P|325:298|293:265,1,95.9999970703126,6|0,0:0|0:0,0:0:0:0:
300,156,213909,6,0,P|257:136|215:154,1,95.9999970703126,10|0,0:0|0:0,0:0:0:0:
344,104,214267,2,0,P|255:67|168:104,1,191.999994140625,4|8,0:0|0:0,0:0:0:0:
104,208,214802,2,0,P|88:264|52:292,2,95.9999970703126,4|0|0,0:0|0:0|0:0,0:0:0:0:
60,100,215338,1,10,0:0:0:0:
168,136,215517,6,0,P|184:228|136:336,1,191.999994140625,4|0,0:0|0:0,0:0:0:0:
104,208,216052,1,10,0:0:0:0:
168,136,216231,2,0,L|256:96,2,95.9999970703126,6|0|0,0:0|0:0|0:0,0:0:0:0:
256,212,216767,2,0,L|336:272,1,95.9999970703126,10|2,0:0|0:0,0:0:0:0:
348,92,217124,6,0,P|256:68|163:93,1,191.999994140625,6|10,0:0|0:0,0:0:0:0:
300,332,217659,2,0,P|356:264|376:156,1,191.999994140625,2|2,0:0|0:0,0:0:0:0:
135,168,218195,2,0,P|145:218|173:252,1,95.9999970703126,8|2,0:0|0:0,0:0:0:0:
91,333,218552,1,0,0:0:0:0:
52,224,218731,1,2,0:0:0:0:
64,108,218909,2,0,L|136:40,1,95.9999970703126,10|0,0:0|0:0,0:0:0:0:
215,124,219267,2,0,L|313:126,1,95.9999970703126,10|0,0:0|0:0,0:0:0:0:
310,222,219624,2,0,L|380:296,1,95.9999970703126,10|8,0:0|0:0,0:0:0:0:
452,240,219981,6,0,P|464:184|500:152,1,95.9999970703126,6|0,0:0|0:0,0:0:0:0:
408,75,220338,1,10,0:0:0:0:
408,75,220517,1,0,0:0:0:0:
316,144,220695,2,0,L|340:244,1,95.9999970703126,2|2,0:0|0:0,0:0:0:0:
256,312,221052,2,0,L|256:216,1,95.9999970703126,8|2,0:0|0:0,0:0:0:0:
196,144,221409,2,0,L|172:244,1,95.9999970703126,0|2,0:0|0:0,0:0:0:0:
36,336,221767,2,0,L|136:296,1,95.9999970703126,8|2,0:0|0:0,0:0:0:0:
280,368,222124,2,0,L|196:304,1,95.9999970703126,0|2,0:0|0:0,0:0:0:0:
268,212,222481,1,10,0:0:0:0:
376,164,222659,1,0,0:0:0:0:
135,168,222838,6,0,P|156:268|212:336,1,191.999994140625,6|10,0:0|0:0,0:0:0:0:
300,332,223374,2,0,P|356:264|376:156,1,191.999994140625,6|2,0:0|0:0,0:0:0:0:
300,108,223909,2,0,P|254:96|207:108,1,95.9999970703126,10|0,0:0|0:0,0:0:0:0:
136,168,224267,2,0,P|256:292|376:168,1,383.99998828125,0|0,0:0|0:0,0:0:0:0:
256,84,225159,5,2,0:0:0:0:
193,192,225338,1,10,0:0:0:0:
318,192,225517,1,0,0:0:0:0:
148,88,225695,2,0,P|92:168|124:264,1,191.999994140625,6|8,0:0|0:0,0:0:0:0:
397,253,226231,2,0,P|420:168|364:88,1,191.999994140625,6|0,0:0|0:0,0:0:0:0:
318,192,226767,2,0,P|300:248|320:300,1,95.9999970703126,8|0,0:0|0:0,0:0:0:0:
266,143,227124,6,0,P|228:248|252:328,1,191.999994140625,6|8,0:0|0:0,0:0:0:0:
224,40,227660,2,0,P|172:141|106:178,1,191.999994140625,6|0,0:0|0:0,0:0:0:0:
148,36,228195,2,0,P|121:88|70:110,1,95.9999970703126,12|0,0:0|0:0,0:0:0:0:
256,192,228552,12,0,229802,0:0:0:0:
352,252,229981,6,0,P|404:264|436:292,1,95.9999970703126,6|2,0:0|0:0,0:0:0:0:
160,252,230517,2,0,P|108:264|76:292,1,95.9999970703126,6|2,0:0|0:0,0:0:0:0:
256,124,231052,2,0,L|256:16,1,95.9999970703126,6|0,0:0|0:0,0:0:0:0:
160,40,231409,6,0,P|132:140|80:168,1,160,6|8,0:0|0:0,0:0:0:0:
423,165,231945,2,0,P|380:140|352:40,1,160,6|8,0:0|0:0,0:0:0:0:
188,336,232481,2,0,P|256:300|324:336,1,160,6|8,0:0|0:0,0:0:0:0:
404,284,233017,2,0,L|480:240,2,80,6|0|0,0:0|0:0|0:0,0:0:0:0:
473,147,233552,5,2,0:0:0:0:
388,192,233731,1,0,0:0:0:0:
472,244,233909,1,0,0:0:0:0:
408,96,234266,6,0,P|308:68|280:16,1,160,6|8,0:0|0:0,0:0:0:0:
282,359,234802,2,0,P|308:316|408:288,1,160,6|8,0:0|0:0,0:0:0:0:
112,124,235338,2,0,P|148:192|112:260,1,160,6|0,0:0|0:0,0:0:0:0:
192,312,235874,2,0,L|128:376,1,80,0|4,0:0|0:0,0:0:0:0:
112,124,236409,5,4,0:0:0:0:
256,212,236678,1,4,0:0:0:0:
400,124,236945,1,4,0:0:0:0:
352,344,237124,6,0,P|380:244|432:216,1,160,6|8,0:0|0:0,0:0:0:0:
89,219,237660,2,0,P|132:244|160:344,1,160,6|8,0:0|0:0,0:0:0:0:
324,48,238196,2,0,P|256:84|188:48,1,160,6|8,0:0|0:0,0:0:0:0:
384,96,238731,2,0,P|348:164|384:231,1,160,6|8,0:0|0:0,0:0:0:0:
315,300,239267,1,6,0:0:0:0:
315,300,239624,6,0,L|228:300,1,80,2|6,0:0|0:0,0:0:0:0:
256,192,239981,12,0,241409,0:0:0:0:
256,116,241588,5,4,0:0:0:0:
190,230,241767,1,4,0:0:0:0:
321,230,241945,1,4,0:0:0:0:
