osu file format v12

[General]
AudioFilename: 07 - Prayer.mp3
AudioLeadIn: 1500
PreviewTime: 52856
Countdown: 0
SampleSet: Normal
StackLeniency: 0.7
Mode: 0
LetterboxInBreaks: 0
WidescreenStoryboard: 0

[Editor]
Bookmarks: 15356,38570,52856,53909,75713,86963,109999,124285,148570,159999,185713,197142,208570,219999,231427,238731
DistanceSpacing: 1
BeatDivisor: 4
GridSize: 4

[Metadata]
Title:Prayer
TitleUnicode:Prayer
Artist:S.I.D-Sound
ArtistUnicode:S.I.D-Sound
Creator:Asgard
Version:Easy
Source:Sword Girls
Tags:W_h_i_t_e Gloria_Guard
BeatmapID:316350
BeatmapSetID:63310

[Difficulty]
HPDrainRate:2
CircleSize:3
OverallDifficulty:2
ApproachRate:3
SliderMultiplier:1
SliderTickRate:2

[Events]
//Background and Video events
0,0,"111.jpeg",0,0
//Break Periods
2,78752,85505
2,148752,155684
//Storyboard Layer 0 (Background)
//Storyboard Layer 1 (Fail)
//Storyboard Layer 2 (Pass)
//Storyboard Layer 3 (Foreground)
//Storyboard Sound Samples
//Background Colour Transformations
3,100,163,162,255

[TimingPoints]
1410,357.142857142857,4,2,2,70,1,0
43909,-100,4,2,1,70,0,0
52838,-100,4,1,0,70,0,1
63909,-100,4,1,0,70,0,0
64267,-100,4,1,0,70,0,1
75695,-100,4,1,0,70,0,0
87124,-100,4,2,1,70,0,0
109981,-100,4,2,2,70,0,0
115338,-100,4,2,1,70,0,0
124267,-100,4,1,0,70,0,1
135338,-100,4,1,0,70,0,0
135695,-100,4,1,0,70,0,1
145784,-100,4,2,0,70,0,1
148552,-100,4,1,0,70,0,0
188552,-100,4,2,1,70,0,0
197124,-100,4,1,0,70,0,1
208195,-100,4,1,0,70,0,0
208552,-100,4,1,0,70,0,1
219624,-100,4,1,0,70,0,0
219981,-100,4,1,0,70,0,1
231409,-100,4,1,0,70,0,0

[Colours]
Combo1 : 255,128,255
Combo2 : 128,128,255
Combo3 : 255,128,128
Combo4 : 0,255,128
Combo5 : 255,255,128

[HitObjects]
476,244,1410,2,0,P|428:336|380:360,2,150,2|0|0,0:0|0:0|0:0,0:0:0:0:
404,172,2838,2,0,P|352:172|308:148,1,100,0|2,0:0|0:0,0:0:0:0:
236,84,3552,2,0,L|172:84,1,50
92,116,4088,6,0,P|19:165|0:241,1,150,0|8,0:0|0:0,0:0:0:0:
76,284,4981,2,0,L|96:404,1,100,0|8,0:0|0:0,0:0:0:0:
192,376,5695,1,0,0:0:0:0:
236,288,6052,2,0,P|288:284|336:308,2,100,8|0|8,0:0|0:0|0:0,0:0:0:0:
172,212,7124,6,0,P|156:140|204:72,1,150
288,48,8017,1,8,0:0:0:0:
384,80,8374,2,0,P|416:180|336:296,1,250
240,276,9624,1,8,0:0:0:0:
148,240,9981,6,0,P|84:260|36:332,2,150,0|4|8,0:0|0:0|0:0,0:0:0:0:
196,148,11409,2,0,P|152:100|60:92,2,150,0|4|8,0:0|0:0|0:0,0:0:0:0:
256,192,12838,12,0,14802,0:0:0:0:
180,244,15517,6,0,P|236:280|332:280,1,150,4|8,0:0|0:0,0:0:0:0:
408,240,16409,2,0,P|448:136|400:44,1,200,0|0,0:0|0:0,0:0:0:0:
320,28,17481,1,8,3:0:0:0:
248,96,17838,2,0,P|196:112|144:104,1,100,0|0,0:0|3:0,0:0:0:0:
56,132,18552,6,0,P|32:232|68:332,1,200
156,352,19624,1,8,3:0:0:0:
240,300,19981,2,0,P|328:292|388:336,2,150,0|0|8,0:0|0:0|3:0,0:0:0:0:
196,208,21409,6,0,L|184:96,1,100,0|8,0:0|3:0,0:0:0:0:
264,44,22124,2,0,P|368:28|460:68,1,200
492,156,23195,1,8,3:0:0:0:
412,212,23552,2,0,P|383:258|378:323,1,100,0|8,0:0|3:0,0:0:0:0:
308,376,24267,6,0,P|232:392|152:364,1,150
84,308,25159,1,8,3:0:0:0:
36,220,25517,2,0,P|40:148|84:84,1,150,0|4,0:0|0:0,0:0:0:0:
184,256,26767,1,8,3:0:0:0:
284,256,27124,6,0,P|336:256|380:284,1,100,0|8,0:0|3:0,0:0:0:0:
476,280,27838,2,0,P|496:176|464:84,1,200
380,36,28909,1,8,3:0:0:0:
300,92,29267,2,0,P|248:108|200:104,1,100,0|8,0:0|3:0,0:0:0:0:
108,140,29981,6,0,P|28:136|-24:72,2,150,0|0|8,0:0|0:0|3:0,0:0:0:0:
208,152,31409,2,0,P|228:204|220:260,1,100,0|8,0:0|3:0,0:0:0:0:
232,340,32124,6,0,P|304:364|384:344,2,150,0|4|8,0:0|0:0|3:0,0:0:0:0:
300,268,33552,2,0,P|364:224|392:136,2,150,0|4|8,0:0|0:0|3:0,0:0:0:0:
248,184,34981,2,0,P|196:96|92:104,1,200
152,184,36052,5,8,3:0:0:0:
196,272,36409,2,0,P|100:267|54:182,1,200,8|4,3:0|0:0,0:0:0:0:
28,88,37481,1,0,3:0:0:0:
128,88,37838,2,0,P|184:88|228:112,1,100,0|8,0:0|3:0,0:0:0:0:
308,164,38552,5,0,0:0:0:0:
308,364,39267,1,0,0:0:0:0:
132,296,39981,2,0,P|52:292|4:336,2,150,0|0|2,0:0|0:0|0:0,0:0:0:0:
152,200,41409,5,0,0:0:0:0:
300,68,42124,1,2,0:0:0:0:
160,212,42838,2,0,P|264:216|304:180,2,150,0|0|8,0:0|0:0|3:0,0:0:0:0:
72,260,44267,6,0,P|44:312|44:360,2,100,4|8|0,0:0|3:0|0:0,0:0:0:0:
28,172,45338,1,8,3:0:0:0:
116,124,45695,2,0,P|196:56|296:60,1,200
384,80,46767,1,8,3:0:0:0:
452,152,47124,6,0,P|484:88|452:12,2,150,4|0|8,0:0|0:0|3:0,0:0:0:0:
360,192,48552,2,0,P|352:244|360:308,1,100,0|8,0:0|3:0,0:0:0:0:
284,360,49267,2,0,P|232:368|184:360,1,100,0|12,0:0|3:0,0:0:0:0:
256,192,49981,12,0,52124,0:0:0:0:
360,232,52838,6,0,P|280:296|176:292,1,200,4|0,0:0|0:0,0:0:0:0:
88,292,53909,1,8,0:0:0:0:
48,200,54267,2,0,P|60:96|136:32,1,200
228,36,55338,1,8,0:0:0:0:
316,84,55695,6,0,P|400:84|464:48,2,150,0|0|8,0:0|0:0|0:0,0:0:0:0:
220,112,57124,2,0,P|168:208|200:304,1,200
280,340,58195,1,8,0:0:0:0:
380,320,58552,6,0,P|428:260|432:176,1,150,0|4,0:0|0:0,0:0:0:0:
304,36,59981,2,0,P|236:60|140:40,1,150,0|4,0:0|0:0,0:0:0:0:
12,52,61052,1,8,0:0:0:0:
12,152,61409,6,0,P|24:244|68:292,1,150
160,288,62302,1,0,0:0:0:0:
244,340,62659,2,0,P|348:324|440:212,1,250,4|0,0:0|0:0,0:0:0:0:
468,124,63909,1,8,0:0:0:0:
368,120,64267,6,0,P|264:136|200:216,1,200,4|0,0:0|0:0,0:0:0:0:
184,300,65338,1,8,0:0:0:0:
92,336,65695,2,0,P|16:272|4:176,1,200
44,84,66767,1,8,0:0:0:0:
136,44,67124,6,0,P|244:44|328:100,1,200,0|0,0:0|0:0,0:0:0:0:
364,180,68195,1,8,0:0:0:0:
276,228,68552,2,0,P|264:276|272:340,1,100,0|8,0:0|0:0,0:0:0:0:
352,384,69267,2,0,P|404:384|456:360,1,100,0|8,0:0|0:0,0:0:0:0:
476,268,69981,6,0,L|464:116,2,150,0|12|0,0:0|0:0|0:0,0:0:0:0:
380,232,71409,2,0,L|368:80,2,150,0|12|0,0:0|0:0|0:0,0:0:0:0:
316,308,72838,2,0,P|220:336|120:304,1,200,4|0,0:0|0:0,0:0:0:0:
52,240,73909,1,8,0:0:0:0:
108,156,74267,2,0,P|120:96|72:16,2,150,0|8|0,0:0|0:0|0:0,0:0:0:0:
256,192,75695,12,4,78552,0:0:0:0:
220,256,86945,6,0,P|183:188|108:166,2,150,0|8|0,0:0|3:0|0:0,0:0:0:0:
119,269,88374,2,0,P|129:312|182:348,2,100
220,256,89445,2,0,B|271:268|304:301|304:301|352:267,1,150
432,212,90338,5,8,3:0:0:0:
376,128,90695,2,0,P|324:128|272:156,1,100,0|8,0:0|3:0,0:0:0:0:
196,204,91409,2,0,P|148:220|96:216,1,100,0|8,0:0|3:0,0:0:0:0:
32,144,92124,2,0,P|20:96|28:40,1,100,0|8,0:0|3:0,0:0:0:0:
124,28,92838,6,0,P|228:52|320:40,1,200,4|0,0:0|0:0,0:0:0:0:
420,40,93909,1,8,3:0:0:0:
488,112,94267,2,0,P|500:164|496:216,1,100,0|8,0:0|3:0,0:0:0:0:
460,304,94981,2,0,P|352:292|264:336,1,200
172,348,96052,5,8,3:0:0:0:
76,316,96409,2,0,P|40:272|36:228,1,100,0|8,0:0|3:0,0:0:0:0:
56,132,97124,2,0,B|144:136|196:88|196:88|256:120,2,200,0|0|4,0:0|0:0|0:0,0:0:0:0:
36,228,98909,5,8,3:0:0:0:
124,272,99267,2,0,P|148:328|160:376,1,100,0|8,0:0|3:0,0:0:0:0:
260,368,99981,2,0,P|360:360|444:308,1,200
484,216,101052,1,8,3:0:0:0:
412,144,101409,6,0,P|312:152|228:204,1,200
144,256,102481,1,8,3:0:0:0:
48,232,102838,2,0,P|40:176|48:128,1,100,0|8,0:0|3:0,0:0:0:0:
120,64,103552,6,0,L|268:84,2,150,0|4|8,0:0|0:0|3:0,0:0:0:0:
140,164,104981,2,0,L|288:184,2,150,0|4|8,0:0|0:0|3:0,0:0:0:0:
40,184,106409,2,0,P|28:232|32:296,1,100,0|8,0:0|3:0,0:0:0:0:
100,352,107124,6,0,P|220:368|308:336,1,200,4|0,0:0|0:0,0:0:0:0:
380,296,108195,1,8,3:0:0:0:
424,208,108552,2,0,P|408:152|412:104,1,100,8|8,3:0|3:0,0:0:0:0:
348,32,109267,2,0,P|292:24|232:36,1,100,0|8,0:0|3:0,0:0:0:0:
176,96,109981,6,0,P|144:192|56:256,1,200,0|0,0:0|0:0,0:0:0:0:
200,344,111409,2,0,P|232:248|320:184,1,200
408,188,112481,1,2,0:0:0:0:
382,289,112838,6,0,P|476:266|508:176,1,200
372,28,114267,2,0,P|278:50|246:141,1,200
436,200,115695,6,0,P|424:312|352:372,1,200,4|0,0:0|0:0,0:0:0:0:
264,360,116767,1,8,3:0:0:0:
180,308,117124,2,0,P|192:196|264:136,1,200
228,44,118195,1,8,3:0:0:0:
324,72,118552,6,0,P|404:68|464:24,2,150,4|0|8,0:0|0:0|3:0,0:0:0:0:
264,152,119981,2,0,L|288:264,2,100,0|8|0,0:0|3:0|0:0,0:0:0:0:
164,156,121052,1,8,3:0:0:0:
256,192,121409,12,0,123552,0:0:0:0:
144,160,124267,6,0,P|188:268|280:300,1,200,4|0,0:0|0:0,0:0:0:0:
360,304,125338,1,8,0:0:0:0:
432,232,125695,2,0,P|464:280|460:332,2,100,0|8|0,0:0|0:0|0:0,0:0:0:0:
428,132,126767,1,8,0:0:0:0:
332,152,127124,6,0,P|229:132|149:74,1,200
52,68,128195,1,8,0:0:0:0:
72,164,128552,2,0,P|159:229|199:318,1,200
284,364,129624,1,8,0:0:0:0:
316,272,129981,6,0,P|388:236|472:252,2,150,0|12|0,0:0|0:0|0:0,0:0:0:0:
160,252,131409,2,0,P|152:172|88:120,2,150,0|12|0,0:0|0:0|0:0,0:0:0:0:
216,336,132838,2,0,P|264:360|320:360,1,100,0|8,0:0|0:0,0:0:0:0:
408,336,133552,2,0,P|440:300|496:288,2,100,0|8|0,0:0|0:0|0:0,0:0:0:0:
324,280,134624,1,8,0:0:0:0:
316,180,134981,2,0,P|264:200|236:232,1,100,0|8,0:0|0:0,0:0:0:0:
172,308,135695,6,0,P|64:300|24:220,1,200,4|0,0:0|0:0,0:0:0:0:
68,136,136767,1,8,0:0:0:0:
152,80,137124,2,0,P|260:88|300:168,1,200
276,256,138195,1,8,0:0:0:0:
344,332,138552,6,0,P|428:348|508:328,2,150,0|0|8,0:0|0:0|0:0,0:0:0:0:
276,256,139981,2,0,P|248:296|240:348,1,100,0|8,0:0|0:0,0:0:0:0:
140,364,140695,2,0,P|88:364|44:336,1,100,0|8,0:0|0:0,0:0:0:0:
16,244,141409,6,0,L|0:76,2,150,0|12|0,0:0|0:0|0:0,0:0:0:0:
108,284,142838,2,0,L|92:116,2,150,0|12|0,0:0|0:0|0:0,0:0:0:0:
200,320,144267,2,0,P|312:326|403:277,1,200,4|0,0:0|0:0,0:0:0:0:
476,240,145338,1,8,0:0:0:0:
392,192,145695,5,8,3:0:0:0:
480,140,146052,2,0,P|502:105|500:65,2,75,0|0|2,0:0|0:0|0:0,0:0:0:0:
256,192,147213,12,0,148552,0:0:0:0:
256,192,157124,12,0,159267,0:0:0:0:
384,88,160338,6,0,P|328:76|268:88,1,100
200,132,161052,1,8,0:0:0:0:
100,132,161409,2,0,P|52:88|44:56,2,100,0|8|0,0:0|0:0|0:0,0:0:0:0:
200,132,162481,1,8,0:0:0:0:
288,180,162838,6,0,B|336:276|292:324|292:324|352:336,1,200
436,344,163909,1,8,0:0:0:0:
480,256,164267,6,0,B|440:204|464:108|464:108|408:108,1,200
320,108,165338,1,8,0:0:0:0:
220,108,165695,2,0,P|164:192|172:288,1,200
248,352,166767,1,8,0:0:0:0:
348,336,167124,6,0,P|404:252|396:156,1,200
356,64,168195,1,8,0:0:0:0:
444,20,168552,6,0,P|496:28|528:64,2,100,0|8|0,0:0|0:0|0:0,0:0:0:0:
356,64,169624,1,8,0:0:0:0:
308,152,169981,6,0,P|208:188|96:168,1,200
28,128,171052,1,8,0:0:0:0:
40,228,171409,1,0,0:0:0:0:
108,300,171767,6,0,P|176:336|296:324,1,200,12|8,0:0|0:0,0:0:0:0:
380,272,172838,2,0,P|376:168|428:80,1,200,0|0,0:0|0:0,0:0:0:0:
340,28,173909,1,8,0:0:0:0:
260,92,174267,6,0,P|204:96|152:72,1,100,0|8,0:0|0:0,0:0:0:0:
68,112,174981,2,0,L|80:272,2,150,0|0|8,0:0|0:0|0:0,0:0:0:0:
140,44,176409,2,0,P|196:44|244:60,1,100,0|8,0:0|0:0,0:0:0:0:
332,88,177124,6,0,P|440:88|484:52,2,150,0|4|8,0:0|0:0|0:0,0:0:0:0:
232,80,178552,2,0,P|176:128|160:204,1,150,0|4,0:0|0:0,0:0:0:0:
204,340,179624,1,0,0:0:0:0:
296,308,179981,6,0,P|364:228|368:128,1,200,0|0,0:0|0:0,0:0:0:0:
392,40,181052,1,8,0:0:0:0:
304,84,181409,2,0,P|224:108|104:88,1,200
24,40,182481,1,8,0:0:0:0:
24,140,182838,6,0,P|56:240|44:336,1,200
140,364,183909,1,8,0:0:0:0:
240,364,184267,2,0,P|340:344|404:256,1,200
428,176,185338,2,0,L|384:84,1,100,8|4,0:0|0:0,0:0:0:0:
108,44,186945,5,12,3:0:0:0:
48,276,188017,2,0,P|88:320|192:332,1,150,8|8,3:0|3:0,0:0:0:0:
412,192,189802,2,0,L|512:192,2,100,8|8|8,3:0|3:0|3:0,0:0:0:0:
252,292,191409,6,0,P|148:340|104:332,2,150,0|4|0,0:0|0:0|0:0,0:0:0:0:
344,256,192838,2,0,P|420:280|468:344,2,150,8|8|0,3:0|3:0|0:0,0:0:0:0:
256,192,194267,12,0,196409,0:0:0:0:
360,136,197124,6,0,P|296:88|176:96,1,200,4|0,0:0|0:0,0:0:0:0:
92,140,198195,1,8,0:0:0:0:
128,232,198552,2,0,P|140:292|136:348,2,100,0|8|0,0:0|0:0|0:0,0:0:0:0:
92,140,199624,1,8,0:0:0:0:
188,112,199981,6,0,P|284:152|376:124,1,200
440,52,201052,1,8,0:0:0:0:
500,132,201409,2,0,P|516:236|464:324,1,200
380,356,202481,1,8,0:0:0:0:
284,328,202838,6,0,P|216:304|144:324,2,150,0|12|0,0:0|0:0|0:0,0:0:0:0:
328,236,204267,2,0,P|292:176|216:140,2,150,0|12|0,0:0|0:0|0:0,0:0:0:0:
428,244,205695,2,0,P|480:152|464:56,1,200,4|0,0:0|0:0,0:0:0:0:
376,24,206767,1,8,0:0:0:0:
292,76,207124,2,0,P|216:104|144:92,2,150,4|0|8,0:0|0:0|0:0,0:0:0:0:
372,136,208552,6,0,P|396:248|364:340,1,200,4|0,0:0|0:0,0:0:0:0:
276,360,209624,1,8,0:0:0:0:
184,320,209981,2,0,P|132:316|72:336,2,100,0|8|0,0:0|0:0|0:0,0:0:0:0:
244,240,211052,1,8,0:0:0:0:
236,140,211409,6,0,P|328:176|336:284,1,200
244,240,212481,1,8,0:0:0:0:
256,340,212838,2,0,P|164:304|156:196,1,200
152,112,213909,1,8,0:0:0:0:
84,40,214267,6,0,P|40:80|8:172,2,150,0|12|0,0:0|0:0|0:0,0:0:0:0:
184,36,215695,2,0,P|252:76|336:68,2,150,0|12|0,0:0|0:0|0:0,0:0:0:0:
136,124,217124,2,0,P|152:232|108:324,1,200
200,364,218195,1,8,0:0:0:0:
292,324,218552,6,0,P|340:304|392:308,1,100,0|8,0:0|0:0,0:0:0:0:
468,252,219267,2,0,P|476:204|472:144,1,100,0|8,0:0|0:0,0:0:0:0:
432,60,219981,6,0,P|324:40|232:68,1,200,4|0,0:0|0:0,0:0:0:0:
188,152,221052,1,8,0:0:0:0:
92,132,221409,2,0,P|56:96|52:40,2,100,0|8|0,0:0|0:0|0:0,0:0:0:0:
188,152,222481,1,8,0:0:0:0:
232,244,222838,6,0,P|328:244|384:200,2,150,0|0|8,0:0|0:0|0:0,0:0:0:0:
132,252,224267,2,0,P|120:304|132:352,2,100,0|8|0,0:0|0:0|0:0,0:0:0:0:
176,164,225338,1,8,0:0:0:0:
144,68,225695,6,0,P|72:48|-16:68,2,150,0|12|0,0:0|0:0|0:0,0:0:0:0:
240,92,227124,2,0,P|320:72|376:32,2,150,0|12|0,0:0|0:0|0:0,0:0:0:0:
176,164,228552,2,0,P|168:252|212:308,2,150,0|12|0,0:0|0:0|0:0,0:0:0:0:
268,200,229981,6,0,P|368:200|448:144,1,200,0|0,0:0|0:0,0:0:0:0:
400,56,231052,1,8,0:0:0:0:
256,192,231409,12,0,233552,0:0:0:0:
256,224,234267,5,0,0:0:0:0:
160,152,234802,1,4,0:0:0:0:
208,40,235338,2,0,P|136:28|40:116,1,200,4|4,0:0|0:0,0:0:0:0:
40,204,236409,2,0,P|104:244|108:364,1,200,4|4,0:0|0:0,0:0:0:0:
256,320,237660,5,4,0:0:0:0:
368,364,238195,1,4,0:0:0:0:
344,248,238731,2,0,P|396:196|476:180,2,150,4|0|0,0:0|0:0|0:0,0:0:0:0:
256,192,239981,12,4,241945,0:0:0:0:
