osu file format v5

[General]
AudioFilename: chung kuo hua-Chinese.mp3
AudioLeadIn: 0
PreviewTime: -1
Countdown: 0
SampleSet: Soft
StackLeniency: 0.7
Mode: 0
LetterboxInBreaks: 1

[Metadata]
Title:Chung Kuo Hua-Chinese
Artist:S.H.E.
Creator:shindrgon
Version:Hard
Source:
Tags:

[Difficulty]
HPDrainRate:5
CircleSize:5
OverallDifficulty:5
SliderMultiplier:1.4
SliderTickRate:4

[Events]
//Background and Video events
0,0,"she pic.jpg"
//Break Periods
2,69499,76200
//Storyboard Layer 0 (Background)
//Storyboard Layer 1 (Failing)
//Storyboard Layer 2 (Passing)
//Storyboard Layer 3 (Foreground)
//Storyboard Sound Samples
//Background Colour Transformations
3,100,163,162,255

[TimingPoints]
0,600,4,2,0,100,1

[HitObjects]
128,96,10200,1,2
184,95,10500,1,2
239,93,10800,1,2
294,94,11100,5,2
337,129,11400,1,2
379,165,11700,1,2
420,202,12000,1,4
325,262,12600,5,0
269,263,12900,1,0
212,263,13200,1,0
156,261,13500,1,4
111,227,13800,5,0
104,171,14100,1,0
103,114,14400,1,0
105,58,14700,1,6
161,58,15000,6,2,B|257:58|269:80|353:58|249:169,1,210
269,146,16200,6,2,B|226:225|98:161|117:61,1,210
105,40,17400,5,0
150,73,17700,1,0
205,74,18000,1,0
260,79,18300,1,0
260,79,18600,1,0
315,82,18900,1,0
314,82,19200,2,4,B|250:146,1,70
296,177,19800,5,0
275,228,20100,1,0
225,255,20400,1,0
169,262,20700,1,0
169,262,21000,1,0
115,244,21300,1,0
115,244,21600,1,4
100,132,22200,5,0
138,91,22500,1,0
160,142,22800,1,0
193,97,23100,1,0
218,147,23400,1,0
218,148,23700,5,4
273,145,24000,5,0
328,146,24300,1,0
383,148,24600,2,4,B|287:148,1,70
311,203,25200,5,8
367,202,25500,5,4
423,201,25800,5,8
425,145,26100,5,4
423,89,26400,5,0
404,36,26700,1,0
368,79,27000,1,0
256,73,27600,5,0
199,72,27900,1,0
226,120,28200,1,0
392,96,29100,5,0
336,108,29400,1,4
287,79,29700,5,0
232,65,30000,1,4
195,107,30300,5,0
220,156,30600,1,0
198,207,30900,1,0
198,206,31200,1,4
243,238,31500,5,0
298,243,31800,1,0
341,208,32100,1,0
359,155,32400,1,0
337,103,32700,1,0
337,103,33000,1,4
289,72,33300,5,0
232,73,33600,1,0
181,96,33900,1,0
139,133,34200,1,0
102,175,34500,1,4
79,226,34800,5,0
134,227,35100,1,0
159,276,35400,1,0
215,276,35700,1,0
243,228,36000,1,0
299,228,36300,1,0
322,278,36600,1,4
378,278,36900,5,0
427,251,37200,2,4,B|427:155,1,70
381,147,37800,5,0
334,115,38100,1,4
222,111,38700,5,0
222,112,39000,1,0
179,148,39300,1,0
178,148,39600,1,4
178,204,39900,5,0
233,210,40200,1,0
288,207,40500,2,4,B|320:175|288:143,1,70
234,141,41100,5,0
234,141,41400,1,0
289,146,41700,2,4,B|257:114|289:82,1,70
287,84,42300,5,0
286,85,42600,1,0
341,77,42900,1,0
342,78,43200,2,4,B|438:78,1,70
452,117,43800,5,0
468,170,44100,1,0
470,225,44400,2,4,B|470:321,1,70
422,325,45000,6,0,B|358:325,1,35
359,324,45300,1,4
302,324,45600,5,0
303,268,45900,2,0,B|239:268,1,35
247,287,46200,1,4
193,271,46500,5,0
191,215,46800,1,0
192,159,47100,1,0
192,102,47400,1,4
192,45,47700,5,4
248,45,48000,5,4
192,46,48300,5,4
304,46,48900,6,10,B|304:142,1,70
359,124,49500,6,10,B|359:220,1,70
303,196,50100,6,10,B|303:292,1,70
303,322,50700,6,10,B|207:322,1,70
231,265,51300,6,10,B|135:265,1,70
155,209,51900,6,14,B|59:209,1,70
84,152,52500,5,4
84,153,52800,5,4
84,152,53100,5,4
166,227,53700,6,2,B|166:131,1,70
109,157,54300,6,2,B|205:157,1,70
287,127,55200,5,0
337,151,55500,1,0
334,95,55800,1,0
284,69,56100,1,0
236,98,56400,1,0
236,154,56700,1,4
336,204,57300,5,4
300,247,57600,5,4
278,195,57900,5,4
198,274,58500,6,10,B|230:242|262:274|231:314,1,70
231,345,59100,6,10,B|135:345|195:307,1,70
198,274,59700,6,10,B|166:210|185:188,1,70
172,151,60300,6,14,B|257:128|239:114,1,70
279,89,60900,6,14,B|352:129,1,70
391,146,61500,6,14,B|469:87,1,70
256,192,62100,12,6,69299
64,64,77400,5,2
102,104,77700,1,2
141,144,78000,1,2
185,177,78300,5,2
240,178,78600,1,2
296,178,78900,1,2
352,178,79200,1,4
368,67,79800,5,0
323,33,80100,1,0
285,74,80400,1,0
252,119,80700,1,0
195,119,81000,5,0
196,62,81300,1,0
165,15,81600,1,0
137,63,81900,1,6
81,65,82200,6,2,B|177:161|273:65,1,210
298,26,83400,6,4,B|394:-38|522:26,1,210
495,71,84600,5,0
467,119,84900,1,0
467,119,85200,1,0
431,162,85500,1,0
486,164,85800,1,0
429,163,86100,1,0
372,162,86400,1,4
373,162,86550,2,4,B|309:162,1,35
281,162,87000,5,0
281,162,87300,1,0
248,116,87600,1,0
220,169,87900,1,0
220,170,88200,1,0
191,218,88500,1,0
161,170,88800,1,4
161,170,89400,5,0
217,170,89700,1,0
216,170,90000,1,0
218,225,90300,1,0
216,169,90600,1,0
216,112,90900,1,4
216,168,91200,5,0
271,166,91500,1,0
272,110,91800,2,4,B|368:110,1,70
382,148,92400,5,4
415,192,92700,5,8
405,247,93000,5,4
350,259,93300,5,8
386,301,93600,5,0
441,290,93900,1,0
460,237,94200,1,0
353,203,94800,5,0
374,151,95100,1,0
349,100,95400,1,0
184,133,96300,5,0
184,75,96600,1,0
184,76,96900,1,0
184,132,97200,1,4
184,188,97500,5,0
184,131,97800,1,0
184,187,98100,1,0
184,130,98400,1,4
184,73,98700,6,4,B|152:41|120:73,1,70
123,71,99300,6,4,B|155:103|187:71,1,70
240,73,99900,5,0
268,120,100200,1,0
299,73,100500,1,0
326,121,100800,1,4
326,177,101100,6,4,B|294:209|262:177,1,70
267,123,101700,6,4,B|299:91|331:123,1,70
301,169,102300,5,0
356,170,102600,1,0
329,219,102900,1,0
280,246,103200,1,4
255,195,103500,5,8
255,195,103800,1,8
303,166,104100,5,2
303,167,104250,1,2
303,166,104400,1,6
255,196,104700,5,8
255,195,105000,1,8
303,166,105300,5,2
303,166,105450,1,2
303,166,105600,1,6
256,135,105900,5,2
256,135,106050,1,2
256,135,106200,1,6
199,136,106500,5,8
200,136,106800,1,8
199,192,107100,5,2
199,192,107250,1,2
199,193,107400,1,6
199,249,107700,5,8
199,250,108000,1,8
255,250,108300,5,2
255,250,108450,1,2
255,249,108600,1,6
310,252,108900,5,8
310,251,109200,1,8
311,194,109500,5,2
311,194,109650,1,6
311,194,109800,1,6
312,138,110100,5,8
312,138,110250,1,8
312,138,110400,1,14
256,135,110700,5,2
256,135,110850,1,6
256,135,111000,1,6
256,195,111300,5,8
256,195,111450,1,8
256,195,111600,1,14
256,251,111900,5,0
254,306,112200,1,0
256,250,112500,1,0
254,305,112800,1,4
305,327,113100,5,0
359,315,113400,1,0
323,271,113700,1,0
378,261,114000,1,4
360,314,114300,5,0
305,325,114600,1,0
323,272,114900,6,6,B|278:240|323:240,1,35
281,225,115200,6,6,B|314:192|314:192,1,35
324,179,115500,6,6,B|324:122,1,35
324,60,116100,6,10,B|290:6|258:37,1,70
227,67,116700,6,10,B|186:83|237:119,1,70
278,152,117300,6,10,B|250:192|204:178,1,70
165,163,117900,6,10,B|131:177|99:139,5,70
60,106,119700,6,6,B|13:153,1,35
58,146,120000,6,6,B|9:195,1,35
57,185,120300,6,6,B|7:234,1,35
69,284,120900,6,2,B|133:252|165:270,1,70
142,319,121500,6,2,B|206:351|236:311,1,70
320,342,122400,6,2,B|301:277,1,35
311,310,122700,6,2,B|270:255,1,35
291,283,123000,6,2,B|241:234,1,35
266,259,123300,6,2,B|207:226,1,35
236,243,123600,6,2,B|170:221,1,35
203,232,123900,6,2,B|133:232,1,35
92,195,124500,6,6,B|156:195,1,35
127,167,124800,6,6,B|63:167,1,35
91,139,125100,6,6,B|155:139,1,35
188,82,125700,5,10
246,142,126150,1,10
246,142,126300,5,10
187,202,126750,1,10
187,202,126900,5,10
246,261,127350,1,10
246,261,127500,5,10
247,344,127950,1,10
247,344,128100,5,10
246,261,128550,1,10
232,236,128700,5,10
236,180,129000,1,10
287,200,129300,6,2,B|336:151,1,35
339,175,129600,6,2,B|339:245,1,35
339,237,129900,6,2,B|396:294,1,70,2|2
388,286,130500,6,2,B|292:254|324:350,1,105
316,321,131100,6,2,B|284:193|252:321,1,140,2|2
254,313,132000,5,8
199,325,132300,6,8,B|231:357,1,35
199,325,132600,6,8,B|167:293,1,35
174,300,132900,5,8
174,300,133200,5,8
150,249,133500,6,8,B|197:283|259:188,1,105
238,216,134100,5,8
256,192,134400,12,14,136500
